#TITLE:LONLY LONLY;
#SUBTITLE:(full ver.);
#ARTIST:DJ SHARPNEL;
#TITLETRANSLIT:;
#SUBTITLETRANSLIT:;
#ARTISTTRANSLIT:;
#CREDIT:;
#BANNER:LONLY LONLY-bn.png;
#BACKGROUND:LONLY LONLY-bg.png;
#LYRICSPATH:;
#CDTITLE:;
#MUSIC:08 - Sharpnel - LONLY LONLY.mp3;
#OFFSET:-0.020;
#SAMPLESTART:84.885;
#SAMPLELENGTH:26.460;
#SELECTABLE:YES;
#BPMS:0.000=179.500,312.000=89.750,320.750=179.500,321.250=89.750,325.000=179.500,325.500=89.750,329.250=179.500,329.750=89.750,331.500=179.500,332.000=89.750,332.500=179.500,332.750=89.750,333.125=179.500,333.375=89.750,333.750=179.500,334.000=89.750,334.375=179.500,334.625=89.750,335.000=179.500,335.250=89.750,337.375=1000.000,340.000=179.500,353.000=89.750,354.000=179.500,374.000=359.000,375.000=179.500,375.500=359.000,376.500=179.500,377.000=359.000,378.000=179.500,378.500=359.000,379.500=179.500,400.000=89.750,400.250=179.500,400.750=89.750,401.000=179.500,401.500=89.750,401.750=179.500,402.250=89.750,402.500=179.500,403.000=89.750,403.250=179.500,403.750=89.750,404.000=179.500,404.500=89.750,404.750=179.500,405.250=89.750,405.500=179.500,406.000=89.750,406.250=1000.000,407.750=179.500,455.000=359.000,471.000=89.750,478.000=250.000,479.000=180.000,480.000=176.500,496.000=179.500,512.000=89.750,512.750=179.500,514.750=359.000,518.750=179.500,520.750=89.750,521.000=179.500,522.000=89.750,522.250=179.500,524.250=89.750,524.500=179.500,525.500=359.000,526.500=179.500,528.000=359.000,530.000=179.500,546.500=359.000,547.500=179.500,548.000=359.000,549.000=179.500,549.500=89.750,549.750=179.500,550.250=89.750,550.500=179.500,551.000=89.750,551.250=179.500,551.750=89.750,552.000=359.000,554.000=179.500,554.500=89.750,554.750=179.500,555.250=89.750,555.500=179.500,556.000=89.750,556.250=179.500,556.750=89.750,557.000=179.500,557.500=89.750,557.750=179.500,558.250=89.750,558.500=179.500,559.000=89.750,559.250=179.500,559.750=89.750,560.000=179.500,561.000=359.000,565.000=179.500,567.000=359.000,575.000=179.500,579.000=359.000,587.000=179.500,602.000=359.000,604.000=179.500,620.000=359.000,622.000=179.500,624.000=359.000,626.000=179.500,627.000=359.000,629.000=179.500,630.000=359.000,632.000=179.500,636.000=269.250,646.500=179.500,658.000=359.000,658.500=179.500,659.000=359.000,659.500=179.500,720.000=359.000,728.000=179.500,732.000=359.000,996.000=179.500,1120.000=359.000,1128.000=160.000,1128.250=150.000,1128.500=140.000,1128.750=130.000,1129.000=120.000,1129.250=110.000,1129.500=40.000,1129.750=100.000,1130.000=250.000,1130.250=500.000,1130.500=750.000,1130.750=1000.000,1131.000=10000.000;
#STOPS:0.000=0.040
,346.521=0.020
,346.542=0.020
,346.563=0.020
,346.583=0.020
,346.604=0.020
,346.625=0.020
,346.646=0.020
,346.667=0.020
,346.688=0.020
,346.708=0.020
,346.729=0.020
,346.750=0.020
,346.771=0.020
,346.792=0.020
,346.813=0.020
,346.833=0.020
,346.854=0.020
,346.875=0.020
,370.000=0.020
,370.021=0.020
,370.042=0.020
,370.063=0.020
,370.083=0.020
,370.104=0.020
,370.125=0.020
,370.146=0.020
,370.500=0.020
,370.563=0.020
,370.625=0.020
,370.688=0.020
,370.750=0.020
,370.813=0.020
,370.875=0.020
,370.938=0.020
,371.000=0.020
,371.021=0.020
,371.042=0.020
,371.063=0.020
,371.083=0.020
,371.104=0.020
,371.125=0.020
,371.146=0.020
,371.500=0.020
,371.563=0.020
,371.625=0.020
,371.688=0.020
,371.750=0.020
,371.813=0.020
,371.875=0.020
,371.938=0.020
,372.000=0.020
,372.021=0.020
,372.042=0.020
,372.063=0.020
,372.083=0.020
,372.104=0.020
,372.125=0.020
,372.146=0.020
,372.500=0.020
,372.563=0.020
,372.625=0.020
,372.688=0.020
,372.750=0.020
,372.813=0.020
,372.875=0.020
,372.938=0.020
,373.000=0.020
,373.021=0.020
,373.042=0.020
,373.063=0.020
,373.083=0.020
,373.104=0.020
,373.125=0.020
,373.146=0.020
,373.500=0.220
;
#BGCHANGES:100.000=lights.avi=0.500=0=0=1,
156.000=lights.avi=0.200=0=0=1,
160.000=lights.avi=0.800=0=0=1,
245.000=lights.avi=0.700=0=0=1,
340.000=lights.avi=0.700=0=0=1,
370.000=lights.avi=2.000=0=0=1,
99999=-nosongbg-=1.000=0=0=0 // don't automatically add -songbackground-
;
// cache tags:
#FIRSTBEAT:0.333;
#LASTBEAT:1330.000;
#SONGFILENAME:Songs/cedric step/LONLY LONLY (full ver.)/LONLY.sm;
#HASMUSIC:1;
#HASBANNER:1;
#MUSICLENGTH:334.712;
// end cache tags

//---------------dance-single - ----------------
#NOTES:
     dance-single:
     :
     Hard:
     10:
     0.768,1.000,0.848,0.155,0.287,1463.000,284.000,52.000,0.000,0.000:



0000
0000
0000
0000
,
1000
1100
0001
0101
,
0010
0110
0100
0110
,
1001
1001
0110
0110
,
1001
0000
1001
0000
0110
0000
0110
0010
,
1010
1010
0100
0100
,
0011
0011
1000
1000
,
0110
0110
0001
0001
,
0011
0011
0000
0011
0000
1100
1001
0000
,
0010
0100
0000
0100
0000
0001
0000
0010
,
0000
0100
0000
1000
0000
0100
0010
0001
,
0000
0100
0000
1000
0000
0100
0001
0010
,
0000
1000
0000
0100
0000
0010
1000
0001
,
0000
0100
0000
0010
0000
1000
0000
0001
,
0000
0100
0000
0001
0000
0010
0100
0010
,
1000
0001
0010
1000
0100
0010
0001
0100
,
0010
1000
0100
0100
0010
0100
1010
0000
,
1000
0010
0100
0000
1000
0010
0100
0000
,
1000
0010
0100
0000
1010
0000
0100
0000
,
0001
0010
0100
0000
0001
0010
0100
0000
,
0001
0010
0100
0000
0101
0000
0010
0000
,
0100
0001
0010
0000
0100
0001
0010
0000
,
0100
0001
0010
0000
0101
0000
0010
0000
,
1000
0100
0010
0000
1000
0100
0010
0000
,
1000
0000
0000
1000
0010
0000
0000
0000
1000
0000
0001
0000
0011
0000
0000
0000
,
0010
0100
1000
0100
0010
0100
0001
0100
,
0010
0100
0001
0100
1000
0100
0001
0100
,
1000
0100
0010
0100
1000
0100
0010
0100
,
0001
0100
1000
0100
0010
0100
0001
0100
,
1000
0010
0100
0010
0001
0010
0100
0010
,
1000
0010
0001
0010
0100
0010
0001
0010
,
1000
0000
1000
0100
0000
0100
0010
0000
0010
0001
0000
0001
,
1000
0000
0001
0000
1000
0000
0001
0000
1000
0001
1000
0000
0110
0000
1001
0000
,
1000
1100
1000
1100
,
1000
0000
1100
0000
0001
1001
0010
0000
,
0100
0110
0100
0110
,
0100
0000
0010
0000
0000
0000
0001
1000
0001
0000
0000
0000
0010
0000
0001
0000
,
0110
0000
0000
1000
0000
1000
0010
0000
0010
0100
0000
0100
,
0001
0000
0000
0000
0000
0000
0000
0000
0001
0000
0000
0000
1000
0000
0000
0000
0000
0000
0000
0000
1000
0000
0000
0000
0100
0000
0000
0000
0000
0000
0010
0000
0000
0000
0000
0000
0000
0000
0000
0000
0000
0000
0010
0000
0000
0100
0000
0000
,
0020
0000
0000
0000
,
0030
0100
0010
0100
0001
0010
0100
0001
,
0010
1100
0010
1100
,
0010
0000
1100
0000
0010
0110
0100
0000
,
0001
0110
0001
0110
,
0001
0000
0110
0000
0000
0000
1000
0100
1000
0000
0000
0000
1010
0000
0010
0000
,
0101
0000
0000
0100
0000
0100
0010
0000
0010
1000
0000
1000
,
0100
0000
0000
0000
0100
0000
1000
0000
0000
0000
1000
0000
0010
0000
0000
0000
0010
0000
0001
0000
0000
0100
0000
0000
,
1000
0010
0100
0001
1000
0010
0100
0001
,
0010
1000
0010
0100
0010
0001
0010
1000
,
0100
0011
1000
0011
,
0100
0000
0011
0000
1000
1000
0000
0001
,
1000
0110
0001
0110
,
1000
0110
0000
0001
0110
0000
1010
1010
,
1010
0000
0010
0100
0000
0100
0001
0000
0001
0010
0000
0010
,
0100
1000
0100
0000
0100
0010
0100
0001
,
0100
0000
0100
0010
0000
0010
1000
0000
1000
0100
0000
0100
,
0010
0000
0010
0001
0000
0001
1000
0000
1000
0010
0000
0000
,
1000
0000
0000
1000
0100
0000
0000
1000
0100
0000
0000
1000
0100
0000
0000
0010
,
0001
0000
0000
0010
0001
0000
0000
0000
1000
0001
1000
0000
0000
0000
0000
0000
,
0001
0000
0000
1000
0001
0000
0000
1000
0001
0000
0000
0001
1000
0000
0000
0001
,
1000
0000
0001
1000
0000
0000
0010
0100
0010
0000
0000
0000
0100
0000
0001
0000
,
0010
0000
0000
0110
0000
0010
0001
0000
0001
0100
0000
0100
,
1000
0000
1000
0010
0000
0010
0001
0000
0001
0010
0000
0010
,
1000
0000
0000
1000
0100
0000
0000
0100
0010
0000
0000
0010
0001
0000
0000
0001
,
0100
0000
0000
0100
0010
0000
0010
0000
0010
0000
0210
0000
0310
0000
0000
0000
,
0000
1001
0000
0010
0100
0001
1000
0000
,
1010
0000
0000
0000
0100
0000
0100
0000
0000
0000
1000
0001
1000
0000
0010
0000
,
0100
0000
0000
0000
1001
0000
0000
0000
0000
0000
0000
0100
0010
0000
0000
0000
0001
0000
0000
0000
0100
0000
0000
0000
0010
0000
0000
0000
1000
0000
0000
0000
,
0100
0000
0000
0000
0010
0000
1000
0000
0000
0000
0100
0010
0001
0000
0110
0000
,
1001
0100
0010
0001
0100
0010
0001
0100
,
1000
0010
0100
1000
0000
0011
0000
0120
,
1000
1000
1000
1000
0100
0100
0100
0230
,
0001
0001
0001
0001
0010
0010
0010
0310
,
2000
0000
0000
0000
3000
0000
0200
0010
,
0002
0000
0000
0303
0000
0000
0010
0000
,
1100
0000
0000
0020
0100
2000
0000
3030
,
0000
0001
0100
0010
0100
0010
0001
0100
,
0010
0000
0001
0000
0010
0000
0001
0000
0010
0001
0010
0000
0001
0000
0010
0001
,
0010
0000
0000
1000
1010
0000
0000
0000
0100
0000
0000
0110
0110
0000
0000
0000
,
0001
0000
0000
0011
0010
0000
0000
0000
1000
0000
0000
0100
0001
0000
0000
0000
,
0110
0000
0000
1000
0000
0101
0000
0000
0000
0010
0000
0000
0001
1100
0000
0000
,
0000
0110
0000
0000
0001
0000
0110
0000
0000
0000
1010
0000
0000
0001
0110
0000
,
0100
0010
0001
0001
0000
0010
0000
0010
0000
0100
0010
1000
0000
0000
0100
0000
,
0100
0000
0000
0000
1000
0000
0001
0000
0000
0010
0000
0100
0000
0000
0001
0000
1000
0000
0000
0100
0000
0010
0000
0000
0100
0000
0001
0000
0000
0010
1000
0001
,
0000
0100
0000
0010
0000
1000
0000
0100
0000
0010
0000
0001
0000
0000
0000
0000
0000
0000
0000
0000
0000
0000
0000
0000
0000
0000
0000
0000
0000
0000
0000
0000
,
0010
1100
0010
0101
,
0010
0000
1100
0000
0010
0010
0100
0000
,
0110
0000
1000
0000
0101
0000
0001
0010
,
0000
0000
0000
0000
0000
0000
0010
0000
0000
0000
0000
0000
0100
0000
0000
0000
0000
0000
0010
0000
0000
0010
0000
0000
0110
0000
0000
0000
0000
0000
0000
0000
0000
0000
0000
0000
1000
0000
0000
0000
0000
0000
0000
0000
1000
0000
0000
0000
,
0100
0000
0100
0010
0000
0010
1000
0000
0000
0001
0000
0000
,
0110
0010
0000
0010
0120
0000
0000
0000
,
0000
0000
0000
0000
0000
1000
1000
0100
,
0100
0001
0001
0031
0010
1010
0010
1010
,
0010
0000
0000
0000
0000
0000
0000
0000
1010
0000
0000
0000
0000
0000
0000
0000
0010
0000
0000
0010
0000
0000
0000
0000
0000
0000
0000
0000
0000
0000
0000
0000
1000
0000
0000
0000
0000
0000
0000
0000
0000
0000
0000
0000
0000
0000
0000
0000
0000
0000
0000
0000
0000
0000
0000
0000
0110
0000
0000
0000
0000
0000
0000
0000
,
0000
0000
0001
0000
0000
0110
0000
0000
,
1000
0110
0000
0001
0110
0000
1000
0001
,
1001
0000
0000
0000
0100
0000
0000
0100
1000
0000
0000
1000
0010
0000
0000
0010
,
0100
0000
0000
0100
0001
0000
0000
0001
0010
0000
0100
0000
0000
0000
0010
0000
,
0110
0001
1000
0001
0010
0100
0100
0010
,
0000
1000
0001
1000
0010
0100
0100
0000
,
1000
0000
0000
1010
0000
0000
1000
0000
0000
1010
0000
0000
1000
0000
0000
1010
,
0000
0000
1000
0000
0000
1010
0000
0000
0100
0000
0000
0000
0000
0000
0000
0000
,
0110
0100
0110
0100
,
0110
0000
0100
0000
0110
0001
1100
0000
,
0010
1100
0001
1100
,
0010
1100
0001
1100
,
0110
1001
0011
0110
,
1010
0000
1100
0000
0101
0010
0101
0000
,
0010
0101
0010
0101
,
0010
0101
0010
0101
,
1000
0101
1000
0101
,
1000
0000
0101
0000
1000
1000
0011
0000
,
1000
0101
0010
0011
,
1000
0101
0010
0010
,
1000
0001
1000
0100
,
0010
0000
0100
0000
0001
0000
1000
0001
,
1000
0000
0001
1000
0001
0000
0010
0100
,
0001
0100
0010
1000
0100
0010
0002
0000
,
0000
0000
0000
0000
,
0000
0000
0000
0000
0000
0003
0000
0000
,
0100
0000
0100
0100
0000
0100
0100
0000
,
0100
0000
0100
0100
0000
0100
0100
0000
,
0110
0000
0100
0110
0000
0110
0100
0000
,
0110
0000
0110
0100
0000
0100
0110
0000
,
0010
0000
0010
1010
0000
0011
0010
0000
,
0010
0000
0010
0011
0000
1010
0010
0000
,
1001
0000
1001
0001
0000
0001
1001
0000
,
1001
0000
1001
1000
0000
1000
1001
0000
,
0110
0000
0000
2000
0000
0000
0000
0000
0000
0000
0000
3000
0000
0000
0000
0000
,
0000
0000
0000
0000
0000
0000
0000
0000
0000
0000
0000
0220
0000
0000
0000
0000
,
0000
0330
0000
0000
0002
0000
0000
0000
0003
2020
0000
0000
0000
0000
0000
3030
,
0000
0200
0000
0300
0000
0022
0000
0000
,
0033
0000
0000
0000
0200
0000
0310
0002
,
0000
1000
0103
0000
0200
0000
0301
2000
,
0000
0010
3001
0100
0020
0000
1030
0002
,
0000
0010
0103
0010
2000
0000
3100
0020
,
0000
0001
0130
1000
0100
0000
0000
0110
,
0000
0000
0000
0000
0100
0000
0000
0110
0000
0000
0010
0000
0000
0110
0000
0000
,
0010
0000
0000
0000
0000
0000
0000
0000
0000
0000
0000
0000
0000
0000
0000
0000
0110
0000
0000
0000
0000
0100
0010
0000
0000
0000
0000
0010
0100
0000
0000
0000
,
0000
0100
0010
0000
0000
0000
0000
0010
0100
0000
0000
0000
0000
0000
0110
0000
0000
0000
0000
0010
0100
0000
0000
0000
0000
0100
0010
0000
0000
0000
0000
0000
,
0110
1000
0000
0000
,
1000
0000
0100
0100
,
0000
0000
0010
0000
,
0000
0010
0000
0000
0000
0000
0001
0000
,
0000
0010
0000
0000
0010
0000
0100
0000
,
0000
0000
0001
0000
,
0000
0010
0000
0000
0000
0000
0100
0000
,
0110
2000
0100
3000
0110
0000
0101
0000
,
0110
0002
0100
0003
0110
0000
2000
3000
,
0110
0002
0100
0003
0110
0000
0102
0003
,
0110
2000
0100
3000
0110
0000
0000
0000
,
2000
0000
0000
0002
3000
0000
0200
0003
,
0020
0300
0000
2000
0030
0000
0200
3000
,
0020
0300
0000
0200
0030
0000
0002
0300
,
0200
0003
0000
0020
0300
0000
0002
0030
,
1000
0003
0000
0000
1100
0000
1000
0000
,
1100
0000
1000
1100
,
0000
1000
1100
0000
,
1000
1100
1000
1100
,
1000
0000
0000
1100
0000
0000
1000
0000
,
0000
1100
0000
0000
0010
0000
0000
0110
,
0000
0000
0010
0000
0000
0110
0000
0020
,
0000
0000
0000
0000
,
0000
0000
0000
0000
,
0000
0000
0000
0000
0000
0030
0000
0000
,
1000
0000
0000
1000
0001
0000
0000
0001
0100
0000
0000
0100
0010
0000
0000
0010
,
0100
0000
0000
0100
1000
0000
0000
1000
0010
0000
0000
0010
0001
0000
0000
0001
,
1000
0000
0000
1000
0100
0000
0000
0100
0001
0000
0000
0001
0100
0000
0000
0100
,
0010
0000
0000
0010
0100
0000
0000
0100
1000
0000
0000
1000
0001
0000
0000
0001
,
0010
0000
1000
0000
,
0001
0000
0100
0000
,
0001
1000
0010
0001
,
0100
0001
0010
0001
1000
0100
0001
0010
,
1000
0001
1000
0001
1000
0001
1000
0001
,
1000
0001
1000
0001
1000
0001
1000
0001
,
0100
0100
0100
0110
0100
0100
0100
0110
,
0010
0010
0010
0110
0010
0110
0110
0110
,
1100
1100
1100
1100
1100
1100
1100
1100
,
0110
0110
0110
0110
0110
0110
0110
0110
,
0100
0001
0100
0001
0100
0001
0100
0001
0100
0001
0100
0001
0100
0001
0100
0001
,
0010
0100
0010
0100
0010
0100
0010
0100
,
1000
0010
0100
0001
1000
0010
0100
0001
,
1001
0000
0000
0000
,
2002
0000
0000
0000
,
0000
0000
0000
3003
,
1000
0100
0010
0000
,
1000
0100
1010
0000
,
1000
0100
0010
0000
,
1000
0100
1010
0000
,
1000
1000
0000
0010
,
0010
0000
0001
0001
,
0100
0000
0000
0010
,
0010
0000
0100
1000
,
0100
0010
0101
1000
,
0100
0010
0101
1000
,
0100
0010
0101
1000
,
0100
0010
0101
0010
,
0100
1000
0100
0010
,
0010
0000
1000
1000
,
0001
0001
0000
0010
,
0010
0000
0001
0100
,
0001
0010
1001
0100
,
0001
0010
1001
0010
,
0001
0100
1001
0010
,
0001
0100
1001
0100
,
0001
0010
0000
0010
,
0010
0000
0100
0100
,
1000
1000
0000
0010
,
0010
0010
1000
0001
,
1000
0010
1100
0001
,
1000
0010
1100
0001
,
1000
0010
1100
0001
,
1000
0010
1100
0001
,
1000
1000
0000
0010
,
0010
0000
0001
0001
,
0100
0100
0000
0010
,
0010
0000
1000
1000
,
0100
0010
1010
0001
,
0100
0010
1010
0001
,
0010
0100
1001
0010
,
0100
0001
0110
0100
,
1000
0100
0011
0001
,
0100
1000
0110
1000
,
0010
0100
1010
1000
,
0010
0100
1001
0010
,
0100
0001
1010
0010
,
0100
0010
1001
0001
,
0100
0010
1010
0001
,
0100
0001
1100
1000
,
0010
1000
0110
1000
,
0001
0010
1100
0010
,
1000
0001
0101
0010
,
0001
0010
1100
0001
,
1000
0100
1010
0100
,
0010
0100
1001
0100
,
0010
0100
0011
0100
,
1000
0100
1100
0010
,
1000
0010
1100
0010
,
0001
0100
1010
0001
,
1000
0010
0101
0010
,
0100
1000
1001
1001
,
0010
1000
0110
0001
,
0010
1000
0110
0001
,
0010
1000
0110
0001
,
0100
0001
0110
0001
,
1000
0010
1001
0100
,
0001
0010
1001
0000
,
0100
0010
0100
0000
0010
0100
0010
0000
,
0100
0010
0100
0010
0100
0010
0100
0010
0100
0010
0100
0010
0100
0010
0100
0000
,
0010
1010
0010
1010
,
0010
0000
1010
0000
0010
1010
0000
0000
,
0100
0110
0100
0110
,
0010
0110
0000
0110
0100
0010
0001
1000
,
1001
0000
0000
1000
0010
0000
0000
0010
0100
0000
0000
0100
0001
0000
0000
0001
,
1000
0000
0000
0000
1001
0000
1000
0000
0100
0010
0100
0000
0001
0000
0010
0100
,
0010
1000
0100
0010
0001
0100
0010
1000
,
0001
0010
0100
0001
0010
0100
0001
0010
,
0100
1001
0010
1001
,
0100
0000
1001
0000
0010
1001
0000
1001
,
0100
0011
0100
1010
,
0100
0011
0000
1010
0100
0001
1010
0011
,
1001
0000
0000
0000
1000
0000
0000
1000
0001
0000
0000
0001
0010
0000
0000
0010
,
0100
0000
0000
0000
0110
0000
0010
0000
0001
1000
0001
0000
0100
0000
1000
0001
,
1000
0010
0100
0001
0010
0100
0010
1000
,
0101
0010
1001
0100
0011
1000
0101
0010
,
0001
0110
1000
0110
,
0001
0000
0110
0000
1000
0110
0000
0110
,
0001
0110
1000
0110
,
0001
0110
0000
0110
1000
1001
0110
0110
,
0110
0000
0000
0000
1000
0001
0000
0001
1000
0100
0000
0100
1000
0000
0000
0000
,
0022
0000
0000
0000
0000
0000
0033
0000
0001
1000
0001
0000
0100
0000
1000
0001
,
1000
0001
1000
0000
0001
0000
0100
0000
0010
0000
1000
0000
0001
0000
0100
0000
,
0010
0000
0100
0000
0001
0000
0010
0000
0100
0000
0010
0000
1000
0000
0001
1000
,
0001
0000
0000
0010
1000
0000
0000
0100
0010
0000
0000
0010
0001
0000
0000
0010
,
0100
0000
0000
1000
0010
0000
0000
0010
0100
0000
0010
0100
0000
0000
0010
0100
,
0010
0000
0000
1000
0001
0000
1000
0001
1000
0000
0000
0100
1000
0000
0000
0001
,
0100
0000
0001
0100
0000
0100
0001
0100
0010
0000
0000
0000
1000
0000
0001
0000
,
1001
0000
0000
0000
1000
0000
0000
1000
0100
0000
0000
0100
0010
0000
0000
0010
,
0001
0010
0001
0000
0000
0000
0001
0100
0001
0100
0010
0000
0000
0000
1010
0000
,
1000
0001
1000
0001
1000
0001
1000
0001
,
1000
0001
1000
0001
1000
0001
1000
0001
,
1000
0001
1000
0001
1000
0001
1000
0001
,
2000
0000
0000
0000
0000
3000
0000
0000
;

//---------------dance-single - ----------------
#NOTES:
     dance-single:
     :
     Medium:
     9:
     0.542,0.803,0.621,0.111,0.024,1024.000,208.000,37.000,0.000,0.000:







0000
0000
0000
0000
,
0010
0011
0010
0011
,
0010
0011
0001
0011
,
0010
1010
1000
1010
,
0010
1010
1000
1010
,
1000
1001
0001
1001
,
1000
1001
0001
1001
,
0110
0110
0110
0110
,
0220
0000
0000
0330
,
0000
0001
0000
0001
0000
1000
0000
1000
,
0000
0001
0000
0010
0000
0100
0000
1000
,
0000
0001
0000
0001
0000
1000
0000
1000
,
0000
0001
0000
0100
0000
0010
0000
1000
,
0000
1000
0000
1000
0000
0001
0000
0001
,
0000
1000
0000
0100
0000
0010
0000
0001
,
0000
1000
0000
1000
0000
0001
0000
0001
,
0000
1000
0000
0010
0000
0100
0000
0001
,
0010
0000
0000
0001
0010
0000
0000
0100
,
0010
0000
0000
1000
0010
0000
0000
0001
,
1000
0000
0000
0001
1000
0000
0000
0010
,
1000
0000
0000
0100
1000
0000
0000
0100
,
0001
0000
0000
0100
0001
0000
0000
1000
,
0001
0000
0000
0010
0001
0000
0000
0100
,
0010
0100
0010
0100
,
0010
0100
0010
0100
,
0100
0010
0100
1000
,
0100
1000
0010
1000
,
0010
0100
0010
0100
,
1000
0010
0100
1000
,
0010
0001
1000
0001
,
0010
1000
0001
1000
,
0010
0001
0100
1000
,
1000
0010
0001
0000
0010
0001
0100
0000
,
0100
0120
0100
0100
,
0100
0000
0130
0000
0100
0010
0000
0000
,
0001
2001
0001
0001
,
0001
0001
3000
0001
1000
0000
0010
0100
,
0010
0010
0100
0001
,
1000
0000
0010
0000
0001
0100
0000
0100
,
0200
0010
0010
0010
,
0301
0100
1000
0001
,
0100
0110
0100
0110
,
0100
0000
0110
0000
0100
0100
0000
0000
,
1000
1100
1000
1100
,
1000
1000
0000
0100
0100
0000
0010
0100
,
0010
0001
0100
0010
,
0001
0010
0100
1000
,
0001
0100
0001
0100
0001
0100
0001
0100
,
0010
1000
0010
1000
0100
1000
0100
1000
,
0010
0011
0010
0011
,
0010
0000
0011
0000
0010
0010
0000
0000
,
0010
1010
0010
1010
,
0010
1000
0000
1000
0010
0000
0001
0100
,
0001
0001
1000
0100
,
0001
0010
0001
0000
0001
0100
0001
0100
,
0001
0010
0001
0000
0010
1000
0010
0000
,
0100
1000
0100
0000
0001
0100
0001
0000
,
0010
0011
0011
0011
,
1100
1100
0010
0000
,
1000
1010
1010
1010
,
0101
0000
0101
0000
0100
0000
0001
1000
,
0001
0000
0001
0100
0001
0000
0100
1000
,
0100
0000
1000
0010
1000
0000
0010
0001
,
0010
0001
0010
1000
,
0100
0001
0001
0001
,
0000
1000
0000
1000
0001
0000
0000
0000
,
1000
0000
0001
0010
0000
0000
0000
0000
,
0000
1010
0000
0100
1000
0000
0000
0000
,
0010
0000
0100
0010
0000
0000
0000
0000
,
0101
0100
0010
1010
,
0100
0000
1100
0000
0010
0000
0010
1000
,
0020
0000
0000
0000
,
0000
0000
0000
0030
,
2000
0000
3000
0002
,
2000
0000
0000
3003
0000
0000
0100
0000
,
0011
0000
0000
0200
0020
0000
0000
0330
,
0000
1000
0001
0000
0001
1000
0001
0000
,
0100
0000
0100
0000
0100
0100
0000
0100
,
0100
0010
0110
0000
0001
0100
0101
0000
,
1000
1100
0100
0000
0010
0001
1000
0000
,
0101
0000
0010
0000
0000
1001
0000
0000
0000
0100
0000
1000
0000
0011
0000
0000
,
0000
0101
0000
1000
0000
0000
0101
0000
0000
0000
0110
0000
1000
0000
0101
0000
,
0000
0000
1000
0000
1000
0000
0000
0100
0000
0000
0000
0010
0000
0001
0000
0000
,
0001
0000
0000
0000
0010
0000
0000
0000
0000
0100
0000
0000
0000
0000
0100
0000
0000
0000
0000
0100
0000
0000
0000
0000
0200
0000
0000
0000
0000
0000
0000
0000
,
0000
0000
0000
0000
0000
0000
0000
0000
0000
0000
0000
0000
0000
0000
0000
0000
0000
0000
0000
0000
0000
0000
0000
0000
0000
0000
0000
0000
0000
0000
0000
0000
0000
0000
0000
0000
0000
0000
0000
0000
0000
0000
0000
0000
0000
0000
0000
0000
0000
0000
0000
0000
0000
0000
0000
0000
0000
0000
0000
0000
0000
0000
0000
0000
0000
0000
0000
0000
0000
0000
0000
0000
0000
0000
0000
0000
0000
0000
0000
0000
0000
0000
0000
0000
0000
0000
0000
0000
0000
0000
0000
0000
0000
0000
0000
0000
0000
0000
0000
0000
0000
0000
0000
0000
0000
0000
0000
0000
0000
0000
0000
0000
0000
0000
0000
0000
0000
0000
0000
0000
0000
0000
0000
0000
0000
0000
0000
0000
0000
0000
0000
0000
0000
0000
0000
0000
0000
0000
0000
0000
0000
0000
0000
0000
0000
0000
0000
0000
0000
0000
0000
0000
0000
0000
0000
0000
0000
0000
0000
0000
0000
0000
0000
0000
0000
0000
0000
0000
0000
0000
0000
0000
0000
0000
0000
0000
0000
0000
0000
0000
0000
0000
0300
0000
0000
0000
0000
0000
0000
0000
0000
0000
,
0100
0110
0100
0110
,
0100
0100
0200
0301
,
0101
0000
0001
0000
0101
0000
0001
0100
,
0000
0100
0001
0000
0101
0000
0010
0000
,
0001
0100
0010
1000
,
0100
0100
0000
0100
0200
0000
0000
0000
,
0000
0000
0000
0000
,
0000
0000
0000
0300
0010
0010
0010
0010
,
0010
0010
0010
0000
1000
0000
0000
0001
,
0000
0000
1000
0000
0000
0001
0000
0000
,
1000
0001
0000
0100
0010
0000
1001
0000
,
0110
0011
0110
1100
,
0101
1010
0110
0101
,
0101
1010
1100
0011
,
0110
1010
0101
1001
,
0100
0000
0000
0010
0000
0000
0100
0000
0000
0010
0000
0000
0100
0000
0000
0010
,
0000
0000
0200
0000
0000
0020
0000
0000
0000
0000
0000
0000
0000
0000
0000
0000
,
0330
0010
0110
0010
,
0110
0010
0110
0011
,
0100
0011
1000
0011
,
0100
0011
1000
0011
,
0110
1001
1100
0110
,
0101
0011
1010
1010
,
0100
1010
0100
1010
,
0100
1010
0100
1010
,
0001
1010
0001
1010
,
0001
1010
0001
1100
,
0001
1010
0100
1100
,
0001
1010
0100
0100
,
0001
1000
0001
0010
,
0100
0010
1000
0001
,
0001
1000
1000
0100
,
1000
0100
0010
2000
,
0000
0000
0000
0000
,
0000
0000
0000
0000
0000
3000
0000
0000
,
0010
0010
0000
0010
,
0010
0010
0000
0010
,
0110
0010
0000
0010
,
0110
0110
0000
0110
,
0100
0100
0000
0100
,
0100
0100
0000
0100
,
1001
1001
0000
1001
,
1001
1001
0000
1001
,
0110
0000
0000
0000
,
0000
0000
0000
0000
,
0000
2000
3000
0000
,
0000
0000
0000
0000
,
0000
0000
0020
0130
,
0000
0010
0020
1030
,
0000
1000
0200
0301
,
0000
0010
0002
0013
,
0000
0010
0010
0000
,
0000
0010
0000
0000
,
0100
0000
0110
0000
,
0000
0010
0000
0000
,
0110
0001
0000
0000
,
0001
0000
0010
0010
,
0000
0000
0100
0000
,
0000
0000
0000
1000
,
0000
0000
0100
0010
,
0000
0000
1000
0000
,
0000
0000
0000
0010
,
0110
0010
0110
1010
,
0110
0010
0110
0012
,
0013
0010
0110
2010
,
3010
0010
0110
0000
,
0002
0000
0003
0020
,
0200
0030
0000
0000
0300
0000
0020
0000
,
0200
0030
0000
0000
0300
0000
2000
0000
,
0020
3000
0000
0000
0030
0000
2000
0000
,
0001
3000
0000
0000
0011
0000
0001
0000
,
0011
0000
0001
0011
,
0000
0001
0011
0000
,
0001
0011
0001
0011
,
0001
0000
0000
0001
,
0000
0000
0100
0000
,
0000
0100
0000
0000
,
0000
0000
0000
0000
,
0000
0000
0000
0000
,
0000
0000
0000
0000
,
0001
1000
0010
0100
,
0010
0001
0100
1000
,
0001
0010
1000
0010
,
0100
0010
0001
1000
,
0100
0000
0001
0000
,
1000
0000
0010
0000
,
1000
0001
0100
1000
,
0010
0100
0001
1000
,
0001
0001
0001
0001
,
0001
0001
0001
0001
,
0010
0010
0010
0010
,
0100
0100
0100
0110
,
0011
0011
0011
0011
,
0110
0110
0110
0110
,
0010
0010
0010
0010
,
0100
0100
0100
0100
,
0001
0010
0001
0010
,
1001
0000
0000
0000
,
2002
0000
0000
0000
,
0000
0000
0000
3003
,
0001
0010
0100
0000
,
0001
0010
0101
0000
,
0001
0010
0100
0000
,
0001
0010
0101
0000
,
0001
0001
0000
0100
,
0100
0000
1000
1000
,
0010
0000
0000
0100
,
0100
0000
0010
0001
,
0010
0100
1010
0001
,
0010
0100
1010
0001
,
0010
0100
1010
0001
,
0010
0100
1010
0100
,
0010
0001
0010
0100
,
0100
0000
0001
0001
,
1000
1000
0000
0100
,
0100
0000
1000
0010
,
1000
0100
1001
0010
,
1000
0100
1001
0100
,
1000
0010
1001
0100
,
1000
0010
1001
0010
,
1000
0100
0000
0100
,
0100
0000
0010
0010
,
0001
0001
0000
0100
,
0100
0100
0001
1000
,
0001
0100
0010
1000
,
0001
0100
0010
1000
,
0001
0100
0001
1000
,
0001
0100
0001
1000
,
0001
0001
0000
0100
,
0100
0000
1000
1000
,
0010
0010
0000
0100
,
0100
0000
0001
0001
,
0010
0100
0101
1000
,
0010
0100
0001
1000
,
0100
0010
1001
0100
,
0010
1000
0100
0010
,
0001
0010
0100
1000
,
0010
0001
0110
0001
,
0100
0010
0100
0001
,
0100
0010
1001
0100
,
0010
1000
0101
0100
,
0010
0100
1001
1000
,
0010
0100
0101
1000
,
0010
1000
0011
0001
,
0100
0001
0110
0001
,
1000
0100
0011
0100
,
0001
1000
1010
0100
,
1000
0100
0011
1000
,
0001
0010
0101
0010
,
0100
0010
1001
0010
,
0100
0010
1100
0010
,
0001
0010
0011
0100
,
0001
0100
0011
0100
,
1000
0010
0101
1000
,
0001
0100
1010
0100
,
0010
0001
1001
1001
,
0100
0001
0110
1000
,
0100
0001
0110
1000
,
0100
0001
0110
1000
,
0010
1000
0110
1000
,
0001
0100
1001
0010
,
1000
0100
1001
0000
,
0010
0010
0100
0100
,
0010
0010
0010
0010
,
0100
0101
0100
0101
,
0100
0000
0101
0000
0100
0100
0000
0000
,
0010
0110
0010
0110
,
0100
0100
0000
0100
0010
0000
1000
0000
,
1001
0100
0010
1000
,
0001
0000
1001
0000
0010
1000
0000
1000
,
0100
0010
1000
0100
,
0000
1000
0010
0001
0100
0010
1000
0100
,
0010
1001
0100
1001
,
0010
0000
1001
0000
0100
0100
0000
0100
,
0010
1100
0010
0101
,
0010
0010
0000
0010
0010
0000
0101
0010
,
1001
0001
1000
0100
,
0010
0000
0000
0110
1000
0000
0010
0110
,
0001
0010
0100
0100
,
1010
1001
1100
1010
,
1000
0110
0001
0110
,
1000
0000
0110
0000
0001
0001
0000
0000
,
1000
0110
0001
0110
,
1000
1000
0000
0001
0001
0000
0110
0001
,
0110
0000
0001
1000
0001
1000
0001
0010
,
2200
0000
0000
3300
1000
0010
0000
0010
,
0001
1000
0100
1000
,
0000
0100
1000
0100
0010
0100
0001
0010
,
1000
0001
0100
1000
,
0010
0100
0010
0000
,
0100
1000
0001
0001
,
0010
0000
0100
0001
,
1001
0001
0010
0100
,
1000
0000
1000
0000
,
0001
0001
0001
0001
,
0001
0010
0100
1000
,
0001
1000
0100
0001
,
0020
0000
0000
0030
;

//---------------dance-single - ----------------
#NOTES:
     dance-single:
     :
     Easy:
     6:
     0.379,0.549,0.149,0.111,0.010,801.000,50.000,37.000,0.000,0.000:












0000
0000
0000
0000
,
0000
0011
0000
0011
,
0000
0011
0000
0011
,
0000
1010
0000
1010
,
0000
1010
0000
1010
,
0000
1001
0000
1001
,
0000
1001
0000
1001
,
0000
0110
0000
0110
,
0220
0000
0000
0330
,
0000
0001
0001
0000
,
0000
0010
0010
0000
,
0000
1000
1000
0000
,
0000
0100
0100
0000
,
0000
0100
0100
0000
,
0000
0010
0010
0000
,
0000
0100
0100
0000
,
0000
0100
0200
0000
,
0310
0100
0010
0100
,
0010
0100
0010
0100
,
0001
1000
0001
1000
,
0001
1000
0001
1000
,
0100
0010
0100
0010
,
0100
0010
0100
0010
,
0001
0100
0001
0100
,
0001
0010
0001
0010
,
0100
0000
0100
0000
,
0100
0000
0010
0000
,
0001
0000
0001
0000
,
0001
0000
1000
0000
,
0001
0000
0001
0000
,
0001
0000
0100
0000
,
0010
0010
0010
0010
,
0020
0000
0000
0000
,
0230
0000
0000
0000
,
0000
0000
0310
0000
,
2000
0000
0000
0000
,
0000
0000
3001
0000
,
0000
1000
0100
0010
,
0001
0000
0002
0000
,
2000
0000
0000
0000
,
0000
0000
0000
3003
,
0020
0000
0000
0000
,
0000
0000
0130
0000
,
2000
0000
0000
0000
,
0000
0000
3100
0000
,
0000
0001
0100
0010
,
1000
0000
0200
0000
,
0020
0000
0000
0000
,
0000
0000
0000
0330
,
0010
0010
0010
0010
,
0010
0010
0020
0000
,
0100
0100
0100
0100
,
0100
0100
0200
0000
,
0330
0010
0100
1000
,
0100
0000
0002
0000
,
0200
0000
0000
0000
,
0000
0000
0000
0303
,
1010
0010
1010
0000
,
1010
1000
1010
0000
,
1001
0001
1001
0000
,
1001
1000
2002
0000
,
3003
0001
0101
1000
,
1100
0000
2000
0000
,
0002
0000
0000
0000
,
0000
0000
3003
0110
,
0000
1000
1001
0000
,
1000
0001
0010
0000
,
0000
1010
1100
0000
,
0010
0100
0010
0000
,
0101
0100
0010
0000
,
0100
1000
0010
0010
,
1020
0000
0000
0000
,
0000
0000
0000
0030
,
2000
0000
3000
0002
,
2000
0000
3003
0100
,
0010
0000
0220
0000
,
0330
0002
0000
0000
,
0200
0000
0000
0000
,
0303
0110
0001
0101
,
1000
1100
0010
1001
,
0101
0000
0000
0000
0000
1001
0000
0000
0000
0100
0000
0000
0000
0010
0000
0000
,
0000
0100
0000
0000
0000
0000
0100
0000
0000
0000
0101
0000
0000
0000
0110
0000
,
0000
0000
0101
0000
0000
0000
0000
1010
0000
0000
0000
0011
0000
0000
0000
0001
,
0000
0220
0000
0000
0000
0000
0000
0000
,
0000
0000
0000
0000
,
0330
0100
0100
0110
,
0100
0100
0200
0301
,
0001
0001
1001
0001
,
1000
1001
0100
0010
,
1000
0001
0100
0001
,
0100
0010
2000
0000
,
0000
0000
0000
0000
,
0000
3000
0010
0100
,
0010
0100
1000
0000
,
0000
0001
0000
0000
,
1000
0001
1001
0000
,
0000
0010
0100
1000
,
0001
1000
0010
0100
,
0001
1000
1000
0010
,
0010
0010
0100
1000
,
0220
0000
0000
0000
,
0000
0000
0000
0000
,
0030
0310
0010
0010
,
0010
0010
0010
0001
,
0100
0001
1000
0001
,
0100
0001
1000
0001
,
0010
0001
0100
0010
,
0001
0001
0010
0010
,
0100
0010
0100
0010
,
0100
0010
0100
0010
,
0001
0010
0001
0010
,
0001
0010
0001
0100
,
0001
0010
0100
0100
,
0001
0010
0100
0100
,
0001
1000
0000
0010
,
0100
0010
0000
0001
,
0000
1000
0000
0010
,
0000
0100
0000
0001
,
0000
0000
0000
0000
,
0000
0000
0000
0000
,
0010
0010
0000
0010
,
0010
0010
0000
0010
,
0010
0010
0000
0010
,
0010
0010
0000
0010
,
0100
0100
0000
0100
,
0100
0100
0000
0100
,
0001
0001
0000
0001
,
0001
0001
0000
0001
,
0010
0100
0000
0000
,
0000
0000
0000
0100
,
0000
0000
1000
0000
0000
0010
0000
0000
,
0000
0100
0000
0000
,
0000
0000
0010
0100
,
0000
0010
0010
1000
,
0000
1000
0100
0001
,
0000
0010
0001
0010
,
0000
0010
0020
0000
,
0000
0000
0000
0000
,
0000
0000
0000
0000
,
0000
0000
0000
0000
,
0030
0001
0000
0000
,
0001
0000
0010
0010
,
0000
0000
0100
0000
,
0000
0000
0000
1000
,
0000
0000
0100
0010
,
0000
0000
1000
0000
,
0000
0000
0000
0010
,
0010
0010
0010
0010
,
0010
0010
0010
0001
,
0010
0010
0010
0010
,
0010
0010
0010
0000
,
0001
0000
0000
0010
,
0100
0000
0000
0010
,
0100
0000
0000
1000
,
0010
0000
0000
1000
,
0001
0000
0001
0001
,
0001
0000
0001
0001
,
0000
0001
0001
0000
,
0001
0001
0001
0001
,
0001
0000
0000
0001
,
0000
0000
0100
0000
,
0000
0100
0000
0000
,
0000
0000
0000
0000
,
0000
0000
0000
0000
,
0000
0000
0000
0000
,
0001
1000
0010
0100
,
0010
0001
0100
1000
,
0001
0010
1000
0010
,
0100
0010
0001
1000
,
0100
0000
0001
0000
,
1000
0000
0010
0000
,
1000
0001
0100
1000
,
0010
0100
0001
1000
,
0001
0001
0001
0001
,
0001
0001
0001
0001
,
0010
0010
0010
0010
,
0100
0100
0100
0010
,
0001
0001
0001
0001
,
0010
0010
0010
0010
,
0010
0010
0010
0010
,
0100
0010
0100
0010
,
0001
1000
0001
1000
,
0001
0000
0000
0000
,
0001
0000
0000
0000
,
0000
0000
0000
0000
,
0001
0010
0100
0000
,
0001
0010
0001
0000
,
0001
0010
0100
0000
,
0001
0010
0001
0000
,
0001
0001
0000
0100
,
0100
0000
1000
1000
,
0010
0000
0000
0100
,
0100
0000
0010
0001
,
0010
0100
0010
0001
,
0010
0100
0010
0001
,
0010
0100
0010
0001
,
0010
0100
0010
0100
,
0010
0001
0010
0100
,
0100
0000
0001
0001
,
1000
1000
0000
0100
,
0100
0000
1000
0010
,
1000
0100
0001
0010
,
1000
0100
0001
0100
,
1000
0010
0001
0100
,
1000
0010
0001
0010
,
1000
0100
0000
0100
,
0100
0000
0010
0010
,
0001
0001
0000
0100
,
0100
0100
0001
1000
,
0001
0100
0001
1000
,
0001
0100
0001
1000
,
0001
0100
0001
1000
,
0001
0100
0001
1000
,
0001
0001
0000
0100
,
0100
0000
1000
1000
,
0010
0010
0000
0100
,
0100
0000
0001
0001
,
0010
0100
0001
1000
,
0010
0100
0001
1000
,
0100
0010
0001
0100
,
0010
1000
0010
0010
,
0001
0010
0100
1000
,
0010
0001
0010
0001
,
0100
0010
0001
0001
,
0100
0010
0001
0100
,
0010
1000
0001
0100
,
0010
0100
0001
1000
,
0010
0100
0001
1000
,
0010
1000
0001
0001
,
0100
0001
0010
0001
,
1000
0100
0001
0100
,
0001
1000
0010
0100
,
1000
0100
0001
1000
,
0001
0010
0001
0010
,
0100
0010
0001
0010
,
0100
0010
0100
0010
,
0001
0010
0001
0100
,
0001
0100
0001
0100
,
1000
0010
0001
1000
,
0001
0100
0010
0100
,
0010
0001
0001
0001
,
0100
0001
0010
1000
,
0100
0001
0010
1000
,
0100
0001
0010
1000
,
0010
1000
0010
1000
,
0001
0100
0001
0010
,
1000
0100
0001
0000
,
0010
0010
0100
0100
,
0010
0010
0010
0010
,
0100
0001
0100
0001
,
0100
0001
0100
0000
,
0010
0010
0010
0010
,
0100
0000
0010
1000
,
0001
0100
0010
1000
,
0001
0001
0010
1000
,
0100
0010
1000
0100
,
1000
0010
0100
1000
,
0010
0001
0100
0001
,
0010
0001
0100
0000
,
0010
0100
0010
0001
,
0010
0000
0010
0001
,
0001
0001
1000
0100
,
0010
0010
1000
0010
,
0001
0010
0100
0100
,
0010
0001
0100
0010
,
1000
0010
0001
0010
,
1000
0010
0001
0000
,
1000
0010
0001
0010
,
1000
0000
0001
0010
,
0010
0001
0001
0001
,
0100
0000
1000
0010
,
0001
1000
0100
1000
,
0100
1000
0010
0001
,
1000
0001
0100
1000
,
0010
0100
0010
0000
,
0100
1000
0001
0001
,
0010
0000
0100
0001
,
0001
0001
0010
0100
,
1000
0000
1000
0000
,
0001
0001
0001
0001
,
0001
0000
1000
0000
,
0001
0000
1000
0000
,
2002
0000
0000
3003
;

//---------------dance-single - ----------------
#NOTES:
     dance-single:
     :
     Challenge:
     11:
     1.000,1.000,1.000,0.344,0.796,2181.000,684.000,115.000,0.000,177.000:

0000
0000
0011
0000
0000
0000
0000
0000
0011
0000
0000
0000
0000
0000
0000
0000
0011
0000
0000
0011
0000
0000
0000
0000
,
0100
0010
0101
0000
1000
0100
1001
0000
,
0010
1000
0011
0010
0001
0100
0011
0000
,
1100
0010
1100
0000
0011
0100
0011
0000
,
1100
0010
1100
0001
0011
0100
0011
0010
,
0110
1000
0110
0000
0001
0010
0001
0000
,
1010
0001
1010
0010
0100
1000
0100
0000
,
0011
0100
0011
0000
1000
0100
1000
0000
,
1010
1010
0000
1010
0000
0101
1100
0000
,
0010
0101
0110
1001
0000
1010
0000
0110
,
0000
1001
0000
0110
0000
0011
0110
1100
,
0000
1001
0000
0110
0000
1001
0000
0110
,
0000
0101
0000
1001
0000
0110
0101
1100
,
0000
0011
0000
1010
0000
0011
0000
1010
,
0000
0011
0000
1001
0000
0110
1001
0110
,
0101
1010
0110
0101
1001
0110
1010
0101
,
0011
0110
0101
1001
0110
0011
0110
0010
,
0100
1000
0010
1000
0001
1000
0000
1000
0100
1000
0010
1000
0001
1000
0000
1000
,
0100
1000
0010
1000
0001
1000
0110
0000
1001
0000
0110
0000
0001
0100
0000
0100
,
1000
0100
0010
0100
0001
0100
0000
0100
1000
0100
0010
0100
0001
0100
0000
0100
,
1000
0100
0010
0100
0001
0100
0000
0100
1001
0100
0000
0100
0010
0100
0000
0100
,
0001
0100
1000
0100
0010
0100
0000
0100
0001
0100
1000
0100
0010
0100
0000
0100
,
0001
0100
1000
0100
0010
0100
0000
0000
1001
0100
0000
1000
0010
1000
0000
1000
,
0100
1000
0001
1000
0010
1000
0000
1000
0100
1000
0001
1000
0010
1000
0000
1000
,
0100
1000
0000
0100
0010
0000
0010
0000
0110
0000
1100
0000
1010
0000
0110
0000
,
0010
0011
0100
1001
0010
0011
1000
1001
,
0010
0011
1000
1001
0100
0011
1000
1001
,
0100
0101
0010
1001
0100
0101
0010
1001
,
1000
0101
0100
1001
0010
0101
1000
1001
,
0100
0011
0001
0110
1000
1010
0001
0011
,
0100
0110
1000
1010
0001
0011
1000
0110
,
0100
0000
0000
0000
0000
0000
1000
0000
0100
0000
0000
0000
0001
0000
0000
0000
0000
0000
0000
0000
0001
0000
0000
0000
0010
0000
0000
0000
0000
0000
0000
0000
0010
0000
0000
0000
1000
0000
0000
0000
0000
0000
0000
0000
1000
0100
0000
0000
,
1000
0100
1000
0100
1000
0100
1000
0000
0100
1000
0100
0000
0022
0000
1133
0000
,
0100
1010
0101
1010
0100
1010
0101
1010
,
0100
1010
0101
0110
1000
1100
0010
1100
,
0001
1100
0011
1100
0001
1100
0011
1100
,
0001
0000
1110
0000
0000
0010
1000
0100
1000
0010
0000
0000
0010
0000
1000
0000
,
0011
0000
0000
0000
0000
0000
0000
0000
0000
0000
0000
0000
0100
0000
0000
0010
0000
0000
0000
0000
0100
0000
0000
0000
1010
0000
0000
0000
0000
0000
0000
0000
0010
0100
0000
0000
0001
0000
0000
0000
0000
0000
0010
0000
0001
0000
0000
0000
,
1000
0000
0000
0001
0000
0000
0000
0000
1000
0000
0000
0000
0110
0000
0000
0000
0000
0000
0000
0000
0100
1000
0000
0000
0001
0000
0000
0000
0000
0000
0110
0000
0000
0000
0000
0000
0000
0000
0000
0000
0000
0000
0010
0000
0000
0001
0000
0000
,
0020
0000
0000
0000
,
0030
1001
0110
0011
1001
0110
1001
1100
,
1010
0100
0111
1000
0110
0010
1101
0100
,
0011
0010
1101
0100
0010
0022
0000
0000
,
1033
1100
0011
1100
1000
1100
0011
1100
,
1000
0000
0011
0000
0000
0000
0100
0001
0100
0000
0000
0000
0110
0000
0010
0000
,
1001
0000
0000
0000
0000
0000
0000
0000
0000
0000
0000
0000
0001
0000
0000
0100
0000
0000
0000
0000
0001
0000
0000
0000
0110
0000
0000
0000
0000
0000
0000
0000
0010
1000
0000
0000
0100
0000
0000
0000
0000
0000
0010
0000
0100
0000
0000
0000
,
0001
0000
0000
1000
0000
0000
0000
0000
0001
0000
0000
0000
0110
0000
0000
0000
0000
0000
0000
0000
0100
0001
0000
0000
0010
0000
0000
0000
0000
0000
0100
0000
0010
0000
0000
0000
1000
0000
0000
0000
0000
0000
0001
0000
0000
0000
0000
0000
,
0100
1000
0010
0100
0001
0010
1000
0001
0100
1000
0010
0100
0001
0010
1000
0001
,
0010
1000
0100
0001
0010
1000
0001
0100
0010
0001
1000
0100
0010
0001
0100
0010
,
0001
0101
1010
0101
0100
0101
1010
0101
,
0001
0101
1010
0101
0100
0111
0000
1011
,
0100
1100
0011
1100
1000
1100
0011
1100
,
0100
1111
0000
1110
0011
1100
1111
1111
,
1111
0000
0000
0000
0000
0000
0000
0000
0010
0100
0000
0000
0001
0000
0000
0100
0000
0000
0000
0000
0001
0010
0000
0000
1000
0000
0000
0010
0000
0000
0000
0000
1000
0001
0000
0000
0010
0000
0000
0001
0000
0000
0000
0000
0010
0000
0000
0000
,
1001
0000
0100
0010
0001
0000
0100
0000
0001
0100
0010
0000
0101
0000
1000
0010
,
0001
0000
0000
0000
0000
0000
0000
0000
0001
1000
0000
0000
0010
0000
0000
0100
0000
0000
0000
0000
0010
0001
0000
0000
0100
0000
0000
0010
0000
0000
0000
0000
0100
1000
0000
0000
0001
0000
0000
0100
0000
0000
0000
0000
0001
0100
0000
0000
,
0010
0000
0000
0100
0000
0000
0000
0000
0010
0001
0000
0000
1000
0000
0000
0001
0000
0000
0000
0000
1000
0001
0000
0000
0100
0000
0000
0001
0000
0000
0000
0000
0100
0001
0000
0000
0010
0000
0000
1000
0000
0000
0000
0000
0000
1000
0000
0000
,
0100
0000
1010
0100
0001
0000
1010
0100
0001
0000
1010
0100
0001
0000
1010
0010
,
1000
0000
1010
0010
1000
0000
1010
0000
0100
1000
0100
0000
0000
0000
0011
0000
,
1000
0000
0011
0100
1000
0000
0011
0100
1000
0000
0011
1000
0100
0000
0011
1000
,
0100
0000
1011
0100
0000
0000
0111
0001
0010
0000
0000
0000
0111
0000
1110
0000
,
0111
0000
0000
0000
0000
0000
1110
0000
0000
0000
0000
0000
0011
0000
0000
0000
0000
0000
0000
0000
0010
0100
0000
0000
1000
0000
0000
0100
0000
0000
0000
0000
1000
0010
0000
0000
0001
0000
0000
0010
0000
0000
0000
0000
0001
1000
0000
0000
,
0100
0000
0000
1000
0000
0000
0000
0000
0100
1000
0000
0000
0010
0000
0000
1000
0000
0000
0000
0000
0010
0001
0000
0000
1000
0000
0000
0001
0000
0000
0000
0000
1000
0001
0000
0000
0010
0000
0000
0001
0000
0000
0000
0000
0010
0001
0000
0000
,
0100
0001
0000
1100
0001
1000
0000
0001
0010
0100
0000
0010
1000
0100
0000
1000
,
0001
0100
0000
0001
0010
0100
0010
0100
0010
0100
0012
0100
0013
0000
0000
0000
,
0000
1110
0000
0110
0011
1100
0101
0000
,
1111
0000
0000
0000
0011
0000
0101
0000
0000
0000
0110
1001
0110
0000
0110
0000
,
1001
0000
0000
0000
1101
0000
0000
0000
0000
0000
0000
0001
0110
0000
0000
0000
1010
0000
0000
0000
0101
0000
0000
0000
0011
0000
0000
0000
0110
0000
0000
0000
,
0101
0000
0000
0000
0110
0000
1001
0000
0000
0000
0101
1010
0101
0000
0011
0000
,
1100
1001
0110
1010
0101
0011
1100
0101
,
0110
0011
1001
0110
0101
1010
0000
0021
,
1100
1100
1100
1100
1101
1101
1101
0032
,
1110
0000
1110
0000
1110
0000
1110
0000
0010
1000
0010
1000
0010
1000
0013
1000
,
0222
0000
0000
0000
0333
0000
0002
0220
,
2000
0000
0000
3333
0000
0000
0020
0000
,
0202
0030
0000
0023
0302
2200
0000
3333
,
0000
1001
1001
0110
0110
1001
1001
0110
,
0001
0000
0110
0000
1001
0000
1000
0100
0010
1000
0100
0000
0010
0001
0100
0010
,
1000
0100
0100
0100
0110
1000
1000
1000
0001
0010
0010
0011
0011
0100
0100
0100
,
1000
0010
0010
1010
1010
0100
0100
0100
1110
0001
0001
1011
1011
0100
0100
1000
,
0001
0010
0001
0000
0010
0000
0100
0000
0000
0000
1001
0000
1000
0000
0100
0000
0001
0000
0010
0000
0000
0100
0000
0000
1000
0000
0101
0010
0100
0000
0010
0000
,
1000
0000
0011
0100
1000
0000
0100
0000
1000
0000
0000
0000
0011
0000
0010
0100
0010
0000
0010
0000
0110
0000
0100
0000
0010
0000
1000
0100
0011
0000
0100
0000
,
0001
0000
0010
0000
1000
0000
1000
0000
0100
0000
0010
0000
0000
0000
0010
0000
0100
0000
0001
0000
0010
0000
0100
0010
0001
0100
0010
0000
0001
0000
0000
0000
,
0001
0000
0000
0000
0100
0000
1000
0000
0000
0010
0000
0001
0000
0000
1000
0000
0110
0000
0000
0001
0000
0110
0000
0000
0001
0000
1000
0000
0000
0011
0100
1000
,
0000
0011
0000
0100
0000
0010
0000
0001
0000
0010
0000
1000
0000
0000
0000
0000
0000
0000
0000
0000
0000
0000
0000
0000
0000
0000
0000
0000
0000
0000
0000
0000
,
0010
0110
0101
0011
0010
0110
1001
0011
,
0010
0110
0101
0011
0010
0110
0001
0110
,
0011
1001
0100
0110
1001
1001
1000
0111
,
0000
0000
0000
0000
0000
0000
0000
0000
0000
0000
0000
0000
0000
0000
0000
0000
0000
0000
0000
0000
0000
0000
0000
0000
1011
0000
0000
0000
0000
0000
0000
0000
0000
0000
0000
0000
0000
0000
0000
0000
0000
0000
0000
0000
0000
0000
0000
0000
0001
0000
0000
0000
0000
0000
0000
0000
0000
0000
0000
0000
0000
0000
0000
0000
0000
0000
0000
0000
0000
0000
0000
0000
0010
0000
0000
0000
0000
0000
1000
0000
0000
0000
0000
0000
0010
0000
0000
0000
0000
0000
1000
0000
0000
0000
0000
0000
0011
0000
0000
0000
0000
0000
0000
0000
0000
0000
0000
0000
0000
0000
0000
0000
0000
0000
0000
0000
0000
0000
0000
0000
0000
0000
0000
0000
0000
0000
0000
0000
0000
0000
0000
0000
0000
0000
0000
0000
0000
0000
0000
0000
0000
0000
0000
0000
0100
0000
0000
0000
0000
0000
0000
0000
0000
0000
0000
0000
1000
0000
0000
0000
0000
0000
0000
0000
0000
0000
0000
0000
0000
0000
0000
0000
0000
0000
0000
0000
0100
0000
0000
0000
1000
0000
0000
0000
0000
0000
0000
0000
0000
0000
0000
0000
,
0001
0000
0000
1000
0000
0000
0000
0000
0001
1000
0000
0000
0010
0000
0000
1000
0000
0000
0000
0000
0010
0001
0000
0000
0100
0000
0000
0001
0000
0000
0000
0000
0000
0001
0000
0000
1000
0000
0000
0001
0000
0000
0000
0000
0000
0000
0000
0000
,
1111
1111
0100
0010
0021
0100
1000
0100
,
0001
0100
1000
0100
0001
0100
0100
0001
,
0001
0000
1000
0000
1000
0100
1030
0100
0010
0001
0110
0001
0010
0001
0110
1000
,
0010
0000
0000
0000
1000
0000
0000
0000
0110
0000
0000
0000
0001
0000
0000
0000
0010
0000
0000
0010
0000
0000
0000
0000
0000
0000
0000
0000
0000
0000
0000
0000
0100
0000
0000
0000
0000
0000
0000
0000
0000
0000
0000
0000
0000
0000
0000
0000
0000
0000
0000
0000
0000
0000
0000
0000
0011
0000
0000
0000
0000
0000
0000
0000
,
0000
0011
1000
0000
1000
0011
0000
0011
,
0100
0011
0000
1000
0111
0000
0110
1000
,
1110
0000
0000
0000
0001
0010
0000
0001
0100
0010
0000
0100
0010
1000
0000
0010
,
0001
0100
0000
0001
1000
0010
0000
1000
0010
0100
0001
0000
0000
0100
0010
0000
,
0011
1000
0100
1000
0010
0001
0001
0010
,
0000
1000
0001
0100
1000
0010
0100
0001
0010
1000
0001
0100
0001
0010
0000
0000
,
1100
0000
0000
0000
0000
0000
0000
0000
0000
0000
0000
0000
0000
0000
0000
0000
0000
0000
0000
0000
0000
0000
0000
0000
0000
0000
0000
0000
0000
0000
0100
0000
0000
0000
0000
0000
0011
0000
0000
0000
0000
0000
0000
0000
0000
0000
0000
0000
0000
0000
0000
0000
0000
0000
0000
0000
0000
0000
0000
0000
0000
0000
0000
0000
0000
0000
0000
0000
0000
0000
0000
0000
0100
0000
0000
0000
0000
0000
0000
0000
0000
0000
0000
0000
0000
0000
0000
0000
0000
0000
0000
0000
0000
0000
0000
0000
1000
0000
0000
0000
0010
0000
0000
0000
0000
0000
0000
0000
0100
0000
0000
0000
0000
0000
0000
0000
0000
0000
0000
0000
0000
0000
0000
0000
0000
0000
0000
0000
0000
0000
0000
0000
0000
0000
0000
0000
0000
0000
0000
0000
0000
0000
0000
0000
0110
0000
0000
0000
0000
0000
0000
0000
0000
0000
0000
0000
0000
0000
0000
0000
0000
0000
0000
0000
0000
0000
0000
0000
0000
0000
0000
0000
0000
0000
0000
0100
0000
0000
0000
0000
0011
0000
0000
0000
0000
0000
0000
0000
0000
0000
0000
0000
,
0000
0000
0000
0000
0000
0000
0000
0000
0000
0000
0000
0000
0000
0000
0000
0000
0000
0000
0000
0000
0000
0000
0000
0000
1100
0000
0000
0000
0000
0000
0000
0000
0000
0000
0000
0000
0000
0000
0000
0000
0000
0000
0000
0000
0000
0000
0000
0000
0000
0000
0010
0000
0000
0000
0000
0000
0000
0000
0000
0000
0100
0000
0000
0000
0000
0000
0000
0000
0000
0000
0000
0000
0000
0000
0000
0000
0000
0000
0000
0000
0000
0000
0000
0000
0000
0000
0000
0000
0000
0000
0000
0000
0000
0000
0000
0000
2222
0000
0000
0000
0000
0000
0000
0000
0000
0000
0000
0000
0000
0000
0000
0000
0000
0000
0000
0000
0000
0000
0000
0000
0000
0000
0000
0000
0000
0000
0000
0000
0000
0000
0000
0000
0000
0000
0000
0000
0000
0000
0000
0000
0000
0000
0000
0000
3003
0000
0000
0000
0000
0000
0000
0000
0000
0000
0000
0000
0000
0000
0000
0000
0000
0000
0000
0000
0000
0000
0000
0000
0000
0000
0000
0000
0000
0000
0000
0000
0000
0000
0000
0000
0000
0000
0000
0000
0000
0000
0000
0000
0000
0000
0000
0000
,
1331
0220
1002
2033
,
3012
0000
1023
0000
1332
0020
2203
0000
,
3302
2230
3320
2203
,
3302
2230
3320
1203
,
1331
0110
0011
1001
,
0101
0000
1100
0000
1010
0001
1010
0110
,
0001
0110
1010
0110
0001
0110
1010
1001
,
0001
1001
1010
1001
0001
1001
1010
0011
,
0100
0011
1010
0101
0100
0101
1010
0011
,
0100
0011
1010
0101
0100
1101
0012
0010
,
0100
0100
1010
0100
1013
0100
1002
0100
,
0013
0001
0112
1103
0110
1000
0012
0100
,
1000
0010
0100
1000
0100
0010
0100
0010
,
1000
0010
0100
0010
0100
1000
0010
1000
,
0010
0100
1000
0010
0100
0010
1000
0010
,
0100
1000
0100
0010
2000
0200
0020
0000
,
0000
0000
0000
0000
,
0000
0000
0000
0000
0000
3333
0000
0000
,
1000
0000
0000
0000
1000
0001
1000
0000
0110
0000
1000
0010
1000
0000
0110
0000
,
1000
0000
0110
0000
1000
0100
1000
0000
0011
0000
1000
0010
1000
0000
0101
0000
,
1001
0000
1000
1001
0000
1001
1000
0000
,
1001
0000
1001
1000
0000
1000
1001
0000
,
0001
0000
0000
0000
0001
0010
0101
0000
0110
0000
0011
0000
0001
0000
0000
0000
,
0001
0000
0000
0000
0001
0100
0011
0000
0110
0000
0101
0010
0001
0000
0000
0000
,
0110
0000
0000
0000
0110
0001
0010
0000
1001
0000
0010
1000
0110
0000
0000
0000
,
0110
0000
0000
0000
0110
0001
0100
0000
1001
0000
0100
1000
0110
0000
0000
0000
,
1001
0100
0010
0200
0000
0010
0000
0001
0000
0010
0000
0301
0000
0000
0000
0000
,
0000
0220
0000
0000
0000
0000
0000
0000
0000
0000
0330
2002
0000
0000
0000
0000
,
0000
3003
0000
0000
0020
0000
0000
0000
0030
0202
0000
0000
0000
0000
0000
0303
,
0000
2000
0000
3000
0000
0022
0000
0000
,
0033
0000
0000
0000
2000
0000
3002
0020
,
0000
0100
1030
0100
2000
0000
0010
0203
,
3000
0001
0020
2000
0302
0030
0203
0020
,
3000
0001
2300
0002
3200
0003
2000
0032
,
3000
0320
1003
0200
1000
0000
0000
1001
,
0000
0000
0000
0000
1000
0000
0000
1001
0000
0000
0001
0000
0000
1001
0000
0000
,
0001
0000
0000
0000
0000
0000
0000
0000
0000
0000
0000
0000
0000
0000
0000
0000
1001
0000
0000
0000
0000
1000
0001
0000
0000
0000
0000
0001
1000
0000
0000
0000
,
0000
1000
0001
0000
0000
0000
0000
0001
1000
0000
0000
0000
0000
0000
1001
0000
0000
0000
0000
0001
1000
0000
0000
0000
0000
1000
0001
0000
0000
0000
0000
0000
,
1332
0000
0100
0000
0000
0100
0000
0000
,
0100
0000
0000
0000
0010
1000
0010
0000
,
0000
0000
0000
1000
0100
0010
0000
0000
,
0100
0010
0100
0000
0000
1000
0010
0000
,
0100
1000
0100
0000
0010
0100
1000
0100
,
0000
0000
0000
0100
0010
0100
0000
0000
,
0010
1000
0010
0000
0000
0000
1000
0000
,
1010
0200
1000
0300
1010
0000
1010
0000
,
1100
0020
1000
0030
1100
0000
1200
0000
,
1310
0020
1000
0030
1100
0000
1020
0000
,
1130
0200
1000
0300
1010
0000
0000
0000
,
0203
0010
0000
0021
0300
0100
2000
0031
,
0002
3100
0000
0210
0003
1000
2000
0310
,
0002
3100
0000
2010
0003
0100
0020
3001
,
2000
0130
0000
0012
3000
0100
0020
1003
,
0100
0030
0000
0000
1110
0000
0100
0000
,
1101
0000
0100
1110
,
0000
0100
1101
0000
,
0100
1110
0100
1101
,
1110
0000
0000
1110
0000
0000
0111
0000
,
0000
1101
0000
0000
0001
0000
0000
1001
,
0000
0000
0001
0000
0000
1001
0000
0002
,
0000
0000
0020
0000
0000
0200
0000
2000
,
0000
0000
0000
0000
,
0000
3333
0000
0000
,
0110
0000
0000
0101
0010
0000
0100
0010
1000
0010
0000
1000
0101
0000
0000
0011
,
1000
0000
0001
1000
0100
0010
0000
0100
1001
0000
0000
0101
0010
0000
0001
0010
,
0100
1000
0000
0100
1010
0000
0000
1100
0010
0000
0001
0010
1000
0100
0000
1000
,
0011
0000
0000
0101
1000
0000
0010
1000
0100
0001
0000
0100
1010
0000
0000
0110
,
0001
0010
0100
1000
0100
0010
0100
0001
,
0010
0100
0001
0100
1000
0010
0100
0001
,
0010
0100
1000
0010
0100
1000
0100
0010
,
1000
1000
0100
0100
0010
0010
0001
0001
1000
0010
0100
0001
1000
0010
0100
0001
,
1100
0010
0100
0011
0100
0010
1100
0010
,
0100
0011
0100
0010
1100
0010
0100
0011
,
1000
1001
1000
1001
1000
1001
1000
1001
,
0001
1001
0001
1001
0001
1011
1011
1011
,
1100
1010
1100
1010
1100
1010
1100
1010
,
1001
1100
1001
1100
1001
1100
1001
1100
,
1100
0001
1100
0010
1001
0100
1001
0010
1100
0001
1100
0010
1001
0100
1001
0010
,
0001
1000
0001
1000
0001
1000
0001
1000
0001
1000
0001
1000
0001
1000
0001
1000
,
0001
1000
0001
0010
0100
1000
0001
0010
0100
1000
0010
0100
0001
1000
0010
0100
,
0002
0000
0000
0000
,
0113
1010
0000
0011
,
0000
0110
2002
3003
,
0110
1001
0101
0000
,
0110
1001
1101
0000
,
0110
1100
0011
0000
,
1100
1010
1101
0000
,
0110
0100
0010
0001
,
1001
0100
0010
0011
,
1100
0100
0110
0001
,
0001
0110
1000
0100
,
1000
0100
0001
0000
1010
0001
0100
0000
,
1000
0100
0001
0000
1010
0001
0100
0000
,
1000
0100
0001
0000
1010
0001
0100
0000
,
1000
0100
0001
0000
1010
0000
0001
0000
,
1000
0010
0100
0010
1000
0000
0001
1000
,
0001
0000
0000
0000
0100
0001
0100
1000
,
0010
0001
0010
0000
0000
0100
0001
1000
,
0001
0100
0000
0000
0010
0000
1000
0000
,
0010
1000
0001
1000
0110
0000
1000
0001
,
0010
1000
0001
0000
0110
1000
0001
0100
,
0010
0001
1000
0001
0110
0000
0001
0100
,
0010
0100
1000
0000
0110
0001
1000
0001
,
0010
1000
0001
0000
0000
1000
0001
0100
,
0001
0010
0000
0001
1000
0010
1000
0001
,
0100
0010
0100
1000
0000
0100
0001
0010
,
0001
1000
0001
0010
0100
1000
0010
1000
,
0100
0010
0001
0010
1100
0001
0010
1000
,
0100
1000
0001
0010
1100
0001
0010
0001
,
0100
0010
0001
0010
1100
0001
0010
1000
,
0100
1000
0001
0010
1100
0001
0010
0001
,
0100
0001
0100
0001
0000
0010
0001
0010
,
0001
0010
0000
0100
0010
0100
0010
0100
,
1000
0010
1000
0010
0000
0010
0001
0100
,
0001
0100
0000
1000
0100
1000
0100
0010
,
1000
0010
0001
1000
0101
1000
0010
0100
,
1000
0100
0001
1010
0101
1000
0010
0100
,
0001
0010
1000
0001
0110
1000
0001
0100
,
1000
0001
0010
0100
1001
0010
1000
0001
,
0100
0010
1000
0100
0011
1000
0010
0100
,
1000
0001
0100
0010
1001
0010
0100
0010
,
0001
0100
1000
0010
0101
1000
0100
0010
,
0001
0100
1000
0001
0110
1000
0001
0100
,
1000
0001
0010
1000
0101
0010
0001
0100
,
1000
0010
0001
1000
0110
0001
0010
0100
,
1000
0010
0001
1000
0101
1000
0010
0100
,
1000
0001
0010
0001
1100
0010
0100
1000
,
0001
0010
0100
0010
1001
0010
0100
1000
,
0010
0100
0001
0010
1100
0010
0001
0010
,
0100
0001
0010
0100
1010
0100
0001
0100
,
0010
0100
0001
0000
1100
0000
0010
0000
,
0110
1001
0101
1010
,
0101
1010
0111
1010
,
0101
1010
0111
1010
,
0101
1010
1100
0011
,
1100
0011
1100
0101
,
0011
1010
1101
0110
,
0110
1001
1010
0101
,
1001
0110
0011
0110
,
0011
0110
1011
1010
,
1001
1100
1001
0110
,
0101
1100
1001
0011
,
1001
0011
1001
1010
,
0101
1001
0111
1100
,
0011
0101
1110
0100
,
1000
0001
1000
0000
0001
1000
0001
0000
,
0001
1000
0001
0010
1000
0010
1000
0010
0001
1000
0100
0010
1000
0100
1000
0000
,
0001
1010
0101
1010
0001
1010
0101
1010
,
0001
1010
0101
1010
0001
0101
0000
0110
,
1000
0110
1001
0110
1000
0110
1001
0110
,
0001
1001
0110
1001
1000
0001
0010
0100
,
0110
0000
0000
0100
0001
0010
0000
0001
1100
0000
0000
1001
0010
0000
0100
0010
,
0100
0001
0000
0000
1110
0000
0100
0010
1000
0001
1100
0000
0010
1000
0001
1000
,
0011
0000
0100
0010
1000
0000
0101
0000
0010
0100
1000
0000
0011
0000
0100
1000
,
0010
0000
0101
0000
1000
0001
0010
0000
0101
0000
1000
0001
0010
0000
0101
0000
,
1000
0011
0110
1100
0001
0011
0110
1100
,
1000
0011
0110
1100
0001
0111
0000
1110
,
1000
1010
0011
0101
1000
1010
0101
0101
,
1000
1011
0000
1101
1000
0111
1101
1011
,
1110
0000
0000
0000
0100
0010
0000
0100
0010
0001
0000
0010
0001
1000
0000
0001
,
1000
0100
0000
0000
1001
0010
0001
0000
0010
1100
0010
0000
1000
0001
0100
0010
,
0100
1000
0001
0000
1000
0100
0010
0000
0001
0010
1000
0000
0001
0010
0100
0000
,
1010
0100
0001
0000
0110
0001
1000
0000
0011
1000
0100
0000
1010
0100
0001
0000
,
0010
0100
0000
0100
1001
0100
0000
0010
0100
0010
0000
0100
1001
0100
0000
0001
,
0010
0001
0000
0100
1001
0100
0000
0010
0100
0000
1001
0010
0000
0010
1001
0100
,
0010
0100
0000
0010
1001
0010
0000
0001
0100
0001
0000
0010
1001
0010
0000
0100
,
0010
0100
1001
0010
0000
0010
1001
0000
0100
0000
0110
0000
1001
0110
1001
0110
,
1001
0000
0000
0000
0100
0010
0001
0010
0100
1000
0010
1000
0100
0010
0001
0010
,
0022
0000
0000
0000
0000
0000
0033
0000
0010
0100
0010
0000
1000
0000
0100
0010
,
0100
0010
0100
0000
0010
0000
1000
0000
0001
0000
0100
0000
0010
0000
1000
0000
,
0001
0100
1000
0001
0010
0100
0001
0010
1000
0100
0001
0010
0100
1000
0010
0100
,
0010
0000
0000
0001
0111
0000
0000
1000
0111
0000
0000
0001
1110
0000
0000
0001
,
1010
0000
0000
0100
0011
0000
0000
0001
1110
0000
0001
1000
0011
0000
0001
1000
,
0111
0000
0000
0100
0010
0000
0100
0010
0100
0000
0000
1000
0100
0000
0000
0010
,
1000
0000
0010
1000
0000
1000
0010
1000
0001
0000
0000
0000
0110
1001
0110
1001
,
0110
0000
0000
0000
0100
0010
0000
0100
1000
0010
0000
1000
0001
0100
0000
0001
,
0010
0101
0010
0000
0000
0001
0010
1000
0010
1100
0001
0000
0000
0010
0101
0000
,
1000
0100
0010
0001
1000
0100
0010
0001
0001
0010
0100
1000
0001
0010
0100
1000
,
0100
0010
0001
1000
0100
0010
0001
1000
0100
0010
0001
1000
0100
0010
0001
0000
,
1000
0100
0010
0001
1000
0100
0010
0001
1000
0200
0020
0002
,
2000
0000
0000
0000
,
0000
0000
0000
0000
,
0000
0000
0000
0000
,
0000
0000
0000
0000
,
0000
0000
0000
0000
,
0000
0000
0000
0000
,
0000
0000
0000
0000
,
0000
0000
0000
0000
,
0000
0000
0000
0000
,
0000
0000
0000
0000
,
0000
0000
0000
0000
,
0000
0000
0000
0000
,
0000
0000
0000
0000
,
0000
0000
0000
0000
,
0000
0000
0000
0000
,
0000
0000
0000
0000
,
0000
0000
0000
0000
,
0000
0000
0000
0000
,
0000
0000
0000
0000
,
0000
0000
0000
0000
,
0000
0000
0000
0000
,
0000
0000
0000
0000
,
0000
0000
0000
0000
,
0000
0000
0000
0000
,
0000
0000
0000
0000
,
0000
0000
0000
0000
,
0000
0000
0000
0000
,
0000
0000
0000
0000
,
0000
0000
0000
0000
,
0000
0000
0000
0000
,
0000
0000
0000
0000
,
0000
0000
0000
0000
,
0000
0000
0000
0000
,
0000
0000
0000
0000
,
0000
0000
0000
0000
,
0000
0000
0000
0000
,
0000
0000
0000
0000
,
0000
0000
0000
0000
,
0000
0000
0000
0000
,
0000
0000
0000
0000
,
0000
0000
0000
0000
,
0000
0000
0000
0000
,
0000
0000
0000
0000
,
0000
0000
0000
0000
,
0000
0000
0000
0000
,
0000
0000
0000
0000
,
0000
0000
0000
0000
,
0000
0000
0000
0000
,
0000
0000
0000
0000
,
0000
0000
0000
0000
,
0000
0000
3333
0000
;
