#TITLE:Love & Sunshine (Delaction Remix);
#SUBTITLE:;
#ARTIST:4 Skips;
#TITLETRANSLIT:;
#SUBTITLETRANSLIT:;
#ARTISTTRANSLIT:;
#CREDIT:;
#BANNER:LOVE & SUNSHINE (Delaction Remix).png;
#BACKGROUND:LOVE & SUNSHINE (Delaction Remix)-bg.png;
#LYRICSPATH:;
#CDTITLE:!cdtitle.png;
#MUSIC:LOVE & SUNSHINE (Delaction Remix) - 4 SKIPS.ogg;
#OFFSET:-6.640;
#SAMPLESTART:21.442;
#SAMPLELENGTH:12.000;
#SELECTABLE:YES;
#BPMS:0.000=145.000,24.000=580.000,24.250=145.000,24.500=580.000,24.750=145.000,25.000=580.000,25.250=145.000,25.500=580.000,25.750=145.000,26.000=580.000,26.250=145.000,26.500=580.000,26.750=145.000,27.000=580.000,27.250=145.000,28.000=290.000,32.000=145.000,52.000=36.250,52.188=435.000,53.000=145.000,115.500=435.000,116.000=145.000;
#STOPS:24.000=0.080
,24.500=0.060
,25.000=0.080
,25.500=0.060
,26.000=0.080
,26.500=0.080
,27.000=0.080
,28.000=0.130
,28.667=0.130
,29.333=0.130
,30.000=0.140
,30.667=0.140
,31.333=0.140
,115.500=0.065
,115.750=0.065
;
#BGCHANGES:;
// cache tags:
#FIRSTBEAT:0.000;
#LASTBEAT:195.500;
#SONGFILENAME:Songs/Rodd's Rad Christmas Pack/Love & Sunshine (Delaction Remix) (Rodd Steps)/Love & Sunshine (Delaction Remix) (Rodd Steps).sm;
#HASMUSIC:1;
#HASBANNER:1;
#MUSICLENGTH:90.933;
// end cache tags

//---------------dance-single - R. Farias----------------
#NOTES:
     dance-single:
     R. Farias:
     Challenge:
     10:
     0.845,0.833,0.198,0.352,0.852,482.000,18.000,32.000,11.000,5.000:

1000
0000
0001
0100
0000
0100
0010
0000
1000
0000
1000
0100
0000
0100
0010
0000
,
0001
0000
0001
0100
0000
0100
0010
0000
1000
0000
0000
0000
2222
3333
0000
0000
,
0010
0000
1000
0100
0000
0010
0001
0000
0100
0000
0010
1000
0000
1000
0001
0000
,
1000
0000
0100
0010
0000
0010
0001
0000
0100
0010
1000
0100
0010
0000
0001
0000
,
0100
0001
0100
0001
1000
0000
0100
0000
0010
0001
0010
0001
0100
0000
0010
0000
,
1000
0100
1000
0100
0010
0001
0010
0001
0100
0001
0100
0001
0100
0010
0100
0010
,
0100
0010
1000
0001
0100
0010
0100
0001
1000
0100
0010
0001
0100
0010
1000
0001
,
1000
0000
1100
0000
0110
0000
0011
0000
1001
0000
0202
0000
,
0000
0000
0000
0000
,
1303
0000
1000
0100
0000
0010
0001
0000
0100
0000
0010
1000
0000
1000
0001
0000
,
1000
0000
0001
0100
0000
0010
1000
0000
0100
0010
0001
0100
0010
0000
1000
0000
,
0100
0000
0100
0010
0000
0010
0001
0000
0100
0000
0001
0100
0000
0100
0010
0000
,
1000
0000
0010
1000
0000
1000
0001
0000
1000
0100
1000
0100
0010
0000
0001
0000
,
2000
0000
0000
0000
0000
0000
0000
3000
1001
0000
0000
0000
0001
0000
0000
0000
0100
0000
0000
0000
0010
0000
1000
0000
0000
0000
1000
0000
0001
0000
0000
0000
,
1000
0000
0100
0010
0000
0010
0100
0000
1000
0001
0100
0010
1000
0000
0001
0000
,
1000
0000
0100
0010
0000
0010
0100
0010
0100
0000
0010
0001
0000
0001
0100
0001
,
0100
0000
0001
1000
0000
0100
0010
0000
0001
0100
0010
1000
0001
0000
1000
0000
,
0110
0000
0010
0001
0100
0000
0010
1000
0100
0000
0010
0001
0100
0000
0010
1000
,
0100
0000
0010
0001
0100
0000
0020
0030
0200
0300
0002
0003
0200
0300
0020
0030
,
1000
0000
0100
0010
0001
0000
0010
0100
1000
0000
0100
0010
0001
0000
0010
0100
,
1000
0000
0000
0000
0000
0000
0100
0000
0000
0010
0000
0000
0001
0000
0000
0000
0000
0000
0010
0000
0000
0100
0000
0000
1000
0000
0000
0000
0000
0000
0001
0000
1000
0000
0001
0000
1000
0000
0000
0001
0000
0000
1000
0000
0000
0001
0000
0000
,
1000
1000
0100
0100
0001
0001
0100
0100
,
0010
0010
0001
0001
1000
1000
0001
0001
,
0100
0010
1000
0100
0010
0100
1000
0001
,
0100
0000
0010
1000
0001
0000
1000
0000
0100
0000
0100
0000
0010
0000
0010
0000
,
1001
0000
0001
0100
0010
0000
0100
0001
1000
0000
0001
0100
0010
0000
0100
0001
,
1000
0000
0001
0100
0010
0000
2000
3000
0002
0003
2000
3000
0200
0300
2000
3000
,
0001
0000
0100
0001
0100
0000
0001
1000
0100
0000
1000
0001
0100
0000
0001
1000
,
0100
0000
1000
0001
0100
0000
0020
0030
2000
3000
0020
0030
0200
0300
0001
1000
,
0100
0100
0010
0010
0001
0001
0010
0010
,
1000
1000
0010
0010
0100
0100
1000
1000
,
0001
0100
0010
0100
0001
1000
0100
0010
,
0001
0000
0100
0010
1000
0000
0100
0000
0010
0000
0010
0000
0001
0000
0001
0000
,
0011
0000
0001
0100
0000
0010
1000
0000
0001
0000
1000
0100
0000
0010
0001
0000
,
0100
0000
0000
0000
0010
0000
1000
0000
0000
0000
1000
0000
0001
0000
0000
0000
1000
0000
0000
0000
0000
0000
0000
0000
2222
3333
0000
0000
0000
0000
0000
0000
,
0011
0000
0001
0100
0000
0001
0100
0000
0010
0000
1000
0100
0000
1000
0100
0000
,
0010
0000
0100
0010
0000
0100
0010
0000
0100
0000
M11M
0000
1MM1
0000
0000
0000
,
0101
0000
0100
0010
0000
1000
0100
0010
0001
0000
0100
0010
0000
0100
0001
1000
,
0100
0000
0000
0000
0010
0000
0001
0000
0000
0000
0001
0000
0100
0000
0000
0000
0010
0000
0000
0000
0000
0000
0000
0000
2222
3333
0000
0000
0000
0000
0000
0000
,
0010
1000
0100
0010
0001
0100
0010
0100
0001
1000
0100
0010
0001
0010
0100
1000
,
0001
0000
0100
0010
0000
0010
1000
0000
0001
1000
0001
1000
0001
0000
1000
0000
,
0100
0000
0010
0000
0001
0000
1000
0001
0000
0001
1000
0000
0001
0000
1000
0000
,
0100
0000
0010
0000
0001
0000
0100
0010
0000
0010
1000
0000
0001
0000
1000
0100
,
0010
0000
0001
0000
0100
0000
0010
1000
0000
1000
0100
0000
0010
0000
0001
0000
,
0110
0000
0000
0000
1001
0000
0000
0000
0001
0100
0010
1000
0000
0100
0010
0001
,
0100
0000
0010
0000
1000
0000
0100
0010
0000
0100
1000
0000
0001
0000
0100
0000
,
0010
0000
0100
0000
0001
0000
1000
0100
0000
0100
0010
0000
0002
0003
M000
0000
,
1000
0100
0010
0001
0010
0100
1000
0001
0100
0010
1000
0001
0100
0010
0100
0001
,
2000
0000
0000
0000
0200
0000
0000
0000
3310
0000
0000
0M00
00M0
M00M
0MM0
0000
;
