#TITLE:Finished Symphony;
#SUBTITLE:;
#ARTIST:Hybrid;
#TITLETRANSLIT:;
#SUBTITLETRANSLIT:;
#ARTISTTRANSLIT:;
#CREDIT:;
#BANNER:Finished Symphony.png;
#BACKGROUND:Finished Symphony-bg.png;
#LYRICSPATH:;
#CDTITLE:;
#MUSIC:Finished Symphony.mp3;
#OFFSET:0.020;
#SAMPLESTART:43.660;
#SAMPLELENGTH:12.000;
#SELECTABLE:YES;
#BPMS:0.000=131.855;
#STOPS:;
#BGCHANGES:;
// cache tags:
#FIRSTBEAT:16.000;
#LASTBEAT:199.750;
#SONGFILENAME:Songs/Chaomix Pack One/Finished Symphony/Finished Symphony.sm;
#HASMUSIC:1;
#HASBANNER:1;
#MUSICLENGTH:91.224;
// end cache tags

//---------------dance-single - E. Holniker----------------
#NOTES:
     dance-single:
     E. Holniker:
     Beginner:
     1:
     0.089,0.132,0.033,0.000,0.000,54.000,3.000,0.000,0.000,0.000:

0000
0000
0000
0000
,
0000
0000
0000
0000
,
0000
0000
0000
0000
,
0000
0000
0000
0000
,
0000
0000
0000
0000
,
0000
0000
0000
0000
,
0000
0000
0000
0000
,
0000
0000
0000
0000
,
1000
0000
0010
0000
,
0100
0000
0000
0000
,
0100
0000
1000
0000
,
0100
0000
0000
0000
,
0010
0000
0001
0000
,
0010
0000
0000
0000
,
0100
0000
1000
0000
,
0010
0000
0000
0000
,
1000
0000
0000
0000
,
0010
0000
0000
0000
,
0100
0000
0000
0000
,
0001
0000
0000
0000
,
1010
0000
0000
0000
,
0101
0000
0000
0000
,
0100
0000
1000
0000
,
0100
0000
0000
0000
,
1000
0000
1000
0000
,
1000
0000
0000
0000
,
0010
0000
0010
0000
,
0010
0000
0000
0000
,
0100
0000
0100
0000
,
0100
0000
0000
0000
,
0001
0000
0001
0000
,
0001
0000
0000
0000
,
1000
0000
0010
0000
,
1000
0000
0000
0000
,
0100
0000
1000
0000
,
0100
0000
0000
0000
,
0010
0000
0100
0000
,
0010
0000
0000
0000
,
0001
0000
0100
0000
,
0001
0000
0000
0000
,
0100
0000
0000
0000
,
1000
0000
0000
0000
,
0010
0000
0000
0000
,
0001
0000
0000
0000
,
0100
0000
0000
0000
,
1000
0000
0000
0000
,
0010
0000
0000
0000
,
0100
0000
0000
0000
,
1001
0000
0000
0000
;

//---------------dance-single - E. Holniker----------------
#NOTES:
     dance-single:
     E. Holniker:
     Challenge:
     12:
     0.814,0.985,0.044,0.723,0.904,450.000,4.000,66.000,1.000,11.000:






0000
0000
0000
0000
,
0000
0000
0000
0000
,
0000
0000
0000
0000
,
0000
0000
0000
0000
,
2000
0000
0000
0020
,
0001
0000
0000
0000
0000
0000
0000
0000
0000
0000
0000
0000
0130
0000
0000
30M0
,
0000
0020
0000
0000
0000
0000
0000
0000
0000
0000
0000
0000
0000
0000
0000
0000
,
0200
0000
0000
0000
0000
0000
0000
0000
1001
0000
0000
0000
0000
0330
0000
0000
,
1000
0000
0100
0000
0020
0000
0002
0000
0033
0100
0010
0100
0010
0100
1000
0000
,
0100
0000
0010
0000
0002
0000
0020
0000
0033
1000
0100
1000
0100
1000
0001
0000
,
0010
0000
0100
0000
2000
0000
0200
0000
3300
0100
0010
0100
0010
0100
0001
0000
,
0010
0000
0100
0000
2000
0000
0200
0000
3300
0100
0010
0100
0001
0100
0010
0000
,
1000
0000
0100
0000
0020
0000
2000
0000
3030
0010
0001
0100
0010
0100
0100
0000
,
0010
0000
1000
0000
0200
0000
0020
0000
0330
0100
0010
0100
0010
0100
0001
0000
,
1000
0000
0100
0000
0010
0000
0001
0000
1000
0100
1000
0100
1000
0100
0020
0200
,
0000
0000
0000
0000
1000
0000
0000
0000
0001
0000
0000
0000
0000
1001
0000
0330
,
1000
0100
0010
0001
0010
0100
0010
0100
1000
0100
0010
0001
0010
0100
1000
0100
,
1000
0100
1000
0100
0010
0100
0010
0100
0001
0100
0001
0100
1000
0100
1000
0100
,
0010
0100
1000
0100
0010
1000
0010
1000
0001
0100
0001
0100
0010
1000
0010
1000
,
0100
0010
0100
0010
0001
0010
0001
0010
1000
0010
1000
0010
0100
0010
0100
0010
,
1000
0100
1000
0100
0010
0100
0010
0100
0001
0100
0001
0100
0010
0100
1000
0100
,
0001
0010
0100
1000
0010
0100
1000
0100
0010
0100
1000
0100
1000
0001
1000
0000
,
2002
0000
0000
0000
0020
0000
0000
3000
,
0200
0000
0000
0000
0000
0333
0000
0000
,
1000
0000
0100
0000
0010
0000
0001
0010
0100
1000
0100
0010
0001
0000
0010
0000
,
0100
0000
1000
0000
0100
0000
0010
0200
0301
0010
1000
0100
0010
0000
1000
0000
,
0100
0000
1000
0000
0010
0000
1000
0100
0010
0001
0010
0100
0010
0000
0001
0000
,
0100
0000
0010
0000
1000
0000
0100
0000
0010
0001
0010
0001
0010
0001
0020
0030
,
1000
0000
0100
0000
0010
0000
0001
0010
0100
1000
0100
1000
0010
1000
0100
0000
,
0010
0000
0100
0000
1000
0000
0001
0010
0100
0010
1000
0010
0001
0100
0010
0000
,
1000
0000
0100
0000
0010
0000
0001
0100
0010
1000
0100
0010
0001
0010
0100
0000
,
1000
0000
0100
0000
0010
0000
0001
0100
0010
1000
0100
0010
0001
0010
0100
0000
,
1000
0100
0010
0100
0010
1000
0100
0010
0001
0100
0010
0100
1000
0020
0200
0330
,
0001
0010
0100
0010
1000
0010
0100
0001
0010
0100
1000
0100
0010
0200
2000
3300
,
0010
0100
1000
0100
0010
0001
0010
0100
0010
1000
0010
0100
0010
0002
0200
0303
,
1000
0100
1000
0100
1000
0200
2000
3300
0001
0010
0001
0010
0001
0020
0002
0033
,
1000
0100
0010
0100
1000
0100
1000
0001
1000
0100
0010
0100
1000
0100
0010
0100
,
1000
0100
0001
0010
0100
0010
0001
0100
1000
0010
0001
0010
0100
0020
2000
3030
,
0100
0001
0010
0100
1000
0100
0010
0001
0010
0100
0010
1000
0100
0020
0002
0033
,
2000
0200
0000
0000
0001
0000
3300
0000
0020
0002
0000
0000
1000
0000
0033
0000
,
2000
0000
0000
0000
0000
0000
0000
0000
0020
0000
3000
0030
0002
0000
0203
0000
,
2300
0000
0000
0000
3020
0000
0000
0000
0230
0000
0000
0000
0302
0000
0000
0003
,
2000
0000
0000
0000
0000
0000
0000
0000
0200
0000
0000
3300
0020
0000
0032
0000
,
0023
0000
0230
0000
2300
0000
3002
0000
0203
0000
0000
0300
0020
0000
0000
0030
,
1000
0000
0100
0000
0001
0000
0010
0100
1000
0200
0310
0100
1000
0000
0100
0000
,
0010
0000
0001
0000
0010
0000
1000
0100
0010
0200
1300
0100
0010
0000
1000
0000
,
0100
0000
0010
0000
0001
0000
0010
0100
1000
0200
0310
0001
0010
0001
0010
0000
,
0100
0000
1000
0000
0010
0000
0100
0010
0001
0020
0130
0010
0001
0100
1000
0000
,
0020
0000
0000
0000
,
0200
0000
0000
0000
0000
0000
0000
0000
0000
0000
0000
0000
1001
0000
0000
0330
;

//---------------dance-single - E. Holniker----------------
#NOTES:
     dance-single:
     E. Holniker:
     Hard:
     8:
     0.406,0.465,0.022,0.274,0.000,232.000,2.000,25.000,0.000,2.000:

0000
0000
0000
0000
,
0000
0000
0000
0000
,
0000
0000
0000
0000
,
0000
0000
0000
0000
,
0000
0000
0000
0000
,
0000
0000
0000
0000
,
0000
0000
0000
0000
,
0000
0000
0000
0000
,
1000
0000
0010
0000
0100
0001
0100
0000
,
0010
0000
1000
0000
0100
1000
0100
0000
,
0010
0000
0001
0000
0010
0100
1000
0000
,
0010
0100
0001
0000
1000
0100
0010
0000
,
0001
0000
1000
0000
0010
1000
0010
0010
,
0100
0000
0001
0000
1000
0100
1000
1000
,
0001
0000
0100
0000
0010
0010
1000
0000
,
0001
0001
0100
0000
0010
1000
0100
0010
,
0001
1000
0010
0100
,
0001
1000
0100
0010
,
0002
0000
0000
2003
0000
0000
3020
0000
,
0230
0000
0000
0302
0000
0000
2003
0000
,
3020
0000
0000
0230
0000
0000
0302
0000
,
2003
0000
0000
3020
0000
0000
0230
0000
,
0302
0000
2000
0000
,
0020
0030
0000
3003
,
1000
0100
0010
0001
0010
0100
0010
0000
,
0100
1000
0010
0100
0010
0001
0010
0000
,
1000
0100
0010
0100
0001
0100
1000
0000
,
0010
0100
0010
0000
0001
0010
0001
0000
,
0100
1000
0100
0010
0100
0001
0100
0000
,
1000
0010
0100
0010
0001
0010
1000
0000
,
0100
0010
0100
1000
0100
0001
0100
0000
,
0010
1001
0010
1010
,
0001
0100
0010
0100
0010
1000
0010
0100
,
0010
0001
0010
1000
0010
0000
0100
0000
,
0001
1000
0100
0010
0100
0001
0100
0010
,
0100
1000
0010
0000
0100
0001
0100
0000
,
0010
1000
0100
0010
0100
1000
0010
0000
,
0100
0001
0100
0001
0010
0001
1000
0010
,
0100
0010
0001
0010
1000
0100
0010
0000
,
0100
0010
0100
0000
1000
0001
0100
0000
,
0010
1000
0100
0010
0100
0010
0100
1000
,
0002
0203
0320
2030
,
3100
0010
0001
0010
0100
1000
0010
1000
,
0020
0230
2300
3200
,
0301
1000
0100
0010
0100
0010
0100
0000
,
1000
0001
0100
0010
0001
0010
1000
0000
,
0100
0010
0100
1000
0100
0010
0100
0000
,
1000
0001
0100
0010
1000
0100
0010
0100
,
2000
0000
0002
0000
,
0010
0000
0000
0000
0000
0000
0000
3003
;

//---------------dance-single - E. Holniker----------------
#NOTES:
     dance-single:
     E. Holniker:
     Medium:
     5:
     0.269,0.300,0.000,0.044,0.000,168.000,0.000,4.000,0.000,0.000:

0000
0000
0000
0000
,
0000
0000
0000
0000
,
0000
0000
0000
0000
,
0000
0000
0000
0000
,
1000
0000
0010
0100
,
0001
0000
0000
1000
0000
0000
0010
0000
,
0100
0000
0000
0001
0000
0000
1000
0000
,
0010
0000
0000
0100
0000
0000
0001
0000
,
1000
0100
1000
0100
,
0010
0001
0010
0001
,
0010
0100
0010
0100
,
1000
0100
1000
0000
0100
0010
0100
0000
,
0010
0001
1000
0010
,
0100
0010
1000
0100
,
0010
0100
0001
0100
,
1000
0010
0100
0000
,
0001
1000
1000
0010
,
0100
0001
0100
0100
,
0010
1000
0100
0010
,
0100
0001
0100
0010
,
0100
1000
0100
0000
0010
0000
0001
0000
,
0010
0100
1000
0010
,
0100
0010
0100
0000
0001
0000
2000
0000
,
0200
0000
0000
3300
,
0010
0010
0001
0001
,
1000
0100
0010
0001
,
0010
0010
0100
0100
,
1000
0010
1000
0000
0100
0000
0100
0000
,
0001
1000
0010
0100
,
0100
1000
0100
0000
0010
0001
0010
0000
,
0100
0100
1000
1000
,
0010
1000
0010
0000
,
1000
0001
1000
0100
,
0010
0100
1000
0010
,
0100
0001
0100
0010
,
1000
0010
1000
0010
1000
0000
0001
0000
,
0100
0010
1000
0100
,
0010
0100
0001
0100
,
1000
0010
0100
0010
,
0001
0010
0001
0010
0001
0000
0010
0000
,
1000
0000
0000
0000
0000
0100
0000
0000
,
0010
0000
0000
0001
0000
0000
0010
0000
,
0100
0000
0000
1000
0000
0000
0010
0000
,
0100
0000
0000
0001
0000
0000
1000
0000
,
0100
0000
0000
0010
0000
0000
0000
0000
,
1000
0000
0000
0001
0000
0000
0000
0000
,
0100
0000
0000
0010
0000
0000
0000
0000
,
1000
0000
0000
0100
0000
0000
0010
0000
,
0002
0000
0000
2000
,
0000
0000
0000
3003
;

//---------------dance-single - E. Holniker----------------
#NOTES:
     dance-single:
     E. Holniker:
     Easy:
     3:
     0.194,0.245,0.022,0.351,0.000,90.000,2.000,32.000,0.000,0.000:

0000
0000
0000
0000
,
0000
0000
0000
0000
,
0000
0000
0000
0000
,
0000
0000
0000
0000
,
1000
0000
0010
0000
,
0100
0000
0000
0000
,
1000
0000
0100
0000
,
1000
0000
0000
0000
,
1000
0100
0010
0100
,
0001
0110
0000
0100
,
1000
0010
0100
0010
,
0001
0010
1000
0100
,
0010
0000
0100
0000
,
1000
0000
0001
0000
,
0100
0010
1000
0100
,
1000
0000
0001
0000
,
0100
0010
0100
0010
,
1000
0000
0000
0000
,
0100
1000
0100
1000
,
0100
0000
0000
0000
,
0010
0100
0010
0100
,
1000
0000
0001
0000
,
0100
0010
1000
0100
,
0020
0000
0000
0030
,
2000
0000
0000
3000
,
0200
0000
0000
0300
,
0020
0000
0000
0030
,
0002
0000
0000
0003
,
2000
0000
0000
3000
,
0020
0000
0000
0000
,
0230
0000
0000
0300
,
0020
0000
2030
0000
,
3002
0000
2003
0000
,
3020
0000
0230
0000
,
0302
0000
2003
0000
,
3100
0010
0100
1000
,
0200
0000
0302
0000
,
0203
0000
0320
0000
,
0130
1000
0100
1000
,
0002
0000
0023
0000
,
0230
0000
0000
0000
,
0320
0000
0000
0000
,
2030
0000
0000
0000
,
3002
0000
0000
0000
,
2003
0000
0000
0000
,
3020
0000
0000
0000
,
0230
0000
0000
0000
,
0320
0000
0000
0030
,
2002
0000
0000
0000
,
0000
0000
0000
3003
;
