#TITLE:The Invasion From Within;
#SUBTITLE:;
#ARTIST:odaxelagnia;
#TITLETRANSLIT:;
#SUBTITLETRANSLIT:;
#ARTISTTRANSLIT:;
#CREDIT:Tyler;
#BANNER:bn from within.png;
#BACKGROUND:bg from within.png;
#LYRICSPATH:;
#CDTITLE:;
#MUSIC:The Invasion From Within.ogg;
#OFFSET:-0.048;
#SAMPLESTART:16.775;
#SAMPLELENGTH:12.500;
#SELECTABLE:YES;
#DISPLAYBPM:240.000;
#BPMS:0.000=240.000;
#STOPS:;
#BGCHANGES:;
// cache tags:
#FIRSTBEAT:4.000;
#LASTBEAT:408.000;
#SONGFILENAME:Songs/SPEEEDCOOOORE 2/The Invasion From Within - [Tyler]/invasion from within.sm;
#HASMUSIC:1;
#HASBANNER:1;
#MUSICLENGTH:102.060;
// end cache tags

//---------------dance-single - T. Moore----------------
#NOTES:
     dance-single:
     T. Moore:
     Challenge:
     15:
     1.000,1.000,0.216,0.118,0.887,848.000,22.000,12.000,31.000,2.000:
0000
0000
0000
0000
,
1000
0001
0000
0000
0000
0000
0000
0000
,
0000
0000
0000
0000
,
1000
0001
0000
0000
0000
0000
0000
0000
,
0000
0000
0000
0000
0000
0000
1000
0001
,
1000
0001
0000
0000
0000
0000
0000
0000
,
0000
0000
0000
0000
0000
0000
1000
0001
,
1000
0100
0010
0000
0000
0000
0000
0000
,
1000
0000
0100
0000
0010
0000
0001
0000
0100
0000
0010
0000
1000
0001
1000
0001
,
0010
0000
0001
0000
0010
0000
0100
1000
0100
1000
0001
0000
0100
0000
0010
0000
,
1000
0010
1000
0001
4000
0000
3400
0000
,
0310
0001
0010
0100
1000
0001
0100
0010
,
1000
0000
0000
0000
0000
0000
0001
0000
1000
0000
0001
0000
1000
0000
0000
0000
0000
0000
0100
0000
0000
0000
0000
0000
0010
0000
0000
0001
0000
0000
0010
0000
0000
0001
0000
0000
1000
0000
0000
0000
0000
0000
0000
0000
0000
0000
0000
0000
,
0001
0010
0100
1000
0001
0100
0010
0000
,
1000
0010
0100
0001
0010
0100
1000
0001
,
1000
0000
0000
0001
0100
0001
0100
0000
0000
0010
1000
0010
1000
0000
0000
0001
0100
0001
0100
0000
0000
0001
0000
0000
,
1000
0000
0000
0001
0000
0000
0100
0000
0000
0010
0000
0000
4000
0000
0000
0000
0000
0000
3004
0000
0000
0000
0000
0003
,
0010
0000
0100
0000
1000
0000
0100
0000
0010
0000
0001
0000
0100
0000
0010
1000
,
0001
0000
0000
0010
0000
0000
0100
0000
0000
1000
0000
0000
0010
0000
0000
1000
0000
0000
0100
0000
0000
1000
0001
1000
,
0001
0000
0010
0000
0100
0000
1000
0000
0001
0000
1000
0000
0100
0000
0010
0001
,
1000
0000
0000
0001
0000
0000
0100
0000
0000
0010
0000
0000
1000
0000
0000
0010
0000
0000
0100
0000
0000
0001
1000
0001
,
1000
0000
0100
0000
0010
0000
0001
0000
0010
0000
0100
0000
1000
0000
0001
0100
,
0010
0000
0000
0000
0000
0000
1000
0000
0000
0000
0000
0000
0001
0000
0000
0000
0000
0000
0010
0000
0000
0100
0000
0000
1000
0000
0000
0000
0000
0000
0001
0000
0000
0000
0000
0000
0100
0000
0000
0000
0000
0000
0010
0000
1000
0000
0010
0000
,
1000
0000
0001
0000
0010
0000
0001
0000
0100
0000
0001
0000
1000
0000
0100
0010
,
0001
0000
1000
0000
0010
0000
0100
0001
0010
0000
0100
0000
1000
0000
0001
0000
,
0100
0001
0100
0001
1000
0010
0100
0001
1000
0100
0010
0001
1000
0010
0100
0001
,
0100
0000
0001
0001
1000
0001
1000
0001
,
0101
0100
0010
1000
0100
1000
0010
0100
,
0000
0001
0100
0001
1000
0100
0000
0000
,
1000
0100
0010
0001
0100
0001
0010
0100
,
1000
0010
0100
0001
0010
0001
0400
0300
,
0001
1000
0100
0010
0001
0010
0100
1000
0001
0010
0001
1000
0100
1000
0001
0010
,
0001
1000
0010
0100
0001
0100
0010
1000
0001
1000
0010
0100
0001
1000
0010
1000
,
0100
0010
0001
1000
0010
0100
0001
1000
0100
0010
0001
1000
0010
0100
0001
1000
,
0004
0000
0000
0000
0MM3
MMM0
0MMM
MMM0
,
1000
0000
0001
0000
0100
0000
0001
0000
1000
0000
0100
0000
1000
0000
0001
0100
,
0010
0000
0000
1000
0000
0000
0001
0000
0000
1000
0000
0000
0010
0000
0000
0100
0000
0000
0001
0000
0000
1000
0001
1000
,
0001
0000
0100
0000
0010
0000
1000
0000
0001
0000
1000
0000
0010
0000
0100
0001
,
1000
0000
0000
0100
0000
0000
0010
0000
0000
0001
0000
0000
0100
0000
0000
0001
0000
0000
0010
0000
0000
0100
1000
0100
,
1000
0000
0001
0000
0010
0000
0001
0000
1000
0000
0010
0000
0100
0000
0001
1000
,
0100
0000
0000
0000
0000
0000
0010
0000
0000
0000
0000
0000
0001
0000
0000
0000
0000
0000
1000
0000
0000
0010
0000
0000
0100
0000
0000
0000
0000
0000
0001
0000
0000
0000
0000
0000
1000
0000
0000
0000
0000
0000
0100
0000
0010
0000
0100
0000
,
0010
0000
0001
0000
1000
0000
0001
0000
0100
0000
0010
0000
1000
0000
0100
0010
,
0001
0000
0010
0000
0100
0000
1000
0010
0100
0000
0001
0000
1000
0000
0100
0010
,
0001
1000
0001
0100
0010
1000
0010
0100
0001
1000
0100
0010
0001
1000
0010
0100
,
0001
0000
1000
1000
0010
0100
0002
0003
,
1001
1000
0010
0100
0002
0103
0010
1000
,
0001
0010
0200
1300
0004
0000
0403
0000
,
0310
1000
0001
1000
0010
0100
0001
0010
,
0100
0000
0000
0000
0000
0000
1000
0000
0001
0000
1000
0000
0001
0000
0000
0000
0000
0000
0100
0000
0000
0000
0000
0000
0010
0000
0000
1000
0000
0000
0010
0000
0000
1000
0000
0000
0001
0000
0000
0000
0000
0000
1000
0000
0000
0000
0000
0000
,
0100
1000
0010
0100
0001
0100
0010
00M0
,
0001
0010
0100
1000
0001
0100
0020
0030
,
0100
0000
0000
0000
0000
0000
0001
0000
1000
0000
0001
0000
1000
0000
0000
0010
0000
0000
0100
0000
0000
0000
0000
0000
0001
0000
0000
0000
0000
0000
1000
0000
0000
0000
0000
0000
0100
0000
0000
0000
0000
0000
1000
0000
0001
0000
1000
0000
,
0001
0000
0010
0000
0100
0000
1000
0001
1000
0010
0100
0001
1000
0001
1000
0010
,
4000
0000
0000
3000
,
0001
1000
0100
0010
0001
0100
0010
1000
,
0001
0000
0010
0000
0100
0000
1000
0000
0001
0010
0001
0010
0100
0000
0010
0000
,
0001
1000
0010
0100
0001
1000
0100
0010
,
0001
1000
0001
0000
0010
0000
0100
1000
0001
0100
0010
0100
0001
0000
0000
0000
,
0001
0100
0001
0000
1000
0000
0010
0100
0001
1000
0001
0000
0010
0000
0100
0000
,
1000
0100
1000
0000
0001
0000
0010
0001
1000
0001
1000
0001
0100
0000
0010
0000
,
1000
0001
1000
0000
0010
0000
0100
0001
1000
0001
1000
0000
0100
0000
0010
0000
,
0001
1000
0001
0000
0010
0000
0100
1000
0001
0010
0100
1000
0040
0000
0000
0000
,
1030
0010
0010
0100
0001
0001
1000
1000
,
0100
0010
0010
0100
1000
1000
0010
0100
,
0001
0010
0100
1000
0001
0001
0100
0100
,
0001
0010
0100
1000
0001
0000
0001
0000
,
1000
0010
0010
1000
0100
0100
0010
0010
,
0001
0100
0001
1000
0100
0100
0010
0100
,
1000
0010
0100
0001
1000
1000
0100
1000
,
0001
0100
0010
1000
0100
0000
0100
0000
,
2M22
3033
22M2
3303
,
1000
1000
0010
0010
0100
0100
0001
0001
,
1000
0100
1000
0100
0010
0001
0010
0001
1000
0001
0100
0010
1000
0001
1000
0100
,
0040
0000
0000
0000
0000
0000
0000
0000
0001
0000
0000
0000
0000
0000
0000
0000
0100
0000
0000
0000
0000
0000
0000
0000
0001
0000
0000
0000
0000
0000
0000
0030
,
4100
3002
0000
0043
,
0031
0000
0100
0000
0010
0000
1000
0000
0100
0000
0010
0000
0010
0000
0001
1000
,
0010
0000
0000
0100
0000
0000
0001
0000
0000
1000
0000
0000
0100
0000
0000
1000
0000
0000
0001
0000
0000
1000
0010
1000
,
0010
0000
0100
0000
0001
0000
1000
0000
0010
0000
0100
0000
0001
0000
1000
0001
,
1000
0000
0000
0100
0000
0000
0010
0000
0000
0001
0000
0000
0100
0000
0000
0001
0000
0000
0010
0000
0000
0100
1000
0100
,
1000
0000
0000
0001
0000
0000
0100
0000
0000
0010
0000
0000
1000
0000
0000
0001
0000
0000
1000
0000
0000
0001
0010
0001
,
0010
0000
0000
0000
0000
0000
0100
0000
0000
0000
0000
0000
1000
0000
0000
0000
0000
0000
0001
0000
0000
0100
0000
0000
0010
0000
0000
0000
0000
0000
1000
0000
0000
0000
0000
0000
0001
0000
0000
0000
0000
0000
1000
0000
0100
0000
1000
0000
,
0100
0000
0010
0000
0001
0000
1000
0000
0100
0000
1000
0000
0001
0000
0100
0010
,
1000
0000
0000
0000
0000
0000
0001
0000
0000
0000
0000
0000
1000
0000
0000
0000
0000
0000
0010
0000
0100
0000
0010
0000
0100
0000
0000
0000
0000
0000
0001
0000
0000
0000
0000
0000
1000
0000
0000
0000
0000
0000
0001
0000
0000
1000
0000
0000
,
0100
1000
0001
0010
0001
1000
0100
1000
0001
0100
0010
1000
0001
0010
0100
1000
,
0001
0000
1000
1000
M001
0100
0010
0100
,
0001
0010
0100
1000
0010
1000
0001
0010
,
0100
0000
0100
0000
1000
0100
1000
0100
0010
0000
0010
0000
0001
0000
0001
0000
,
1000
0000
0040
0000
0130
0000
0001
0000
0100
0000
0010
1000
0001
1000
0001
1000
,
0100
1000
0100
1000
0100
0000
0010
0000
0001
0000
4000
0000
3001
0000
1000
0000
,
0010
0000
1000
0010
1000
0000
0004
0000
0013
0100
0010
0100
1000
0001
1000
0001
,
0100
0000
0000
0000
0000
0000
0010
0000
0000
0000
0000
0000
1000
0000
0000
0001
0000
0000
1000
0000
0000
0001
0000
0000
0010
0000
0000
0000
0000
0000
0100
0000
0000
0000
0000
0000
0010
0000
0000
0000
0000
0000
0001
0000
1000
0000
0001
0000
,
1000
0000
0000
0001
0000
0000
0100
0000
0000
0010
0000
0000
0010
0000
0000
1000
0000
0000
0010
0000
0000
0100
0001
0100
,
0001
0000
0100
0001
0000
0100
0001
0000
2000
0000
0000
0000
0000
0000
0000
3000
,
1001
0001
1001
1000
1001
0001
1001
1000
,
1100
0000
0100
0000
1100
0000
1000
0000
0001
1000
0001
1000
0001
1000
0001
1000
,
0010
0100
0101
0001
0100
0000
0100
0010
,
1000
0001
1000
0001
1000
0100
1000
0100
0040
0000
0000
0030
0000
0000
0001
0000
,
1001
1000
0001
0010
0100
1000
0001
0000
,
1000
0010
1000
1000
1000
0100
1000
0001
,
0100
0000
0000
0010
0000
0000
1000
0000
0000
0001
1000
0001
1000
0000
0000
0100
0000
0000
0010
0000
0000
0001
0000
0000
,
0400
0340
4030
3004
,
0013
0000
0100
0000
0040
0004
0000
0000
0033
MM00
00MM
MM00
00MM
MM00
00MM
MM00
,
00MM
0000
0000
0000
;
