#TITLE:Magical 8bit Tour;
#SUBTITLE:;
#ARTIST:YMCK;
#TITLETRANSLIT:;
#SUBTITLETRANSLIT:;
#ARTISTTRANSLIT:;
#CREDIT:;
#BANNER:../fthescorept1bn.png;
#BACKGROUND:../fthescorept1bg.png;
#LYRICSPATH:;
#CDTITLE:;
#MUSIC:Magical 8bit Tour.ogg;
#OFFSET:-0.031;
#SAMPLESTART:0.040;
#SAMPLELENGTH:12.590;
#SELECTABLE:YES;
#BPMS:0.000=284.080;
#STOPS:;
#BGCHANGES:;
// cache tags:
#FIRSTBEAT:0.000;
#LASTBEAT:125.000;
#SONGFILENAME:Songs/Fuck The Score Part I/Magical 8bit Tour [Dossar]/Magical 8bit Tour.sm;
#HASMUSIC:1;
#HASBANNER:1;
#MUSICLENGTH:26.435;
// end cache tags

//---------------dance-single - ----------------
#NOTES:
     dance-single:
     :
     Challenge:
     21:
     1.000,1.000,0.000,0.113,1.000,359.000,0.000,3.000,0.000,0.000:
1000
0100
0010
0001
1000
0010
0100
0001
,
0010
0000
0100
0000
1000
0000
0010
0000
0100
0000
0001
0000
0010
0000
0000
0100
0000
0000
0010
0000
0000
0001
0000
0000
,
1000
0010
0100
0001
0010
0100
1000
0001
0010
0100
0010
0001
,
1000
0010
0100
0001
0000
0010
0100
1000
,
0001
0100
0010
1000
0100
0000
0010
0001
,
0000
0000
0000
1000
0000
0000
0010
0000
0100
0000
0001
0000
0010
0000
0000
0100
0000
0000
1000
0000
0000
0001
0000
0000
,
0100
0010
1000
0100
0000
0010
0000
0001
,
0000
0000
0000
1000
0000
0000
0010
0000
0100
0000
0001
0000
0010
0000
0000
0100
0000
0000
0010
0000
0000
0001
0000
0000
,
0000
1000
0001
0010
0100
0010
0001
0010
,
0100
1000
0001
1000
0100
0010
0001
1000
,
0001
0100
0010
1000
0100
0010
0001
0010
0100
0010
0100
1000
,
0001
0100
0010
1000
0001
0010
0100
0010
,
0001
1000
0010
0100
0001
1000
0100
0010
,
0100
1000
0001
0100
0010
1000
0100
0010
,
0001
1000
0100
0010
0100
1000
0100
0010
0001
0010
0100
0010
,
0001
0000
0000
0000
1000
0010
1000
0010
0100
0001
1000
0001
0100
0010
1000
0001
,
0100
0001
1000
0010
1000
0001
0100
0010
1000
0001
0100
0001
1000
0010
0100
0001
,
1000
0001
0010
0100
1000
0001
0010
0100
0010
0001
1000
0100
1000
0001
0010
0100
,
0010
0001
1000
0100
0010
0001
1000
0100
1000
0001
0010
0100
2000
0000
0000
0000
,
3001
0100
0001
0100
0010
1000
0001
1000
0010
0100
0001
1000
0010
1000
0001
0100
,
0001
1000
0010
0100
0001
1000
0010
1000
0001
0100
0010
1000
0001
1000
0100
0010
,
0001
1000
0100
0010
0100
1000
0001
0010
0001
1000
0100
0010
0100
1000
0001
0010
,
0100
1000
0100
0010
0001
0010
0100
1000
0001
1000
0010
0100
,
0001
1000
0010
0100
0001
1000
0100
0010
,
0100
1000
0100
0010
0001
0010
0100
1000
0100
1000
0001
1000
,
0001
0100
0001
1000
0010
0100
0001
1000
0010
1000
0001
0100
0010
1000
0001
0100
,
0002
0000
0000
0000
0003
0000
1000
0010
0100
0001
1000
0001
0100
0010
1000
0001
,
0100
0001
1000
0010
1000
0001
0100
0010
1000
0001
0100
0001
1000
0010
0100
0001
,
1000
0001
0010
0100
1000
0001
0010
0100
0010
0001
0010
0100
1000
0001
0010
0100
,
0010
0001
1000
0100
0010
0100
1000
0100
0010
0001
1000
0100
1000
0001
0010
0100
,
1000
0001
0100
0001
1000
0010
0100
0001
1000
0001
1000
0010
0100
0001
1000
0001
,
0200
0300
0000
0000
;

//---------------dance-single - ----------------
#NOTES:
     dance-single:
     :
     Hard:
     18:
     1.000,1.000,0.000,0.113,1.000,341.000,0.000,3.000,0.000,0.000:
1000
0100
0010
0001
1000
0010
0100
0001
,
0010
0000
0100
0000
1000
0000
0010
0000
0100
0000
0001
0000
0010
0000
0000
0100
0000
0000
0010
0000
0000
0001
0000
0000
,
1000
0010
0100
0001
0010
0100
1000
0001
0010
0100
0010
0001
,
1000
0010
0100
0001
0000
0010
0100
1000
,
0001
0100
0010
1000
0100
0000
0010
0001
,
0000
0000
0000
1000
0000
0000
0010
0000
0100
0000
0001
0000
0010
0000
0000
0100
0000
0000
1000
0000
0000
0001
0000
0000
,
0100
0010
1000
0100
0000
0010
0000
0001
,
0000
0000
0000
1000
0000
0000
0010
0000
0100
0000
0001
0000
0010
0000
0000
0100
0000
0000
0010
0000
0000
0001
0000
0000
,
0000
1000
0001
0010
0100
0010
0001
0010
,
0100
1000
0001
1000
0100
0010
0001
1000
,
0001
0100
0010
1000
0100
0010
0001
0010
0100
0010
0100
1000
,
0001
0100
0010
1000
0001
0010
0100
0010
,
0001
1000
0010
0100
0001
1000
0100
0010
,
0100
1000
0001
0100
0010
1000
0100
0010
,
0001
1000
0100
0010
0100
1000
0100
0010
0001
0010
0100
0010
,
0001
0000
0000
0001
0100
0001
1000
0010
1000
0001
1000
0001
,
0100
0001
1000
0010
1000
0001
0100
0010
1000
0001
0100
0001
1000
0010
0100
0001
,
1000
0010
1000
0001
0100
0001
1000
0100
0010
0100
0010
0001
,
1000
0001
0010
0001
1000
0100
1000
0001
0010
0100
0010
0001
2000
0000
0000
0000
,
3001
0100
0001
0100
0010
1000
0001
1000
0010
0100
0001
1000
0010
1000
0001
0100
,
0001
1000
0001
1000
0100
1000
0100
0010
0100
0010
0001
0010
,
0001
1000
0100
0010
0100
1000
0001
0010
0001
1000
0100
0010
0100
1000
0001
0010
,
0100
1000
0100
0010
0001
0010
0100
1000
0001
1000
0010
0100
,
0001
1000
0010
0100
0001
1000
0100
0010
,
0100
1000
0100
0010
0001
0010
0100
1000
0100
1000
0001
1000
,
0001
0100
0001
1000
0010
0100
0001
1000
0010
1000
0001
0100
0010
1000
0001
0100
,
0002
0000
0000
0003
0000
1000
0100
0010
0100
1000
0001
1000
,
0001
0100
0010
1000
0001
1000
0010
0100
0001
1000
0001
0100
0010
1000
0001
0100
,
0001
1000
0001
0010
0100
0010
0100
1000
0100
1000
0001
1000
,
0001
0100
0010
1000
0001
1000
0010
0100
0001
1000
0001
0100
0010
1000
0010
0100
,
0001
1000
0010
1000
0001
0100
0010
1000
0001
1000
0001
0100
0010
1000
0001
1000
,
0020
0030
0000
0000
;
