#TITLE:58 Sec. & 200 BPM!!!;
#SUBTITLE:;
#ARTIST:Dj DMA;
#TITLETRANSLIT:;
#SUBTITLETRANSLIT:;
#ARTISTTRANSLIT:;
#CREDIT:;
#BANNER:58 Sec. & 200 BPM!!!.png;
#BACKGROUND:58 Sec. & 200 BPM!!!-bg.png;
#LYRICSPATH:;
#CDTITLE:djdma.png;
#MUSIC:58 Sec. & 200 BPM!!!.mp3;
#OFFSET:0.000;
#SAMPLESTART:30.000;
#SAMPLELENGTH:12.000;
#SELECTABLE:YES;
#BPMS:0.000=200.000;
#STOPS:;
#BGCHANGES:;
// cache tags:
#FIRSTBEAT:0.500;
#LASTBEAT:189.250;
#SONGFILENAME:Songs/new/58 Sec. & 200 BPM!!!/58 Sec. & 200 BPM!!!.sm;
#HASMUSIC:1;
#HASBANNER:1;
#MUSICLENGTH:58.861;
// end cache tags

//---------------dance-single - ----------------
#NOTES:
     dance-single:
     :
     Hard:
     9:
     0.568,0.681,0.187,0.289,0.000,206.000,11.000,17.000,0.000,0.000:
0000
2002
0000
0000
0000
0000
0000
0000
,
3003
0000
0010
0100
0010
0100
0010
0100
,
0010
0100
0010
0100
0010
0100
0010
0110
,
0000
1000
0000
1000
1000
0001
0000
0000
,
0000
1000
0010
1000
1010
0000
0000
0000
,
0000
0100
0001
0100
0000
0001
0100
0001
,
0100
0001
0100
0001
0100
0001
0100
0001
,
0000
0010
0100
0110
0000
0000
0000
0000
,
1000
0010
1000
0000
1010
0000
0000
0100
,
0001
0000
0100
0001
0100
0001
0100
0001
,
0100
0010
0100
0010
0100
0010
0100
0010
,
1000
0010
1000
0010
1000
0010
1000
0000
,
2002
0000
0000
0000
,
0000
0000
0000
3003
,
0000
0010
0100
0000
0001
0000
1000
0000
,
0010
0000
1000
0000
0000
0010
0100
0000
,
0000
0001
0100
0000
1000
0010
0001
1100
,
0000
0000
1000
0100
1000
0100
1000
0010
,
1000
0010
0100
0010
0100
0000
0010
0000
,
0100
0000
0001
0010
0100
0000
1000
0100
,
1000
0000
1000
0100
0110
1000
0010
1000
,
0010
0000
0100
0010
0100
0010
0100
0010
,
0001
0010
0001
0010
0000
1000
0100
1000
,
0000
0000
1100
0000
0100
0001
0000
0010
,
0100
0010
0100
0010
0100
0000
1000
0010
,
0100
0010
0100
0010
0001
0000
0000
0001
,
0010
0100
1000
0100
0010
0001
0000
0110
,
0000
1000
0100
0010
0100
0010
0100
0010
,
0100
0010
0100
0010
0100
0010
0000
0000
,
0000
0020
0000
0000
0030
0200
0000
0000
,
0000
0000
0000
0300
0001
0000
0010
0000
,
0200
0000
0000
0300
2000
0000
0000
3000
,
0020
0000
0030
0000
,
0002
0000
0203
0000
,
0000
0300
0010
1000
,
0002
0000
0000
0003
,
0000
0010
0000
1000
0000
0100
0000
0010
,
0002
0000
0023
0000
,
0000
0030
0100
1000
,
0020
0000
0000
0000
0030
0100
0000
0000
,
0002
0000
0000
0000
0003
0010
0000
0000
,
0200
0000
0000
0000
,
0000
0300
0000
0000
1000
0000
0010
0000
,
0001
0000
0010
0000
,
0100
0000
1000
0000
,
1000
0100
0010
0001
0010
0100
1000
0100
,
0010
0001
0100
0000
1000
0100
0010
0001
,
0100
1001
0000
0000
0000
0000
0000
0000
;

//---------------dance-single - ----------------
#NOTES:
     dance-single:
     :
     Challenge:
     11:
     0.772,1.000,0.119,0.068,1.000,307.000,7.000,4.000,0.000,0.000:
0000
0000
0000
0000
0000
0001
1000
0001
1000
0001
1000
0001
1000
0001
1000
0001
,
0000
0000
0000
0010
1000
0000
0010
0000
0100
0000
0010
0000
0100
0000
0010
0000
,
0100
0000
0010
0000
0001
0000
0010
0000
0000
0100
0000
1000
0100
0000
0000
0000
,
0000
1010
0000
1000
0000
0010
0000
0200
0000
0000
0000
0000
0000
0000
0000
0300
,
0000
0010
0000
0001
0000
0000
0010
0000
0000
2000
0000
0010
0000
0000
0000
3000
,
0000
0010
0000
1000
0000
0010
0000
0100
0000
0010
0000
0100
0000
0010
0000
0010
,
0001
0000
0000
0010
0000
0001
0000
0010
0000
0010
0000
0100
0100
0000
0100
0000
,
1000
0000
0100
0000
0000
0010
0000
0000
0020
0000
0000
0000
0000
0000
0000
0030
,
0000
0001
0000
0010
0000
0000
0100
0000
2000
0000
0000
0000
0000
3000
0000
0100
,
0000
0010
0000
0001
0000
0000
0000
0100
0000
1000
0000
0000
0100
0000
0010
0000
,
0001
0000
0100
0000
1000
0000
0100
0010
0000
0000
0001
0000
0100
0000
0010
0000
,
1000
0000
0000
0100
0000
0010
0000
0001
0000
0000
0100
0010
0000
0100
0000
0000
,
0000
0010
0000
0100
0000
0010
0000
0100
0000
0010
0000
1000
0000
0010
0000
1000
,
0000
0001
0000
0000
0000
0001
0000
1000
0000
0000
0001
0000
1000
0001
0000
0000
,
0000
0000
1000
0001
1000
0001
1000
0001
1000
0001
1000
0001
1000
0001
1000
0001
,
1000
0001
1000
0001
1000
0001
1000
0001
1000
0001
1000
0001
1000
0001
1000
0001
,
1000
0001
1000
0000
0100
0000
0010
0000
0000
0001
0000
0010
0000
0100
0000
1000
,
0000
0000
0000
1000
0000
0100
0000
0010
0000
0001
0000
0000
0010
0100
0000
1000
,
0000
0100
0000
0000
0010
0000
0010
0100
0000
0000
0010
0000
0000
0001
0000
0000
,
0001
0000
0000
0000
0010
0000
0001
0000
0000
0010
0000
0010
0000
0000
0010
0000
,
1000
0000
0000
0100
0000
0100
0000
0010
0000
0000
0001
0000
0010
0000
0100
0000
,
0000
0000
1000
0000
0000
0100
0000
1000
0010
0000
1000
0000
0000
0010
0000
0100
,
0000
0001
0000
0100
0000
0000
0000
0001
0100
0010
0000
0000
0000
0010
0000
1000
,
0000
0000
0000
0000
0000
1010
0000
0000
0101
0000
0000
0000
0000
0000
0000
0000
,
0100
0000
0010
0000
0100
0000
0010
0100
0000
0000
1000
0000
0000
1000
0000
0010
,
0000
0010
0000
0100
0000
0000
0001
0000
0000
0000
0001
0000
0000
0001
0000
0000
,
0010
1000
0010
1000
0010
0100
0001
0100
,
0001
0000
0000
0100
0001
0000
0000
0100
0000
0010
0000
1000
0000
0010
0000
1000
,
0000
0010
0000
1000
0000
0010
0000
1000
0000
0001
0000
0100
0000
0001
0000
0100
,
0000
0001
0000
0000
0000
0100
0000
0000
0000
0001
0000
0000
0000
0010
0000
0000
,
0000
1000
0000
0000
0000
0010
0000
0000
0000
0100
0000
0000
0000
0001
0000
0000
,
0000
0010
0000
0000
0000
1000
0000
0000
0000
0100
0000
0000
0000
0010
0000
0000
,
0000
0001
0000
0000
0010
0000
0000
0000
1000
0000
0000
0000
0100
0000
0000
0000
,
0010
0000
0000
0000
0001
0000
0000
0000
0010
0000
0000
0000
0000
1000
0000
0000
,
0000
0100
0000
0000
0000
0010
0000
0000
0000
0001
0000
0000
0010
0000
0000
0000
,
0100
0000
0000
0000
0010
0000
0000
0000
0000
1000
0000
0000
0010
0000
0000
0000
,
0100
0000
0001
0000
0100
0000
0001
0100
0000
0001
0000
1000
0010
0000
0000
0000
,
1000
0000
0000
0000
0000
0010
0000
0000
0000
0100
0000
0000
0010
0000
0000
0000
,
0100
0010
0100
0010
,
1000
0001
1000
0010
,
0100
0001
0100
0010
,
1000
0000
0100
0000
0000
0000
0010
0000
0000
0000
0001
0000
0000
0010
0000
0000
,
0000
0100
0000
0000
0000
1000
0000
0000
0000
0100
0000
0000
0000
0010
0000
0000
,
0000
0001
0000
0000
0000
0010
0000
0000
0000
1000
0000
0000
0000
0100
0000
0000
,
0000
0010
0000
0000
0000
0001
0000
0000
0000
0010
0000
0000
0000
1000
0000
0000
,
0000
0001
1000
0001
1000
0001
0000
1000
0010
0100
0000
0010
0100
0010
0000
1000
,
0010
0100
0000
0010
0000
1000
0001
1000
0000
0001
1000
0000
0001
1000
0000
0110
,
0000
1100
0000
0011
0000
1100
0000
0000
0000
0000
0000
0000
0000
0000
0000
0000
;

//---------------dance-single - ----------------
#NOTES:
     dance-single:
     :
     Medium:
     5:
     0.318,0.440,0.034,0.136,0.000,121.000,2.000,8.000,0.000,0.000:
0000
0000
0000
0000
,
0000
0010
1000
0001
,
0100
0000
0000
0010
0000
1000
0000
0010
,
0000
0020
0000
0000
0000
0000
0000
0030
,
0001
0000
0000
0001
0002
0000
0000
0000
,
0003
1000
0010
0100
,
0001
0010
1000
0100
,
0100
0100
0000
0200
0000
0000
0000
0300
,
0010
0010
0000
0010
0020
0000
0000
0030
,
0001
0010
1000
0100
,
0100
1000
0010
0000
0001
0000
0010
0000
,
0011
0000
0100
0000
0000
1000
0000
0010
,
0020
0000
0000
0000
,
0000
0000
0000
0030
,
0001
0000
1000
0000
,
0010
0000
0100
0000
,
0000
0100
0001
0000
0100
0000
0010
0000
,
0100
0000
0010
0000
0000
1000
0010
0000
,
0000
0100
0001
0000
0010
0000
0100
0000
,
1000
0100
0010
0001
,
0010
0100
0010
0100
,
0010
1000
0001
1000
,
0000
0010
1000
0000
0010
0000
0000
0100
,
0000
0001
0000
0002
0000
0000
0000
0003
,
0010
0010
0010
0000
0000
0000
0200
0000
,
0000
0000
0000
0000
0000
0300
0000
1000
,
1000
1000
1000
0000
0000
0002
0000
0000
,
0000
0000
0000
0000
,
0000
0000
0000
0000
0000
0003
0000
0000
,
0010
0000
0100
0000
,
0000
0000
0001
1000
,
0010
0000
0100
0000
,
0001
0000
0000
0000
,
0010
0000
1000
0000
,
0100
0000
0000
0000
0000
0010
0000
0000
,
0001
0000
1000
0000
,
0000
0100
0000
0000
0000
0000
0000
0000
,
0010
0000
0000
0000
,
0100
0000
0000
0000
0000
0001
0000
0000
,
0010
0000
0000
0000
0000
1000
0000
0000
,
0000
0100
0000
0000
0000
0010
0000
0000
,
0001
0000
0010
0000
,
1000
0000
0100
0000
,
0010
0000
0001
0000
,
0000
0010
0000
0000
0000
1000
0000
0000
,
1000
0001
1000
0010
,
0100
0000
0000
0010
0000
0100
0000
0100
,
0010
0101
0000
0000
0000
0000
0000
0000
;

//---------------dance-single - ----------------
#NOTES:
     dance-single:
     :
     Easy:
     4:
     0.282,0.360,0.119,0.255,0.000,94.000,7.000,15.000,0.000,0.000:
0000
0000
0000
0000
,
0000
0000
1001
0000
1010
0000
0100
0001
,
0010
0000
0000
0100
0000
0010
0000
1000
,
0000
0020
0000
0000
0000
0000
0000
0030
,
0002
0000
0000
0003
,
0000
1010
0101
0110
,
1000
0000
0000
0010
0000
0100
0000
0010
,
0000
0200
0000
0000
0000
0000
0000
0300
,
0020
0000
0030
0000
,
1010
0000
0101
0000
0000
0020
0000
0000
,
0030
2000
0000
0000
0000
0000
3000
0000
,
0020
0000
0000
0000
0000
0030
0000
0000
,
0001
0000
0010
0000
,
1000
0000
0000
0000
0000
0100
0000
0000
,
0010
0000
0000
0001
0010
0000
1000
0000
,
0100
0000
0000
0010
0001
0000
0010
0000
,
0000
2000
0000
0000
0000
0000
0000
3000
,
0000
0100
0000
0000
0020
0000
0000
0000
,
0031
0010
0100
1000
,
0200
0000
0000
0000
0000
0000
0000
0300
,
0000
0020
0000
0000
0000
0000
0000
0000
,
0030
0002
0000
0000
0000
0000
0003
0000
,
1000
0100
0010
0001
,
0010
0200
0000
0300
,
1000
0010
0100
0010
,
0100
0010
0001
0000
,
0100
1000
0010
1000
,
0020
0000
0000
0000
,
0000
0000
0000
0030
,
0100
0000
0000
0000
,
1000
0000
0000
0000
0000
0010
0000
0000
,
0001
0000
0000
0000
,
0100
0000
0000
0000
,
1000
0000
0000
0000
,
0010
0000
1000
0000
,
0100
0000
0000
0000
,
0020
0000
0000
0000
0000
0030
0000
0000
,
0001
0000
1000
0000
,
0010
0000
0000
0000
0000
0100
0000
0000
,
0000
0001
0000
0000
0000
0010
0000
0000
,
0000
1000
0000
0000
0000
0000
0000
0000
,
0100
0000
0000
0000
,
0000
0000
0010
0000
,
0001
0000
0000
0000
,
0000
1000
0000
0000
0000
0000
0000
0000
,
0100
0100
0100
0100
,
0100
0000
0100
0000
0000
0000
0000
0010
,
0010
0010
0000
0000
0000
0000
0000
0000
;
