#TITLE:String Interference;
#SUBTITLE:;
#ARTIST:Alzarus;
#TITLETRANSLIT:;
#SUBTITLETRANSLIT:;
#ARTISTTRANSLIT:;
#CREDIT:ChaosUnown;
#BANNER:string-bn.png;
#BACKGROUND:string.png;
#LYRICSPATH:;
#CDTITLE:ChaosU.png;
#MUSIC:string.ogg;
#OFFSET:0.023;
#SAMPLESTART:41.120;
#SAMPLELENGTH:11.000;
#SELECTABLE:YES;
#BPMS:0.000=140.000,64.000=70.000,80.000=140.000,136.000=70.000,140.000=140.000,204.000=70.000,219.250=35.000;
#STOPS:;
#BGCHANGES:;
// cache tags:
#FIRSTBEAT:8.000;
#LASTBEAT:220.063;
#SONGFILENAME:Songs/SSSC Pack 2/String Interference - [chaosunown]/string.sm;
#HASMUSIC:1;
#HASBANNER:1;
#MUSICLENGTH:112.441;
// end cache tags

//---------------dance-single - ChaosUnown----------------
#NOTES:
     dance-single:
     ChaosUnown:
     Challenge:
     11:
     0.743,0.807,0.711,0.000,0.747,505.000,80.000,0.000,22.000,0.000:



0000
0000
0000
0000
,
0000
0000
0000
0000
,
MMMM
0000
0000
0000
,
0000
0000
0000
0000
,
1001
0001
0010
0001
1010
0010
0100
0010
,
1001
0001
0100
0001
1100
0100
0010
0001
,
1000
0001
0010
0001
1010
0010
0100
0010
,
1001
0001
0100
0001
1100
0100
0010
0001
,
1001
1000
0100
0010
0001
1000
0010
0100
,
0001
1000
0100
0010
0001
1000
0010
0100
,
0001
1000
0100
0010
0001
1000
0010
0100
,
0001
1000
0010
1000
0100
1000
0010
0100
,
0001
0010
0100
0000
1000
0000
1000
0000
0001
0010
0100
0000
0010
0100
1000
0000
,
0001
1000
0100
0000
0010
0000
0010
0000
0001
1000
0100
0000
1000
0001
0100
0000
,
0001
0100
0010
0000
0100
0000
0100
0000
0001
0100
0010
0000
1000
0010
0100
0000
,
0001
0100
0010
0100
1000
0100
0010
1000
,
1001
0000
0000
0011
0000
1100
0000
1010
0110
0000
0000
0000
0000
0101
0000
0101
,
1001
0000
0000
1010
0000
0101
0000
0000
0000
0000
0000
0011
0000
0011
0000
0000
,
1100
0000
0000
1001
0000
1010
0000
0110
0101
0000
0000
0000
0000
1100
0000
1100
,
1010
0000
0000
0000
0000
0000
0000
0000
0000
0110
0000
0000
0000
0000
0000
1001
0000
0000
0000
0000
0000
0000
0000
0000
M000
M000
M000
0000
0000
0000
0000
0000
0000
0011
0000
0000
0000
0000
0000
0011
0000
0000
0000
0000
0000
0000
0000
0000
,
0001
0000
1000
0000
0100
0000
0010
0001
0100
0010
1000
0000
0100
0000
0010
0000
,
0001
0000
1000
0000
0100
0000
0010
0100
1000
0100
0010
0000
0001
0000
1000
0000
,
0001
0000
0100
0000
0010
0000
1000
0001
0100
0010
0100
0000
0001
0000
1000
0000
,
0001
0010
0100
0010
1000
0010
0100
0010
,
0001
0000
1000
0000
0010
0000
0100
0001
1000
0010
0100
0000
0001
0000
1000
0000
,
0001
0000
0100
0000
0010
0000
1000
0001
0010
0001
1000
0000
0010
0000
0100
0000
,
0001
0000
1000
0000
0100
0000
0010
0001
0100
0001
0010
0000
0001
0000
0100
0000
,
1000
0100
0010
0100
0001
0100
0010
1000
,
1001
0001
0010
0110
0100
1100
1000
1001
,
0011
0001
0100
0010
1000
1001
1000
1001
,
0101
0100
0001
1001
1000
1010
0010
0100
,
0001
1000
0010
0110
0100
0110
0010
1000
,
1001
0001
0010
0110
0100
1100
1000
1001
,
0011
0001
0100
0010
1000
1001
1000
1001
,
0101
0000
0000
0000
0000
0000
0000
0000
0000
0011
0000
0000
0000
0000
0000
1100
0000
0000
0000
0000
0000
0000
0000
0000
000M
000M
000M
0000
0000
0000
0000
0000
0000
1010
0000
0000
0000
0000
0000
0110
0000
0000
0000
0000
0000
0000
0000
0000
,
0001
1000
0100
0010
0001
1000
0010
0100
,
0001
1000
0100
0010
0001
1000
0010
0100
,
0001
1000
0100
0010
0001
1000
0010
0100
,
0001
1000
0010
1000
0100
1000
0010
0100
,
0010
1000
0001
1000
0010
1000
0001
1000
0010
1000
0001
1000
0010
1000
0001
1000
,
0010
0100
1000
0100
0010
0100
1000
0100
0010
0100
1000
0100
0010
0100
1000
0100
,
0001
0100
0010
0100
0001
0100
0010
0100
0001
0100
0010
0100
0001
0100
0010
0100
,
0001
1000
0100
1000
0001
1000
0100
1000
0001
1000
0100
1000
0001
1000
0100
1000
,
0001
0010
0100
1000
0010
0100
0001
0010
0100
1000
0001
0100
0010
1000
0010
0100
,
0001
1000
0100
0010
0001
1000
0100
0010
0100
1000
0001
0010
0100
1000
0001
0010
,
0100
0010
0001
1000
0100
0010
0001
1000
0010
0100
0001
0100
0010
1000
0001
0010
,
0100
1000
0001
1000
0100
0010
0001
1000
0001
0100
0010
1000
0001
1000
0010
0100
,
0001
1000
0100
0010
0001
1000
0010
0100
0001
1000
0100
0010
0001
1000
0001
0100
,
0010
1000
0001
0100
0010
1000
0001
0010
0100
1000
0100
0010
0001
1000
0100
1000
,
0001
0010
0100
1000
0001
0010
0001
1000
0010
0100
0001
1000
0010
0100
0001
1000
,
0100
0010
0001
1000
0100
0010
0001
1000
0010
0100
0001
0100
0010
1000
0001
0000
,
1001
0000
0000
0000
0000
0000
M000
M000
M000
M011
0000
0000
M000
M000
M000
0101
0000
M000
M000
0000
M000
0110
0000
0000
1001
0000
0000
0000
0000
0000
0000
0000
0000
0000
0000
0000
0000
0000
0000
1100
0000
0000
0000
0000
0000
1100
0000
0000
,
1001
0000
0000
0101
0000
1010
0000
0000
0000
0000
0000
0011
0000
0011
0000
0000
,
1001
0000
0000
1100
0000
1010
0000
0110
1001
0000
0000
0000
0000
0011
0000
0011
,
1001
0000
0000
0000
0000
0000
0000
0000
0000
0000
0000
0000
1010
0000
0000
0000
0000
0000
0000
0000
0101
0000
0000
0000
0000
0000
0000
0000
0000
0000
0000
0000
0000
0000
0000
0000
0000
0000
0000
0000
0000
0000
0000
0000
0110
0000
0000
0000
0000
0000
0000
0000
0110
0000
0000
0000
0000
0000
0000
0000
0000
00M0
0000
0000
,
0000
00M0
0000
0000
0000
0000
0000
0000
0000
0000
0000
0000
0000
0000
0000
0000
0000
0000
0000
0000
0000
0000
0000
0000
0000
0000
0000
0000
0000
0000
0000
0000
0000
0000
0000
0000
0000
0000
0000
0000
0000
0000
0000
0000
0000
0000
0000
0000
0000
0000
0000
0000
0000
0000
0000
0000
0000
0000
0000
0000
0000
0000
0000
0000
;
