#TITLE:My Selene;
#SUBTITLE:Reckoning Night (2004);
#ARTIST:Sonata Arctica;
#TITLETRANSLIT:;
#SUBTITLETRANSLIT:;
#ARTISTTRANSLIT:;
#CREDIT:SulferDragon;
#BANNER:My Selene-banner.png;
#BACKGROUND:My Selene-bg.png;
#LYRICSPATH:;
#CDTITLE:!SulferDragon.png;
#MUSIC:My Selene.mp3;
#OFFSET:-0.120;
#SAMPLESTART:63.720;
#SAMPLELENGTH:12.500;
#SELECTABLE:YES;
#BPMS:0.000=150.000;
#STOPS:;
#BGCHANGES:;
// cache tags:
#FIRSTBEAT:0.000;
#LASTBEAT:805.500;
#SONGFILENAME:Songs/Astronomic Metal Collection/My Selene (SulferDragon)/My Selene.sm;
#HASMUSIC:1;
#HASBANNER:1;
#MUSICLENGTH:328.628;
// end cache tags

//---------------dance-single - ----------------
#NOTES:
     dance-single:
     :
     Hard:
     12:
     1.000,1.000,1.000,0.456,1.000,2048.000,392.000,150.000,0.000,0.000:
0020
0000
0000
0000
0001
0000
0000
0000
0000
0000
0000
0030
0201
0000
0000
0000
0000
0000
0000
0000
0001
0000
0000
0300
0020
0000
0000
0000
0001
0000
0000
0030
,
2000
0000
0000
0000
0001
0000
0000
0000
0000
0000
0000
0000
0001
0000
0000
0000
0000
0000
0000
0000
0001
0000
0000
0000
0000
0000
0000
0000
0001
0000
0000
3000
,
0200
0000
0000
0000
0001
0000
0000
0000
0000
0000
0000
0300
0021
0000
0000
0000
0000
0000
0000
0000
0100
0000
0000
0030
0002
0000
0000
0000
0100
0000
0000
0003
,
2000
0000
0000
0000
0100
0000
0000
0000
0000
0000
0000
0000
0100
0000
0000
0000
0000
0000
0000
0000
0100
0000
0000
0000
0000
0000
0000
0000
0100
0000
0000
3000
,
0020
0000
0000
0000
0001
0000
0000
0000
0000
0000
0000
0000
0001
0000
0000
0030
0200
0000
0000
0000
0001
0000
0000
0000
0000
0000
0000
0000
0001
0000
0000
0300
,
2000
0000
0000
0000
0001
0000
0000
0000
0000
0000
0000
0000
0001
0000
0000
0000
0000
0000
0000
0000
0001
0000
0000
0000
0000
0000
0000
0000
0001
0000
0000
3000
,
0200
0000
0000
0000
0001
0000
0000
0000
0000
0000
0000
0300
0021
0000
0000
0000
0000
0000
0000
0000
0100
0000
0000
0030
0002
0000
0000
0000
0100
0000
0000
0003
,
2000
0000
0000
0000
0100
0000
0000
0000
0000
0000
0000
0000
0100
0000
0000
0000
0000
0000
0010
0000
0100
0000
0000
3000
0201
0000
0000
0300
0012
0000
0000
0003
,
0020
0000
0000
0000
0001
0000
0000
0000
0000
0000
0000
0030
0201
0000
0000
0000
0000
0000
0000
0000
0001
0000
0000
0300
0020
0000
0000
0000
0001
0000
0000
0030
,
2000
0000
0000
0000
0001
0000
0000
0000
0000
0000
0000
0000
0001
0000
0000
0000
0000
0000
0000
0000
0001
0000
0000
0000
0000
0000
0000
0000
0001
0000
0000
3000
,
0200
0000
0000
0000
0001
0000
0000
0000
0000
0000
0000
0300
0021
0000
0000
0000
0000
0000
0000
0000
0100
0000
0000
0030
0002
0000
0000
0000
0100
0000
0000
0003
,
2000
0000
0000
0000
0100
0000
0000
0000
0000
0000
0000
0000
0100
0000
0000
0000
0000
0000
0000
0000
0100
0000
0000
0000
0000
0000
0000
0000
0100
0000
0000
3000
,
0020
0000
0000
0000
0001
0000
0000
0000
0000
0000
0000
0000
0001
0000
0000
0030
0200
0000
0000
0000
0001
0000
0000
0000
0000
0000
0000
0000
0001
0000
0000
0300
,
2000
0000
0000
0000
0001
0000
0000
0000
0000
0000
0000
0000
0001
0000
0000
0000
0000
0000
0000
0000
0001
0000
0000
0000
0000
0000
0000
0000
0001
0000
0000
3000
,
0200
0000
0000
0000
0001
0000
0000
0000
0000
0000
0000
0300
0021
0000
0000
0000
0000
0000
0000
0000
0100
0000
0000
0030
0002
0000
0000
0000
0100
0000
0000
0003
,
2000
0000
0000
0000
0100
0000
0000
0000
0000
0000
0000
0000
0100
0000
0000
3000
0010
0000
0100
0000
0001
0000
1000
0000
0010
0000
0100
0000
0010
0000
0100
0000
,
0011
0000
1000
0001
1000
0001
0100
0000
0000
0000
0100
0010
0100
0010
1000
0000
,
0011
0000
1000
0001
1000
0001
0100
0000
0000
0000
0100
0010
2200
0000
3300
0000
,
0011
0000
1000
0001
1000
0001
0100
0000
0000
0000
0100
0010
0100
0010
1000
0000
,
0011
0000
0000
0000
0000
0000
0000
0000
0000
0000
0000
0000
0101
0000
0000
0000
0000
0000
0000
0000
0000
0000
0000
0000
1010
0000
0000
0000
0000
0000
0000
0000
2002
3003
0000
0000
0000
0000
0000
0000
0000
0000
0000
0000
0000
0000
0000
0000
0000
0000
0000
0000
0000
0000
0000
0000
0000
0000
0000
0000
0000
0000
0000
0000
,
1001
0100
1010
0101
0001
1010
0001
0110
,
1000
0100
1010
0101
0001
0010
1001
0100
,
1010
0100
1010
0101
0001
1010
0001
0110
,
1000
0101
1010
0011
0101
1010
0001
0110
,
1001
0100
1010
0011
1001
0110
0001
0110
,
1000
0101
1010
0001
0101
0010
1001
0110
,
1000
0100
0010
0001
0001
0010
0001
0100
,
1001
0011
0000
0101
0000
1100
0000
1010
,
1010
0010
0010
1000
0010
0010
0100
0010
,
0001
0010
0010
1000
0010
0010
0100
0010
,
0001
0010
0010
1000
0010
0010
0100
0010
,
0001
0010
0010
1000
0010
0010
1000
0010
,
0101
0100
0100
0001
0100
0100
0010
0100
,
1000
0100
0100
0001
0100
0100
0010
0100
,
1000
0100
0100
0001
0100
0010
0001
0000
,
1000
0100
0100
0001
1100
0010
0101
0000
,
0110
1001
0110
1001
0010
1100
0011
1100
,
0010
1001
0110
1001
0010
1000
0010
1100
,
0011
0100
1010
0100
1001
0010
0101
0010
0100
0010
1100
0010
1000
0001
1010
0001
,
0110
1000
0011
1100
0011
1100
0011
1100
0011
1000
0010
1000
0001
0100
0010
1000
,
0120
0000
0000
0000
0001
0000
0000
0000
0000
0000
0000
0030
0201
0000
0000
0000
0000
0000
0000
0000
0001
0000
0000
0300
0020
0000
0000
0000
0001
0000
0000
0030
,
2000
0000
0000
0000
0001
0000
0000
0000
0000
0000
0000
0000
0001
0000
0000
0000
0000
0000
0000
0000
3010
0000
0000
0000
0002
0000
0000
0000
0010
0000
0000
0003
,
0200
0000
0000
0000
0010
0000
0000
0000
0000
0000
0000
0300
0120
0000
0000
0000
0000
0000
0000
0000
0100
0000
0000
0030
0002
0000
0000
0000
0100
0000
0000
0003
,
2000
0100
0000
0100
0000
0100
3000
0100
,
0011
1000
0001
1000
0001
1000
0010
0000
0101
0010
0100
0010
1000
0001
0100
0001
,
1100
0000
0010
0100
0010
0100
0001
1000
0010
0100
0010
0100
0001
1000
0010
0000
,
0101
0010
0100
0010
0100
0010
1100
0001
0100
0001
0100
0001
1010
0100
0010
0000
,
0101
1010
0101
1010
0101
0010
1100
0011
1100
0011
1100
0011
1100
0010
1000
0001
,
1020
0000
0000
0000
0001
0000
0000
0000
0000
0000
0000
0030
0201
0000
0000
0000
0000
0000
0000
0000
0001
0000
0000
0300
0020
0000
0000
0000
0001
0000
0000
0030
,
2000
0000
0000
0000
0001
0000
0000
0000
0000
0000
0000
0000
0001
0000
0000
0000
0000
0000
0000
0000
3010
0000
0000
0000
0002
0000
0000
0000
0010
0000
0000
0003
,
0200
0000
0000
0000
0010
0000
0000
0000
0000
0000
0000
0300
0120
0000
0000
0000
0000
0000
0000
0000
0100
0000
0000
0030
0002
0000
0000
0000
0100
0000
0000
0003
,
2000
0100
0000
0100
0000
0100
3000
0100
,
1001
0100
0001
0100
0001
0100
0010
0000
0101
0010
0100
0010
1000
0001
0110
0001
,
1100
0000
0010
1000
0010
1000
0001
0100
0010
1000
0010
1000
0101
0010
1001
0000
,
1010
0100
0010
1100
0010
0100
0011
1000
0001
1000
0001
1000
0101
0010
1000
0000
,
0010
1000
0010
1000
0010
1000
0011
0000
1100
0001
1010
0001
1000
0100
0010
0001
,
1010
0000
0001
1000
0001
1000
0010
0000
0000
0000
0010
0100
0010
0100
0001
0000
,
1100
0000
0001
1000
0001
1000
0010
0000
0000
0000
0010
0100
0022
0000
0033
0000
,
1100
0000
0001
1000
0001
1000
0010
0000
0000
0000
0010
0100
0010
0100
0001
0000
,
1100
0000
0000
0000
0000
0000
0000
0000
0000
0000
0000
0000
1010
0000
0000
0000
0000
0000
0000
0000
0000
0000
0000
0000
0101
0000
0000
0000
0000
0000
0000
0000
2002
3003
0000
0000
0000
0000
0000
0000
0000
0000
0000
0000
0000
0000
0000
0000
0000
0000
0000
0000
0000
0000
0000
0000
0000
0000
0000
0000
0000
0000
0000
0000
,
1001
0010
0101
1010
1000
0101
1000
0110
,
0001
0010
0101
1010
1000
0100
1000
0010
,
1001
0010
0101
1010
1000
0101
1000
0110
,
0001
0010
0101
1000
1010
0101
1000
0110
,
1001
0010
0100
1010
1001
0100
1001
0110
,
0001
0010
0101
1010
1000
0100
1001
0110
,
0001
0010
0100
1000
1000
0100
1000
0010
,
1001
1100
0000
1010
0000
0011
0000
0101
,
0101
0001
0001
0010
0001
0001
1000
0001
,
0100
0001
0001
0010
0001
0001
1000
0001
,
0100
0001
0001
0010
0001
0001
1000
0001
,
0100
0001
0001
0010
0001
0001
0010
0001
,
1100
1000
1000
0100
1000
1000
0001
1000
,
0010
1000
1000
0100
1000
1000
0001
1000
,
0010
1000
1000
0100
1000
0001
0100
0000
,
0010
1000
1000
0100
1000
0001
0100
0000
,
0110
1001
0110
1001
0100
0011
0100
1010
,
0100
1001
0110
1001
0100
0001
0100
0011
,
1100
0010
0101
0010
1001
0100
1010
0100
0010
0100
0011
0100
1001
0010
0101
1000
,
0110
0001
1100
0011
1100
0011
1100
0011
1100
0001
0100
0001
1000
0010
0100
0001
,
0210
0000
0000
0000
1000
0000
0000
0000
0000
0000
0000
0300
1020
0000
0000
0000
0000
0000
0000
0000
1000
0000
0000
0030
0200
0000
0000
0000
1000
0000
0000
0300
,
0002
0000
0000
0000
1000
0000
0000
0000
0000
0000
0000
0000
1000
0000
0000
0000
0000
0000
0000
0000
0103
0000
0000
0000
2000
0000
0000
0000
0100
0000
0000
3000
,
0020
0000
0000
0000
0100
0000
0000
0000
0000
0000
0000
0030
0210
0000
0000
0000
0000
0000
0000
0000
0010
0000
0000
0300
2000
0000
0000
0000
0010
0000
0000
3000
,
0002
0010
0000
0010
0000
0010
0003
0010
,
1100
0001
1000
0001
1000
0001
1010
0000
0101
1000
0001
1000
0010
0100
0011
0100
,
1010
0000
0001
0100
0001
0100
0010
1000
0001
0100
0001
0100
0011
1000
0001
0000
,
1010
0100
1001
0100
1000
0100
1010
0001
1000
0001
1000
0001
1100
0010
0100
0000
,
1010
0101
1010
0101
1010
0100
0011
1100
0011
1100
0011
1100
0011
0100
0001
1000
,
0201
0000
0000
0000
1000
0000
0000
0300
0002
0000
0000
0003
1020
0000
0000
0000
0000
0000
0000
0000
1000
0000
0000
0030
0200
0000
0000
0000
1000
0000
0000
0300
,
0002
1000
0000
1000
0000
0100
0003
0100
,
2000
0000
0000
3000
0021
0000
0000
0000
0000
0000
0000
0030
0210
0000
0000
0000
0000
0000
0000
0000
0010
0000
0000
0300
2000
0000
0000
0000
0010
0000
0000
3000
,
0002
0010
0000
0010
0000
0010
0003
0110
,
1001
0010
1000
0010
1000
0010
0101
0000
1010
0100
0010
0100
0001
0010
1100
0010
,
0101
0000
1000
0001
1000
0001
0100
0010
1000
0001
1000
0001
0100
0010
1000
0000
,
0110
0001
1010
0001
0010
0001
0110
0001
0100
0001
0100
0001
1010
0100
0001
0000
,
0110
1000
0010
1000
0010
1000
0001
0000
0100
0010
0100
0010
0100
0011
1100
0011
,
2100
0001
0000
0001
0000
0001
0000
0001
,
3000
0000
0001
0000
0000
0000
0001
0000
1100
0010
1000
0100
1001
0010
0001
0100
,
0021
1000
0000
1000
0000
1000
0000
1030
,
0200
0000
0000
0000
0010
0000
0000
0000
0000
0000
0000
0000
0010
0000
0000
0300
2000
0000
0000
0000
0010
0000
0000
0000
0000
0000
0000
0000
0010
0000
0000
3000
,
0102
1000
0000
1000
0000
1000
0000
1003
,
0020
0000
0000
0000
0001
0000
0000
0000
0000
0000
0000
0000
0001
0000
0000
0030
0200
0000
0000
0000
0001
0000
0000
0000
0000
0000
0000
0000
0001
0000
0000
0300
,
1010
0100
0010
0100
0010
0100
0011
1000
0001
0100
0010
0100
1010
0001
0010
0001
,
1100
0010
1000
0010
0100
0010
0101
0010
1000
0001
1000
0001
1100
0010
0100
0001
,
1010
0100
0010
0001
0100
0010
1100
0010
1000
0001
0010
0001
1010
0100
1000
0001
,
1100
0001
1000
0010
0100
0010
0101
0010
1100
0001
1000
0100
1001
0010
0001
1000
,
0021
1000
0000
1000
0000
1000
0000
1030
,
0200
0000
0000
0000
0010
0000
0000
0000
0000
0000
0000
0000
0010
0000
0000
0300
2000
0000
0000
0000
0010
0000
0000
0000
0000
0000
0000
0000
0010
0000
0000
3000
,
0102
0000
0000
0000
1000
0000
0000
0000
0000
0000
0000
0000
1000
0000
0000
0003
0002
0000
0000
0000
1000
0000
0000
0000
0000
0000
0000
0000
1000
0000
0000
0003
,
0020
0000
0000
0000
0001
0000
0000
0000
0000
0000
0000
0000
0001
0000
0000
0030
0200
0000
0000
0000
0001
0000
0000
0000
0000
0000
0000
0000
0001
0000
0000
0300
,
1010
0100
0010
0100
0010
0100
0011
1000
0001
0100
0010
0100
1010
0001
0010
0001
,
1100
0010
1000
0010
0100
0010
0101
0010
1000
0001
1000
0001
1100
0010
0100
0001
,
1010
0100
0010
0100
0010
0001
1000
0100
0001
1000
0010
0001
0100
0010
0001
1000
,
0010
0000
0100
0000
0010
0000
0001
0000
1010
0101
0010
1100
0011
1100
0011
1100
,
0021
0000
0000
0000
0100
0000
0000
0000
0000
0000
0000
0030
0201
0000
0000
0000
0000
0000
0000
0000
0001
0000
0000
0300
0020
0000
0000
0000
0001
0000
0000
0030
,
2000
0000
0000
0000
0001
0000
0000
0000
0000
0000
0000
0000
0001
0000
0000
0000
0000
0000
0000
0000
0001
0000
0000
0000
0000
0000
0000
0000
0100
0000
0000
3000
,
0002
0000
0000
0000
0100
0000
0000
0000
0000
0000
0000
0003
0120
0000
0000
0000
0000
0000
0000
0000
0100
0000
0000
0030
0002
0000
0000
0000
0010
0000
0000
0003
,
0200
0000
0000
0000
0010
0000
0000
0000
0000
0000
0000
0000
0010
0000
0000
0000
0000
0000
0000
0000
0010
0000
0000
0000
0000
0000
0000
0000
0010
0000
0000
0300
,
1000
0100
0010
0100
0010
0001
1000
0100
0010
1000
0100
0010
0100
0010
0001
1000
0100
0001
1000
0010
0001
0100
0010
0001
,
0100
0010
1000
0100
0010
0100
0010
0001
0100
0010
0001
1000
0010
0001
0100
1000
0100
0001
0010
0100
1000
0010
0001
0100
,
0010
0001
1000
0100
0010
0100
0010
0001
1000
0100
0010
0001
0100
0010
0001
1000
0100
0010
1000
0100
0001
1000
0100
0010
,
0100
0010
0001
0100
0010
1000
0100
0010
1000
0100
0010
0001
1000
0010
0100
0001
1000
0100
0010
0100
0010
0001
1000
0010
,
0001
0100
0000
0000
1000
0000
0001
0100
0000
0001
0100
0000
1000
0000
0000
0000
,
0001
0100
0000
0000
1000
0000
0001
0100
0000
0001
0100
0000
1000
0000
0000
0000
,
0001
0100
0000
0000
1000
0000
0001
0100
0000
0001
0100
0000
1000
0000
0000
0000
,
0001
0100
0000
0000
1000
0000
0001
0100
0000
0001
0100
0000
1000
0000
0000
0000
,
1001
0100
0000
0000
1000
0000
0001
0100
0000
0001
0100
0000
1000
0000
0000
0000
,
0001
0100
0000
0000
1000
0000
0001
0100
0000
0001
0100
0000
1000
0000
0000
0000
,
0001
0100
0000
0000
1000
0000
0001
0100
0000
0001
0100
0000
1000
0000
0000
0000
,
0001
0100
0000
0000
1000
0000
0001
0100
0000
0001
0100
0000
1010
0000
0000
0000
,
0011
0100
0000
0000
1000
0000
0001
0100
0000
0001
0100
0000
1000
0000
0000
0000
,
0001
0100
0000
0000
1000
0000
0001
0100
0000
0001
0100
0000
1000
0000
0000
0000
,
0001
0100
0000
0000
1000
0000
0001
0100
0000
0001
0100
0000
1000
0000
0000
0000
,
0001
0100
0000
0000
1000
0000
0001
0100
0000
0001
0100
0010
0100
0010
1000
0100
,
1001
0010
0100
0001
1000
0001
1000
0000
0001
0100
0001
0000
1100
0010
0001
0000
,
1000
0010
0100
0001
1000
0001
1000
0000
0001
0100
0001
0000
0100
0010
0100
0000
,
1000
0100
0010
0001
1000
0001
1000
0000
0001
0100
0001
0000
1100
0010
0001
0000
,
1000
0010
0100
0001
1000
0001
1000
0000
0001
0100
0001
0000
2200
0000
3300
0000
,
1000
0100
0010
0001
1000
0010
0010
0001
0100
0010
0010
0001
1000
0010
0100
0001
,
1000
0100
0010
0001
1000
0010
0001
0100
0010
0001
1000
0010
0001
0100
0010
0001
,
0100
0010
1000
0100
0001
1000
0010
0001
0100
0010
0001
1000
0010
0001
1000
0010
,
0100
0010
0001
1000
0100
0001
1000
0010
0001
0100
0010
0001
1100
0010
0001
0100
,
1001
0010
0010
0010
0010
0010
0001
0010
0100
0010
0010
0010
0010
0010
0100
0010
,
1000
0010
0010
0010
0001
0010
0010
0010
0100
0010
0010
0010
1000
0010
0010
0010
,
0200
0000
0000
0000
0000
0000
0000
0000
0000
0000
0000
0000
0000
0000
0000
0000
0000
0000
0000
0000
0000
0000
0000
0000
0000
0000
0000
0000
0000
0000
0000
0000
0000
0000
0000
0000
0000
0000
0000
0000
0000
0000
0000
0000
0000
0000
0000
0000
0000
0000
0000
0000
0000
0000
0000
0000
0000
0000
0000
0000
0000
0000
0000
0000
0000
0000
0000
0000
0000
0000
0000
0000
0302
0000
0000
0000
0000
0000
0000
0000
0000
0000
0000
0000
0000
0000
0000
0000
0000
0000
0000
0000
0000
0000
0000
0000
0000
0000
0000
0000
0000
0000
0000
0000
0000
0000
0000
0000
0000
0000
0000
0000
0000
0000
0000
0000
0000
0000
0000
0000
0023
0000
0000
0000
0000
0000
0000
0000
0000
0000
0000
0000
0000
0000
0000
0000
0000
0000
0000
0000
0030
0000
0000
0000
0010
0000
0000
0000
0000
0000
0000
0000
0000
0000
0000
0000
1000
0000
0000
0000
0000
0000
0001
0000
0000
0000
0000
0000
0100
0000
0000
0000
0000
0000
0010
0000
0000
0000
0000
0000
1000
0000
0000
0000
0000
0000
0000
0000
0000
0000
0000
0000
,
0100
0000
0000
0000
0000
0000
0000
0000
0000
0000
0000
0000
0000
0000
0000
0000
0000
0000
0000
0000
0001
0000
0000
0000
0000
0000
0000
0000
0000
0000
0000
0000
0010
0000
0000
0000
0000
0000
0000
0000
0000
0000
0000
0000
0000
0000
0000
0000
0001
0000
0000
0000
0000
0000
0000
0000
0100
0000
0000
0000
0000
0000
0000
0000
0000
0000
0000
0000
0000
0000
0000
0000
0000
0000
0000
0000
0000
0000
0000
0000
2000
0000
0000
0000
0000
0000
0000
0000
0000
0000
0000
0000
0000
0000
0000
0000
0000
0000
0000
0000
0000
0000
0000
0000
0000
0000
0000
0000
0000
0000
0000
0000
0000
0000
0000
0000
0000
0000
0000
0000
0000
0000
0000
0000
0000
0000
0000
0000
0000
0000
0000
0000
0000
0000
0000
0000
0000
0000
0000
0000
0000
0000
0000
0000
0000
0000
0000
0000
0000
0000
0000
0000
0000
0000
0000
0000
0000
0000
0000
0000
0000
0000
0000
0000
0000
0000
0000
0000
0000
0000
0000
0000
0000
0000
0000
0000
0000
0000
0000
0000
0000
0000
0000
0000
0000
0000
3000
0000
0000
0000
0000
0000
,
0010
0100
1000
0100
0001
0010
0100
0001
0010
0100
1000
0100
0001
0010
0100
1000
,
0020
0000
0000
0000
0000
0000
0000
0000
0030
0200
0000
0000
0000
0000
0000
0000
0000
0300
0001
0000
0100
0000
0010
0000
2000
0000
0000
0000
0000
0000
0000
0000
0000
0000
0000
0000
3002
0000
0000
0000
0000
0000
0000
0000
0000
0000
0000
0000
,
0103
1000
0100
0010
0001
1000
0010
0100
0001
0010
1000
0001
0100
1000
0001
0100
,
0020
0000
0000
0030
,
0101
1000
0010
0100
1000
0010
0100
0001
0010
0100
0001
0010
0100
0010
0100
1000
,
0001
1000
0010
0100
1000
0001
0010
0100
0001
0100
0010
0100
0011
0100
1000
0010
,
0001
1000
0010
0100
1000
0010
0100
0001
0010
0100
0001
0010
0100
0010
0100
1000
,
0001
1000
0010
0100
1000
0001
0100
0010
0001
0010
0100
0010
1001
0010
0100
0010
,
0001
1000
0010
0100
1000
0010
0100
0001
0010
0100
0001
0010
0100
0010
0100
1000
,
0001
1000
0010
0100
1000
0001
0010
0100
0001
0100
0010
0100
0011
0100
1000
0010
,
0001
1000
0010
0100
1000
0010
0100
0001
0010
0100
0001
0010
0100
0010
0100
1000
,
0001
1000
0100
0010
0100
0010
0001
1000
0100
0001
1000
0010
0001
1000
0010
0100
0010
0100
0001
1000
0100
0010
0100
0010
,
1001
0100
1010
0100
1001
0010
0101
0010
0100
0001
1100
0001
1000
0001
1100
0010
,
0101
0010
1000
0010
1001
0010
0101
1000
0001
1000
0001
0100
0010
0100
0010
1000
,
0011
0100
1010
0100
1001
0010
0101
0010
0100
0010
1100
0010
1001
0100
1010
0001
,
0110
1000
0011
1100
0011
1100
0011
1100
0011
1000
0010
1000
0001
0100
0010
1000
,
0120
0000
0000
0000
0001
0000
0000
0000
0000
0000
0000
0030
0201
0000
0000
0000
0000
0000
0000
0000
0001
0000
0000
0300
0020
0000
0000
0000
0001
0000
0000
0030
,
2000
0000
0000
0000
0001
0000
0000
0000
0000
0000
0000
0000
0001
0000
0000
0000
0000
0000
0000
0000
3010
0000
0000
0000
0002
0000
0000
0000
0010
0000
0000
0003
,
0200
0000
0000
0000
0010
0000
0000
0000
0000
0000
0000
0300
0120
0000
0000
0000
0000
0000
0000
0000
0100
0000
0000
0030
0002
0000
0000
0000
0100
0000
0000
0003
,
2000
0100
0000
0100
0000
0100
3000
0100
,
0011
1000
0001
1000
0001
1000
0010
0000
1100
0010
1000
0010
0100
0001
1000
0001
,
1010
0000
0100
0010
0100
0010
1000
0001
0100
0010
0100
0010
1000
0001
0100
0000
,
0011
0100
0010
0100
0010
0100
1010
0001
0010
0001
0010
0001
0110
1000
0010
0000
,
0101
1000
0100
1000
0100
1000
0001
0000
1100
0011
1100
0010
0101
0010
1001
0100
,
1020
0000
0000
0000
0001
0000
0000
0000
0000
0000
0000
0030
0201
0000
0000
0000
0000
0000
0000
0000
0001
0000
0000
0300
0020
0000
0000
0000
0001
0000
0000
0030
,
2000
0000
0000
0000
0001
0000
0000
0000
0000
0000
0000
0000
0001
0000
0000
0000
0000
0000
0000
0000
3010
0000
0000
0000
0002
0000
0000
0000
0010
0000
0000
0003
,
0200
0000
0000
0000
0010
0000
0000
0000
0000
0000
0000
0300
0120
0000
0000
0000
0000
0000
0000
0000
0100
0000
0000
0030
0002
0000
0000
0000
0100
0000
0000
0003
,
2000
0100
0000
0100
0000
0100
3000
0100
,
1001
0100
0001
0100
0001
0100
0011
0000
0101
0010
0100
0010
1000
0001
0110
0001
,
1100
0000
0001
0100
0001
0100
0010
1000
0001
0100
0001
0100
0011
1000
0101
0000
,
1001
0010
1000
0110
1000
0010
1001
0100
0001
0100
0001
0100
0011
1000
0010
0000
,
0101
0010
0100
0010
0100
0010
1000
0000
0101
1010
0100
0000
0101
1010
0101
1000
,
0012
0000
0000
0000
1000
0000
0000
0000
0000
0000
0000
0003
1020
0000
0000
0000
0000
0000
0000
0000
1000
0000
0000
0030
0002
0000
0000
0000
1000
0000
0000
0003
,
0200
1000
0000
1000
0000
1000
0300
1000
,
0020
0000
0000
0000
1000
0000
0000
0000
0000
0000
0000
0030
1002
0000
0000
0000
0000
0000
0000
0000
1000
0000
0000
0003
0020
0000
0000
0000
0100
0000
0000
0030
,
2000
0100
0000
0100
0000
0100
3000
0100
,
0011
1000
0001
1000
0001
1000
0010
0000
1100
0010
1000
0010
0100
0001
1010
0001
,
0110
0000
1000
0001
1000
0001
0100
0010
1000
0001
1000
0001
0100
0010
1000
0000
,
0011
0100
0010
0100
1010
0100
0011
1000
0010
1000
0010
1000
0110
0001
0100
0000
,
0011
1000
0001
1000
0001
1000
0010
0000
1100
0010
0100
0001
0110
1000
0010
0100
,
0012
0000
0000
0000
1000
0000
0000
0000
0000
0000
0000
0003
1020
0000
0000
0000
0000
0000
0000
0000
1000
0000
0000
0030
0002
0000
0000
0000
1000
0000
0000
0003
,
0200
1000
0000
1000
0000
1000
0300
1000
,
0020
0000
0000
0000
1000
0000
0000
0000
0000
0000
0000
0030
1002
0000
0000
0000
0000
0000
0000
0000
1000
0000
0000
0003
0020
0000
0000
0000
0100
0000
0000
0030
,
2000
0100
0000
0100
0000
0100
3000
0101
,
1010
0100
0010
0100
0011
0100
1001
0000
0100
0010
0100
0010
1100
0001
1000
0001
,
1010
0000
0100
0010
0100
0010
1000
0001
0100
0010
0100
0010
1000
0001
0100
0000
,
1001
0010
1000
0010
1001
0010
0101
1000
0001
1000
0001
1000
0011
0100
0010
0000
,
1100
0001
0100
0001
0100
0001
1000
0000
0101
0010
0100
0001
1100
0010
1000
0100
,
1010
0000
0001
1000
0001
1000
0010
0000
1000
0010
1000
0000
0001
1000
0001
0000
,
0100
0000
0010
0100
0000
0001
0100
0000
0010
0100
0010
0000
2200
0000
3300
0000
,
0011
0000
1000
0001
1000
0001
0100
0000
0001
0100
0001
0000
1000
0001
1000
0000
,
0010
0000
0100
0010
0000
1000
0010
0000
0011
1100
0011
1100
0022
0000
0033
0000
,
1100
0000
0001
1000
0001
1000
0010
0000
1000
0010
1000
0000
0001
1000
0001
0000
,
0100
0000
0010
0100
0000
0001
0100
0000
0010
0100
0010
0000
2200
0000
3300
0000
,
0011
0000
0110
1001
0110
1001
0110
0000
1100
0011
1100
0000
0011
1100
0011
0000
,
1001
0000
0101
1010
0101
1010
0101
0000
0000
0000
0000
0000
0000
0000
0000
0000
;
