#TITLE:Music Of The Primes;
#SUBTITLE:;
#ARTIST:Cube Hard;
#TITLETRANSLIT:;
#SUBTITLETRANSLIT:;
#ARTISTTRANSLIT:;
#CREDIT:;
#BANNER:motp.banner.jpg;
#BACKGROUND:motp.bg.jpg;
#LYRICSPATH:;
#CDTITLE:CDTITLE.jpg;
#MUSIC:Music Of The Primes - Cube Hard.mp3;
#OFFSET:-0.080;
#SAMPLESTART:100.000;
#SAMPLELENGTH:12.000;
#SELECTABLE:YES;
#BPMS:0.000=175.520;
#STOPS:;
#BGCHANGES:;
// cache tags:
#FIRSTBEAT:0.000;
#LASTBEAT:481.000;
#SONGFILENAME:Songs/Definitive Keyboard Megapack/Music Of The Primes - Cube Hard(Leone510)/Music Of The Primes - Cube Hard.sm;
#HASMUSIC:1;
#HASBANNER:1;
#MUSICLENGTH:174.968;
// end cache tags

//---------------dance-single - ----------------
#NOTES:
     dance-single:
     :
     Hard:
     12:
     1.000,1.000,0.600,0.526,1.000,1146.000,105.000,92.000,0.000,15.000:
2001
0000
0000
0000
,
0000
0000
0000
0000
,
0000
0000
0000
0000
,
0000
0000
0000
0000
,
0000
0000
0000
0000
,
0000
0000
0000
0000
,
0000
0000
0000
0000
,
0000
0000
0000
0000
,
3020
0000
0000
0000
,
0000
0000
0230
0302
,
2003
0000
0000
3000
0000
0000
0000
0000
,
0000
0000
0000
0000
,
0200
0000
0000
0000
,
0000
0000
0302
0000
,
2003
0000
0000
3000
0000
0000
0000
0000
,
0000
0000
0200
0302
,
1023
0000
0000
0000
,
0000
0030
0200
0320
,
0230
0000
0000
0000
0000
0300
0000
0000
,
0000
0000
0000
0000
,
0002
0000
0000
0000
,
0000
0000
2003
3002
,
0203
0000
0000
0000
,
0000
0000
0000
0000
0010
1000
0010
0001
0010
0001
0010
1000
0010
1000
0001
1000
,
0320
0100
0001
0100
1000
0100
0001
1000
,
0001
0100
1000
0001
0230
0000
2300
0000
,
3002
0100
1003
0010
0001
0100
0010
1000
,
0010
0100
0001
0100
1000
0010
0100
0001
,
0200
1000
0010
0001
1000
0010
0001
0010
,
0001
1000
0010
1000
0320
0001
0100
1000
,
0032
0010
1000
0100
0010
1000
0000
0100
0010
0000
0100
0010
0000
0100
1000
0000
,
0100
0010
0000
0010
1000
0000
1000
0100
0000
0100
0010
0000
0010
0000
1100
0000
,
1013
0001
0010
1000
0010
0100
0000
0100
1000
0000
0010
1000
0000
0010
0100
0000
,
0100
1000
0001
0010
0001
0100
0000
0010
0001
0100
0000
1000
0001
0000
0020
0100
,
0030
0100
0010
0001
0100
0010
0000
0010
1100
0000
0101
0000
0010
0001
0000
0010
,
1100
0000
0100
0001
0000
0100
0001
0000
1000
0000
0110
1000
0010
1000
0101
0000
,
1001
0000
0100
0010
0000
0001
0010
0000
0010
1000
0000
0100
1000
0000
0010
0100
,
0000
0100
0010
0001
0100
0001
0000
0100
1000
0000
0000
0011
0000
0000
0101
0000
,
0000
0010
0100
1000
0010
0100
0000
0100
0010
0000
0010
1000
0000
0100
0001
0000
,
0100
0010
0001
0010
0100
0010
1000
0100
0010
0001
0100
0010
1000
0100
0010
0001
,
1010
0000
0100
0010
0001
0100
0010
0000
0100
0000
0100
0010
0001
1000
0010
0000
,
0100
0000
0100
0010
0001
0100
0010
0000
0100
0000
0100
0010
0001
1000
0010
0000
,
0100
0000
0100
0010
0001
0100
0010
0000
0100
0000
0100
0010
0001
1000
0010
0000
,
0100
0000
0100
0010
0001
0100
0010
0000
0100
0000
0100
0010
0001
1000
0011
0000
,
0110
0000
0100
1000
0100
0010
0001
0010
0100
0010
1000
0100
0010
0001
0100
0010
,
0001
0010
0100
1000
0100
0010
0001
0010
0100
0010
1000
0100
0010
0001
0100
0010
,
0202
0000
0000
0000
0000
0000
0000
0303
0220
0000
0000
0000
0000
0000
0000
0330
2002
0000
0000
0000
0000
0000
0000
3003
2020
0000
0000
0000
0000
0000
0000
3030
,
0220
0000
0000
0000
0000
0000
0000
0330
0022
0000
0000
0000
0000
0000
0000
0033
2020
0000
0000
0000
0000
0000
0000
3030
2002
0000
0000
0000
0000
0000
0000
3003
,
0101
0010
0100
1000
0010
0100
0000
0100
0000
0010
0001
0010
0100
0010
0000
0010
,
0000
0100
1000
0010
0100
0001
0000
0001
0000
0010
0100
1000
0010
0000
0101
1000
,
0202
0000
0000
0000
0000
0000
0000
0303
0220
0000
0000
0000
0000
0000
0000
0330
2002
0000
0000
0000
0000
0000
0000
3003
2020
0000
0000
0000
0000
0000
0000
3030
,
0220
0000
0000
0000
0000
0000
0000
0330
0022
0000
0000
0000
0000
0000
0000
0033
2020
0000
0000
0000
0000
0000
0000
3030
2002
0000
0000
0000
0000
0000
0000
3003
,
0100
0010
0001
0010
0100
0001
0100
0001
0010
0100
1000
0010
0100
0010
0001
0010
,
0100
0001
0100
0001
0010
0100
1000
0010
0100
0010
0001
0010
0100
0001
0100
0001
,
1020
1000
0231
0010
2301
0100
3210
0001
,
1320
0100
0132
1000
0123
0001
1230
0010
,
1310
0000
0000
0001
0000
0000
0010
0000
0000
0100
0000
0000
1000
0000
0000
0010
0000
0000
0100
0000
1000
0000
0010
0000
0100
0000
0000
0010
0000
0000
0001
0000
0000
0100
0000
0000
0010
0000
0100
0000
1000
0000
0010
0000
0000
0100
0000
0000
,
0010
0000
0000
1000
0000
0000
0010
0000
0000
1000
0000
0000
0100
0000
0001
0000
0010
0000
0100
0000
0000
0010
0000
0000
1000
0000
0000
0010
0000
0000
0100
0000
0000
0010
0000
0000
1000
0000
0001
0000
0010
0000
0100
0000
0000
0010
0000
0000
,
1100
0010
0001
1000
0110
0001
1000
0100
0011
0100
0010
0100
0011
1000
0100
0001
,
0110
0001
0010
0001
1100
0010
0100
0010
1100
0001
0010
1000
0101
0010
1000
0010
,
0101
0010
0100
1000
0010
0100
1000
0010
0100
0001
0010
0100
1000
0010
0100
1000
,
0100
0010
0100
1000
0010
0100
1000
0010
0100
0001
0010
0100
1000
0010
0100
1000
,
0100
0000
0010
0000
0100
1000
0000
0010
0100
0000
0010
1000
0000
0100
0010
0001
,
0100
0010
0001
0100
0010
1000
0001
1000
0001
0100
0010
0001
1000
0010
0100
0001
,
1000
0001
0010
1000
0010
0100
0000
0100
1000
0000
0010
1000
0000
0010
0100
0000
,
0100
1000
0001
0010
0001
0100
0000
0010
0001
0100
0000
1000
0001
0000
0020
0100
,
0030
0100
0010
0001
0100
0010
0000
0010
1100
0000
0101
0000
0010
0001
0000
0010
,
1100
0000
0100
0001
0000
0100
0001
0000
1000
0000
0110
0000
0010
1000
0000
1001
,
0000
0010
0100
0000
1000
0001
0000
0010
1000
0000
0100
1000
0000
0100
0010
0100
,
0000
0100
0010
0001
0100
0001
0000
0100
1000
0100
0000
0010
0001
0000
0101
0000
,
0000
0010
0100
1000
0010
0100
0000
0100
0010
0000
0010
1000
0000
0100
0001
0000
,
0100
0010
0000
0001
0100
0000
1000
0100
0000
0000
0010
0000
1000
0001
0000
1010
,
0000
0001
0010
1000
0010
0100
0000
0100
1000
0000
0010
1000
0000
0010
0100
0000
,
0100
1000
0001
0010
0001
0100
0000
0010
0001
0100
0000
1000
0001
0000
0020
0100
,
0030
0100
0010
0001
0100
0010
0000
0010
1100
0000
0101
0000
0010
0001
0000
0010
,
1100
0000
0100
0001
0000
0100
0001
0000
1000
0000
0110
0000
0010
1000
0000
1001
,
0000
0010
0100
0000
1000
0001
0000
0010
1000
0000
0100
1000
0000
0100
0010
0100
,
0000
0100
0010
0001
0100
0001
0000
0100
1000
0100
0000
0010
0001
0000
0101
0000
,
0000
0010
0100
1000
0010
0100
0000
0100
0010
0000
0010
1000
0000
0100
0001
0000
,
0100
0010
0000
0001
0100
0000
1000
0100
0000
0000
0010
0000
1000
0001
0000
0110
,
0000
0001
0010
1000
0010
0100
0000
0100
1000
0000
0010
1000
0000
0010
0100
0000
,
0100
1000
0001
0010
0001
0100
0000
0010
0001
0100
0000
1000
0001
0000
0020
0100
,
0030
0100
0010
0001
0100
0010
0000
0010
1100
0000
0101
0000
0010
0001
0000
0010
,
1100
0000
0100
0001
0000
0100
0001
0000
1000
0000
0110
0000
0010
1000
0000
1001
,
0000
0010
0100
0000
1000
0001
0000
0010
1000
0000
0100
1000
0000
0100
0010
0100
,
0000
0100
0010
0001
0100
0001
0000
0100
1000
0100
0000
0010
0001
0000
0101
0000
,
0000
0010
0100
1000
0010
0100
0000
0100
0010
0000
0010
1000
0000
0100
0001
0000
,
0100
0010
0000
0001
0100
0000
1000
0100
0000
0000
0010
0000
1000
0001
0000
1010
,
0000
0001
0010
1000
0010
0100
0000
0100
1000
0000
0010
1000
0000
0010
0100
0000
,
0100
1000
0001
0010
0001
0100
0000
0010
0001
0100
0000
1000
0001
0000
0020
0100
,
0030
0100
0010
0001
0100
0010
0000
0010
1100
0000
0101
0000
0010
0001
0000
0010
,
1100
0000
0100
0001
0000
0100
0001
0000
1000
0000
0110
0000
0010
1000
0000
1001
,
0000
0010
0100
0000
1000
0001
0000
0010
1000
0000
0100
1000
0000
0100
0010
0100
,
0000
0100
0010
0001
0100
0001
0000
0100
1000
0100
0000
0010
0001
0000
0101
0000
,
0000
0010
0100
1000
0010
0100
0000
0100
0010
0000
0010
1000
0000
0100
0001
0000
,
0100
0010
0000
0001
0100
0000
1000
0100
0000
0000
0010
0000
1000
0001
0000
0000
,
2002
0000
3003
0000
0220
0001
1330
0001
0100
0010
0001
0100
0010
1000
0000
0100
,
0000
0001
0000
0000
0100
0010
0000
1000
0000
0010
0000
0100
0000
1000
0000
0001
,
0100
1000
0000
0010
0000
0100
0000
0000
0100
0010
0000
0001
0000
0010
0000
0000
,
0100
0000
1000
0001
1000
0000
0000
0000
0100
0000
0101
0010
1000
0000
0101
0000
,
1001
0110
0011
1010
,
0110
0000
0000
0000
1100
0000
0100
0010
1001
0000
0000
0000
0110
0000
0000
0000
,
2020
0000
0000
0000
0000
0000
0000
3030
0202
0000
0000
0000
0000
0000
0000
0303
2020
0000
0000
0000
0000
0000
0000
3030
0220
0000
0000
0000
0000
0000
0000
0330
,
1001
0010
0001
0010
0001
0100
0010
0100
1000
0010
1000
0010
1000
0100
1000
0010
,
0101
0010
0001
0010
1000
0010
0100
0001
1000
0010
1000
0010
0100
0001
0010
1000
,
0010
0100
1000
0010
0001
0010
0100
0001
1000
0100
0010
0001
1000
0010
0100
0001
,
0100
0010
0001
0010
1000
0010
0100
0001
1000
0010
1000
0010
0100
0001
0010
1000
,
0010
0100
1000
0010
0001
0010
0100
0001
1000
0100
0010
0001
1000
0010
0100
0001
,
0100
0010
0001
0010
1000
0010
0100
0001
1000
0010
1000
0010
0100
0001
0010
1000
,
0010
0100
1000
0010
0001
0010
0100
0001
1000
0100
0010
0001
1000
0010
0100
0001
,
0100
0010
0001
0010
1000
0010
0100
0001
1000
0010
1000
0010
0100
0001
0010
1000
,
0010
0100
1000
0010
0001
0010
0100
0001
1000
0100
0010
0001
1000
0010
0100
0001
,
0100
0010
0001
0010
1000
0010
0100
0001
1000
0010
1000
0010
0100
0001
0010
1000
,
0010
0100
1000
0010
0001
0010
0100
0001
1000
0100
0010
0001
1000
0010
0100
0001
,
0100
0010
0001
0010
1000
0010
0100
0001
1000
0010
1000
0010
0100
0001
0010
1000
,
0010
0100
1000
0010
0001
0010
0100
0001
1000
0100
0010
0001
1000
0010
0100
0001
,
0100
0010
0001
0010
1000
0010
0100
0001
1000
0010
1000
0010
0100
0001
0010
1000
,
0010
0100
1000
0010
0001
0010
0100
0001
1000
0100
0010
0001
1000
0010
0100
0001
,
1100
0000
0000
0010
0001
1010
0000
0100
0010
0101
0000
0010
1000
0011
0000
0100
,
2020
0000
0000
0000
0000
0000
0000
0000
3232
0000
0000
0000
0000
0000
0000
0303
2002
0000
0000
0000
0000
0000
0000
0000
3223
0000
0000
0000
0000
0000
0000
0330
,
0202
0303
0000
0000
;

//---------------dance-single - Copied from----------------
#NOTES:
     dance-single:
     Copied from:
     Easy:
     15:
     1.000,1.000,1.000,0.994,1.000,1297.000,679.000,174.000,0.000,230.000:
2222
0000
0000
0000
,
0000
0000
0000
0000
,
0000
0000
0000
0000
,
0000
0000
0000
0000
,
0000
0000
0000
0000
,
0000
0000
0000
0000
,
0000
0000
0000
0000
,
0000
0000
0000
0000
,
3333
0020
0000
0000
0000
0000
0000
0000
0000
0000
0000
0000
0000
0000
0000
0000
0000
0000
0000
0000
0000
0000
0000
0000
0000
0000
0000
0000
0000
0000
0000
0000
,
0000
0000
0230
0302
,
2003
0000
0000
3000
0000
0000
0000
0000
,
0000
0000
0000
0000
,
0200
0000
0000
0000
,
0000
0000
0302
0000
,
2003
0000
0000
3000
0000
0000
0000
0000
,
0000
0000
0200
0302
,
2223
0000
0000
0000
,
0000
0000
0000
0000
0000
0000
0000
0000
0000
0000
0000
0000
0000
0000
0000
0000
3330
0200
0000
0000
0000
0000
0000
0000
0320
0000
0000
0000
0000
0000
0000
0000
,
0230
0000
0000
0000
0000
0000
0000
0000
0010
0000
0000
0000
2000
3000
0000
0000
0000
0000
0000
0000
0300
0000
0000
0000
0000
0000
0000
0000
0000
0000
0000
0000
,
0000
0000
0000
0000
,
0002
0000
0000
0000
,
0000
0000
2003
3002
,
0203
0000
0000
0000
,
0000
0000
0000
0000
0000
0000
0000
0000
0000
0000
0000
0000
0010
0000
0000
1000
0000
0000
0010
0000
0000
0001
0000
0000
0010
0000
0001
0000
0010
0000
1000
0000
0010
0000
1000
0000
0010
0000
0001
0000
0010
0000
0001
0000
1000
0000
0001
0000
,
0320
0000
0100
0100
0001
0000
0100
0000
1000
0000
0100
0100
0001
0000
1000
0000
,
0001
0000
0100
0100
1000
0000
0001
0000
0230
0000
0010
0010
2300
0000
0100
0100
,
3002
0000
0100
0100
1003
0000
0010
0001
1010
0100
0011
1000
0101
0010
1001
0100
,
0011
0100
1001
0100
0011
1000
0110
0001
1100
0001
0110
1000
0101
0010
1001
0010
,
0200
0000
1000
1000
0010
0000
0001
0000
1000
0000
0010
0010
0001
0000
0010
0000
,
0001
0000
1000
1000
0010
0000
1000
0000
0320
0000
0001
0001
0100
0000
1000
0000
,
0032
0010
1100
0100
0110
1000
0000
1000
0020
0000
1130
1010
0000
0110
1010
0000
,
1100
1010
0000
0110
1010
0000
1010
0110
0000
0110
1010
0000
1010
0000
1100
0000
,
1113
0001
0110
1000
0011
0100
0000
0101
1011
0000
0011
1101
0000
0011
1110
0000
,
0101
1000
0101
0010
1001
0100
0000
0010
1001
0111
0000
1010
0111
0000
0021
1100
,
0030
0100
1010
0001
1100
0010
0000
0011
1101
0000
1111
0000
0110
1011
0000
0011
,
1110
0000
0000
0000
1100
0000
0111
0000
0000
0000
0101
0000
0111
0000
0000
0000
1111
0000
0000
0000
0110
0001
1000
0100
0011
0000
1000
0000
0111
0000
0000
0000
,
1011
0000
0101
1011
0000
1001
1011
0000
0011
1110
0000
0101
1011
0000
0011
1110
,
0000
0100
1010
0001
0110
0001
0000
0101
1110
0000
0000
1011
0000
0000
1111
0000
,
0000
0010
0101
1000
0011
0100
0000
1100
0111
0000
0011
1011
0000
0110
1011
0000
,
1100
0010
0100
0001
0010
1000
0101
0010
0001
1000
0010
0001
1010
0100
1000
0100
0010
0100
1010
0001
0100
0010
0001
0100
,
1111
0000
1100
0010
1001
0100
0011
0000
0101
0000
1100
0010
0101
1000
0011
0000
,
0101
0000
0101
0010
1001
0100
0011
0000
0110
0000
0101
0010
0101
1000
0011
0000
,
1100
0000
1100
0010
1001
0100
0011
0000
0101
0000
1100
0010
0101
1000
0011
0000
,
0110
0000
1100
0010
1001
0100
0011
0000
0110
0000
0101
0010
0101
1000
0111
0000
,
1110
0000
0101
1000
0101
0010
1001
0010
0101
0010
1001
0100
1010
0001
1100
0010
,
0101
0010
0101
1000
0101
0010
1001
0010
0101
0010
1001
0100
1010
0001
1100
0010
,
2202
0000
0000
0000
0000
0000
0000
3303
0222
0000
0000
0000
0000
0000
0000
0333
2202
0000
0000
0000
0000
0000
0000
3303
2022
0000
0000
0000
0000
0000
0000
3033
,
2220
0000
0000
0000
0000
0000
0000
3330
0222
0000
0000
0000
0000
0000
0000
0333
2022
0000
0000
0000
0000
0000
0000
3033
2202
0000
0000
0000
0000
0000
0000
3303
,
0101
0010
0101
1000
0011
0100
0000
0110
0000
0010
1001
0010
1100
0010
0000
0011
,
0000
0100
1001
0010
1100
0001
0000
0011
0000
0010
0101
1000
0011
0000
0101
1100
,
2202
0000
0000
0000
0000
0000
0000
3303
0222
0000
0000
0000
0000
0000
0000
0333
2202
0000
0000
0000
0000
0000
0000
3303
2220
0000
0000
0000
0000
0000
0000
3330
,
0222
0000
0000
0000
0000
0000
0000
0333
2022
0000
0000
0000
0000
0000
0000
3033
2220
0000
0000
0000
0000
0000
0000
3330
2202
0000
0000
0000
0000
0000
0000
3303
,
1100
0000
0010
0000
1001
0000
0010
0000
1100
0000
0001
0000
0110
0000
0001
0000
1010
0000
0100
0000
1001
0000
0010
0000
0101
1000
0010
0100
0011
1000
0010
0000
,
1100
0000
0001
0000
0110
0000
0001
0000
1010
0000
0100
0000
1001
0000
0010
0000
1100
0000
0010
0000
0101
0000
0010
0000
1100
0010
0001
0010
1100
0000
0001
0000
,
2022
0000
0000
3000
2000
0000
0000
3003
2232
0000
0000
0003
0020
0000
0000
3030
2322
0000
0000
0003
0200
0000
0000
0330
3222
0000
0000
0030
0020
0000
0000
0033
,
2322
0000
0000
3000
0200
0000
0000
0333
0222
0000
0000
0300
2000
0000
0000
3030
2223
0000
0000
0000
0002
0000
0000
3333
2220
0000
0000
0030
0020
0000
0000
3030
,
1310
0000
0000
0001
0000
0000
1010
0000
0000
0100
0000
0000
1001
0000
0000
0010
0000
0000
0101
0000
1000
0000
0010
0000
1100
0000
0000
0010
0000
0000
1001
0000
0000
0100
0000
0000
0011
0000
0100
0000
1000
0000
0011
0000
0000
0100
0000
0000
,
0110
0000
0000
1000
0000
0000
0011
0000
0000
1000
0000
0000
0110
0000
0001
0000
0010
0000
0101
0000
0000
0010
0000
0000
1100
0000
0000
0010
0000
0000
0101
0000
0000
0010
0000
0000
1100
0000
0001
0000
0010
0000
0101
0000
0000
0010
0000
0000
,
1100
0010
0101
1000
0110
0001
1010
0100
0011
0100
1010
0100
0011
1000
0110
0001
,
1010
0001
0110
0001
1100
0010
0101
0010
1100
0001
0110
1000
0101
0010
1001
0010
,
0101
0000
0010
0000
0101
0000
1000
0000
0011
0100
1001
0100
1010
0000
0010
0000
1100
0001
1010
0100
0011
0000
0100
0000
0110
0001
1010
0001
0110
0000
1000
0000
,
0110
0001
1010
0001
0110
0000
1000
0000
0110
0001
1100
0010
1001
0000
0010
0000
1100
0010
1001
0100
0011
0000
0100
0000
1100
0001
1010
0001
0110
0000
1000
0000
,
0200
0000
0320
0000
0230
2322
3033
0020
2232
3303
0020
2232
3303
0200
2322
3033
,
1101
0010
1001
0100
0011
1000
0101
1000
0111
1000
0110
0001
1100
0010
1100
0001
,
1110
0001
0110
1000
0011
0100
1010
0001
1110
0001
0110
1000
0101
0010
1101
0010
,
0101
1000
0101
0010
1001
0100
1001
0010
1001
0100
0011
1000
0111
1000
0021
1000
,
0131
0010
1100
0001
1110
0001
0110
0001
1110
0001
1110
0001
0110
1000
0101
0010
,
1001
0010
1100
0001
1110
0001
1010
0100
1011
0100
0011
1000
0011
1000
0101
0010
,
1101
0010
0101
0000
1100
0111
0000
0011
1110
0000
0101
1011
0000
0100
0011
1110
,
0000
0100
1010
0001
0110
1011
0000
0100
1001
0111
0000
0110
0111
0000
1111
0000
,
0000
0010
0101
1000
0011
0100
0000
1100
0111
0000
0011
1110
0000
0110
0111
0000
,
1100
0111
0000
0011
1110
0000
0000
0111
0000
0000
1111
0000
1010
0111
0000
1111
,
0000
0001
0110
1000
0011
0100
1010
0001
1110
0001
1010
0100
1011
0100
1010
0001
,
0110
1000
0101
0010
1101
0010
0101
0010
1001
0010
1100
0001
1110
0100
0021
1000
,
0131
0010
1100
0001
1110
0001
1100
0001
1110
0000
1111
0000
0110
1011
0000
0011
,
1110
0000
1100
0111
0000
0110
0111
0000
1011
0000
0111
0000
0011
1110
0000
1011
,
0000
0011
0111
0000
1100
0111
0000
0011
1110
0000
0101
1011
0000
0100
0011
1110
,
0000
0100
1010
0001
0110
1011
0000
0100
1001
0111
0000
0110
0111
0000
1111
0000
,
0000
0010
0101
1000
0011
0100
0000
1100
0111
0000
0011
1110
0000
0110
0111
0000
,
1100
0001
1100
0001
1110
0001
1010
0100
0011
0100
1001
0100
1011
0100
0011
1000
,
0111
0001
0110
1000
0011
0100
1010
0001
1110
0001
0110
1000
0101
0010
1101
0010
,
0101
1000
0101
0010
1001
0100
1001
0010
1001
0100
0011
1000
0111
1000
0021
1000
,
0131
0010
1100
0001
1110
0001
0110
0001
1110
0001
1110
0001
0110
1000
0101
0010
,
1001
0010
1100
0001
1110
0001
1010
0100
1011
0100
0011
1000
0011
1000
0101
0010
,
1101
0010
0101
0000
1100
0111
0000
0011
1110
0000
0101
1011
0000
0100
0011
1110
,
0000
0100
1010
0001
0110
1011
0000
0100
1001
0111
0000
0110
0111
0000
1111
0000
,
0000
0010
0101
1000
0011
0100
0000
1100
0111
0000
0011
1110
0000
0110
0111
0000
,
1100
0111
0000
0011
1110
0000
0000
0111
0000
0000
1111
0000
1010
0111
0000
1111
,
0000
0001
0110
1000
0011
0100
1010
0001
1110
0001
1010
0100
1011
0100
1010
0001
,
0110
1000
0101
0010
1101
0010
0101
0010
1001
0010
1100
0001
1110
0100
0021
1000
,
0131
0010
1100
0001
1110
0001
1100
0001
1110
0000
1111
0000
0110
1011
0000
0011
,
1110
0000
1100
0111
0000
0110
0111
0000
1011
0000
0111
0000
0011
1110
0000
1011
,
0000
0011
0111
0000
1100
0111
0000
0011
1110
0000
0101
1011
0000
0100
0011
1110
,
0000
0100
1010
0001
0110
1011
0000
0100
1001
0111
0000
0110
0111
0000
1111
0000
,
0000
0010
0101
1000
0011
0100
0000
1100
0111
0000
0011
1110
0000
0110
0111
0000
,
1100
0001
1100
0001
1110
0001
1010
0100
0011
0100
1001
0100
1011
0100
0011
1000
,
2222
0000
3333
0000
0220
0001
1330
0001
0100
0010
0001
0100
0010
1000
0000
0100
,
0000
0001
0000
0000
0100
0010
0000
1000
0000
0010
0000
0100
0000
1000
0000
0001
,
0100
1000
0000
0010
0000
0100
0000
0000
0100
0010
0000
0001
0000
0010
0000
0000
,
0100
0000
0000
0000
1000
0000
0001
0000
1000
0000
0000
0000
0000
0000
0000
0000
0100
0000
0000
0000
0101
0000
0010
0100
1001
0000
0000
0000
0111
0000
0000
0000
,
1111
0111
0011
1010
,
0110
0000
0000
0000
1100
0000
0100
0010
1101
0000
0000
0000
0110
0000
0000
0000
,
2022
0000
0000
0000
0200
0000
0000
3333
0222
0000
0000
0030
0020
0000
0000
0333
2220
0000
0000
0300
0200
0000
0000
3330
0222
0000
0000
0003
0002
0000
0000
0333
,
1001
0010
0101
0010
1001
0100
0011
0100
1001
0010
1100
0010
1001
0100
1001
0010
,
1101
0010
1001
0010
1001
0010
1100
0001
1010
0100
1001
0010
1100
0001
0110
1000
,
0011
0100
1001
0010
0101
0010
1100
0001
1010
0100
1010
0001
1100
0001
0110
0001
,
1100
0010
0101
0010
1001
0010
1100
0001
1100
0010
1001
0010
1100
0001
0110
1000
,
0011
0000
0100
0000
1001
0000
0010
0000
0101
0000
0010
0000
1100
0000
0001
0000
1010
0000
0100
0000
0110
0000
0001
0010
1100
0001
0010
0000
0101
0000
0010
0000
,
1101
0010
1001
0010
1001
0010
1100
0001
1010
0100
1001
0010
1100
0001
0110
1000
,
0011
0100
1001
0010
0101
0010
1100
0001
1010
0100
1010
0001
1100
0001
0110
0001
,
1100
0010
0101
0010
1001
0010
1100
0001
1100
0010
1001
0010
1100
0001
0110
1000
,
0011
0000
0100
0000
1001
0000
0010
0000
0101
0000
0010
0000
1100
0000
0001
0000
1010
0000
0100
0000
0110
0000
0001
0010
1100
0001
0010
0000
0101
0000
0010
0000
,
1101
0010
1001
0010
1001
0010
1100
0001
1010
0100
1001
0010
1100
0001
0110
1000
,
0011
0100
1001
0010
0101
0010
1100
0001
1010
0100
1010
0001
1100
0001
0110
0001
,
1100
0010
0101
0010
1001
0010
1100
0001
1100
0010
1001
0010
1100
0001
0110
1000
,
0011
0000
0100
0000
1001
0000
0010
0000
0101
0000
0010
0000
1100
0000
0001
0000
1010
0000
0100
0000
0110
0000
0001
0010
1100
0001
0010
0000
0101
0000
0010
0000
,
1101
0010
1001
0010
1001
0010
1100
0001
1010
0100
1001
0010
1100
0001
0110
1000
,
0011
0100
1001
0010
0101
0010
1100
0001
1010
0100
1010
0001
1100
0001
0110
0001
,
1200
0010
1000
0001
0010
1000
0011
1000
0010
1000
0001
0010
1001
0010
1000
0001
0010
1000
0011
1000
0001
0010
1000
0310
,
2022
0000
0000
0000
0000
0000
0000
3033
2202
0000
0000
0000
0000
0000
0000
3303
2022
0000
0000
0000
0000
0000
0000
3033
2220
0000
0000
0000
0000
0000
0000
3330
,
2222
3333
0000
0000
;
