#TITLE:It is a Head Skip (Old Style Makina Remix);
#SUBTITLE:;
#ARTIST:Nadeco;
#TITLETRANSLIT:;
#SUBTITLETRANSLIT:;
#ARTISTTRANSLIT:;
#CREDIT:;
#BANNER:headskip_bn.png;
#BACKGROUND:headskip_bg.png;
#LYRICSPATH:;
#CDTITLE:;
#MUSIC:It is a Head Skip (Old Style Makina Remix) - Nadeco.mp3;
#OFFSET:0.036;
#SAMPLESTART:100.000;
#SAMPLELENGTH:12.000;
#SELECTABLE:YES;
#BPMS:0.000=165.010;
#STOPS:;
#BGCHANGES:;
// cache tags:
#FIRSTBEAT:9.000;
#LASTBEAT:768.750;
#SONGFILENAME:Songs/toune 8/It is a Head Skip (Old Style Makina Remix) - Nadeco/It is a Head Skip (Old Style Makina Remix) - Nadeco.sm;
#HASMUSIC:1;
#HASBANNER:1;
#MUSICLENGTH:286.989;
// end cache tags

//---------------dance-single - ----------------
#NOTES:
     dance-single:
     :
     Hard:
     9:
     0.671,0.837,0.251,0.007,0.150,1273.000,72.000,2.000,0.000,0.000:
0000
0000
0000
0000
,
0000
0000
0000
0000
,
0000
1000
1000
1000
,
1000
1000
1000
1000
,
1001
0001
0001
0001
,
0001
0001
0001
0001
,
0011
0010
0010
0010
,
0010
0010
0010
0010
,
0110
0100
0100
0100
,
0100
0100
0100
0100
,
0101
0001
1000
0001
,
1000
0000
0001
0000
1000
0000
0001
0100
,
0110
0100
1000
0100
,
1000
0000
0100
0000
0100
0000
0001
0100
,
0101
0001
0100
0010
,
0100
0000
0000
0000
0010
0000
0000
1000
0001
0000
0100
0000
1000
0000
0010
0000
,
1000
0100
0010
0001
,
0100
0000
0000
0000
0010
0000
0000
1000
0010
0000
1000
0000
0010
0000
0100
0000
,
0010
0001
0100
0010
,
1000
0000
0000
0000
0100
0000
0000
0100
1000
0000
1000
0000
0010
0000
0100
0000
,
0010
1000
0001
0010
,
0100
0000
0000
0000
0001
0000
0000
0001
0100
0000
0010
0000
1000
0000
0100
0000
,
1000
0100
1000
0001
,
0100
0000
0000
0000
0010
0100
0010
0100
0010
0100
0010
0100
0010
0000
0001
0000
,
0010
0000
0000
0000
0001
0000
0000
0001
1000
0000
1000
0000
0010
0000
0100
0000
,
1000
0000
0000
0000
0100
0000
0000
0010
0001
0000
1000
0000
0100
0000
1000
0000
,
0010
1000
1010
0001
,
0101
0100
0110
0010
,
1010
0000
0000
0000
0001
0000
0000
1000
0100
0000
1000
0000
0010
0000
0100
0000
,
0001
0000
0000
0000
0001
0000
0000
1000
0100
0000
1000
0000
0010
0000
0100
0000
,
0001
0010
0110
0010
,
0011
0000
0010
1000
0010
0000
0110
0000
,
0000
0000
0101
0000
0100
0010
0100
0000
,
0110
1000
0100
0110
,
0010
0100
0010
0000
0001
0100
0010
0000
,
0100
0001
1000
0010
,
0100
0000
0011
0000
0010
0100
1000
0000
,
0010
0100
0001
1001
,
1000
0100
0010
0000
0011
0000
0100
0000
,
0010
0000
1000
0000
0001
1000
0100
0000
,
0010
0000
0110
0000
0100
0010
0001
0000
,
0100
0010
1000
0100
,
0001
1000
1001
0000
0100
0010
0100
0000
,
1000
0100
0010
0001
,
1000
0000
1001
0000
0010
1000
0100
0000
,
1000
1001
0100
0110
,
0100
0001
0101
0000
0001
0000
0101
0000
,
0100
0000
0010
0000
0010
1000
0010
0000
,
0011
0000
0100
1000
0010
1000
0100
1000
,
0100
1000
0001
0100
0010
0100
0001
0100
,
0001
0100
0010
0100
0010
0100
0010
0100
,
0010
1000
0100
1000
0010
1000
0010
1000
,
0010
1000
0100
1000
0100
1000
0010
1000
,
0100
1000
0100
0010
0100
0010
1000
0010
,
0100
0010
0001
0010
0001
0010
0001
0010
,
0001
0010
0001
0100
0001
0100
0001
0100
,
0001
0100
0010
0100
0010
0100
0001
0100
,
0001
0100
0010
1000
0010
0100
0001
1000
,
0010
1000
0100
1000
0010
1000
0100
1000
,
0010
1000
0100
1000
0001
1000
0100
1000
,
0001
0100
0010
0100
0010
0100
0010
0100
,
0010
0100
0001
0100
0001
0100
0001
0100
,
0001
0100
0001
0010
0100
1000
0001
0010
,
0100
1000
1000
0100
0010
0001
0100
0010
,
0100
0010
1000
0001
0100
0010
0100
0001
,
0010
0100
1000
0001
0010
0100
1000
0001
,
0010
0100
1000
1000
0100
1000
0100
1000
,
0100
1000
1000
0100
0010
0001
1000
0100
,
0010
0001
0100
1000
0010
1000
0010
0100
,
0001
1000
0010
0100
0001
0010
0100
1000
,
0010
1000
1000
0100
0010
0001
0100
0010
,
1000
0001
0100
0010
0100
0001
1000
0100
,
1000
0100
1000
0010
0100
0010
0100
0001
,
0100
0001
0100
0001
0010
0001
0010
0001
,
0010
0001
0100
0001
0100
0001
0100
0001
,
0100
0010
0100
0010
1000
0100
1000
0010
,
1000
0100
1000
0010
1000
0001
0100
0001
,
0100
0010
0100
0001
0100
0010
0100
0001
,
0100
0010
0001
0010
0100
1000
0100
1000
,
0010
0100
0010
1000
0001
1000
0010
0000
,
0110
0010
0001
0100
,
0010
0000
0000
0000
0001
0000
0000
0001
0100
0000
0010
0000
1000
0000
0100
0000
,
1000
0001
1000
0100
,
1000
0000
0000
0000
0010
0000
0000
0010
0100
0000
0100
0000
0001
0000
1000
0000
,
0010
0010
1000
0001
,
0100
0000
0000
0000
0010
0000
0000
1000
0010
0000
0001
0000
1000
0000
0010
0000
,
0100
0001
1000
0010
,
0100
0000
0000
0000
1000
0000
0000
1000
0001
0000
1000
0000
0010
0000
0100
0000
,
0001
0100
1000
0010
,
0100
0000
0000
0000
1000
0000
0000
0100
0010
0000
0100
0000
1000
0000
0010
0000
,
0100
0010
0010
1000
,
0001
0000
0000
0000
0100
0000
0000
0100
0010
0000
0010
0000
1000
0000
0100
0000
,
1000
1001
1010
0110
,
0101
1001
0011
1010
,
0110
0101
1001
1010
,
0110
1010
0101
0110
,
0101
0110
0011
0101
,
1010
0000
0000
0000
1001
0000
0000
1000
0001
0000
0100
0000
0010
0000
0100
0000
,
0010
0001
1000
0100
,
1000
0000
0000
0000
0110
0000
0000
0010
0100
0000
0100
0000
0001
0000
1000
0000
,
0100
0010
1000
0001
,
0101
0000
0000
0000
0001
0000
0000
0001
1000
0000
1000
0000
0100
0000
1000
0000
,
0010
0001
1000
0010
,
0101
0000
0000
0000
0001
1000
0001
1000
0001
1000
0001
1000
0001
0000
0010
0000
,
0001
0000
0000
0000
1001
0000
0000
1000
0100
0000
0010
0000
0001
0000
0010
0000
,
0100
0000
0000
0000
1001
0000
0000
0001
0010
0000
0100
0000
1000
0000
0100
0000
,
0010
0010
1000
0010
,
0100
0001
0010
1100
,
0110
0000
0000
0000
1100
0000
0000
1000
0001
0000
1000
0000
0100
0000
1000
0000
,
0010
0000
0000
0000
0011
0000
0000
0001
1000
0000
0001
0000
0010
0000
0001
0000
,
0100
0110
1100
0010
,
0110
0010
0010
0001
,
0010
1000
0100
1000
,
0010
0000
0000
0000
0100
0000
0000
0001
0100
0000
0001
0000
0100
0000
0010
0000
,
1000
0100
1000
0010
,
0100
0000
0000
0000
1000
0000
0000
1000
0100
0000
1000
0000
0010
0000
0100
0000
,
0001
0010
1000
0001
,
0100
0000
0000
0000
0010
0000
0000
0010
1000
0000
1000
0000
0001
0000
0100
0000
,
0010
0100
1000
0001
,
0100
0000
0000
0000
0010
0000
0000
0100
0010
0000
1000
0000
0001
0000
0100
0000
,
0010
0000
0100
1000
0001
0100
1000
0010
,
0100
0001
0100
0010
0001
1000
0010
0100
,
0001
0100
0010
0100
0001
1000
0100
0010
,
0001
0100
0010
1000
0100
1000
0001
0100
,
0010
0100
0010
1000
0010
1000
0001
0100
,
0001
0100
0010
1000
0100
1000
0001
0100
,
0010
0000
1000
0000
0100
0010
0100
0010
0100
0010
0100
0010
1000
0001
1000
0001
,
1000
0001
1000
0001
1000
0000
0000
0000
0010
0000
1000
0000
0001
0000
0000
0000
,
0010
0000
1000
0001
0100
0010
0100
0001
,
0100
0010
1000
0100
1000
0100
1000
0100
,
1000
0001
0010
0100
1000
0001
0010
0100
,
1000
0100
1000
0100
1000
0100
0010
0001
,
1000
0100
0010
0001
1000
0010
0100
0010
,
1000
0001
1000
0001
0010
0100
1000
0001
,
0010
0100
1000
0100
1000
0010
0100
0010
,
1000
0010
1000
0100
0010
0001
1000
0100
,
0010
0001
0100
0010
0100
0001
1000
0010
,
0100
0001
0001
0010
0100
1000
0001
0010
,
0100
1000
0001
0010
0100
0010
1000
0010
,
1000
0010
1000
0100
0010
0001
1000
0100
,
0010
0001
0100
0010
1000
0001
1000
0100
,
1000
0010
0100
0001
0010
0100
1000
0001
,
0010
0100
1000
0010
0100
0010
0100
0001
,
0100
0001
1000
0100
0010
0001
1000
0100
,
0010
0001
1000
0010
0100
0001
0100
0010
,
1000
0100
1000
0001
0010
0100
1000
0001
,
0010
0100
1000
0010
0100
0010
0100
0001
,
1000
0010
1000
0100
0010
0001
1000
0100
,
0010
0001
0100
0010
0100
0010
1000
0100
,
1000
0010
0001
0010
0100
1000
0001
0010
,
0100
1000
0010
0100
0010
1000
0001
0100
,
0010
0100
1000
0100
0010
0001
1000
0100
,
0010
0001
0100
0010
1000
0100
1000
0010
,
0100
0001
0010
0100
1000
0001
0010
0100
,
1000
0010
0001
0010
0100
0010
1000
0001
,
1000
0100
0010
0001
1000
0100
0010
0001
,
0010
0001
1000
0100
1000
0010
0100
0001
,
1000
0010
0001
0010
0100
1000
0001
0010
,
0100
1000
0001
0100
0010
0100
0010
1000
,
0001
1000
1000
0000
0100
0010
0011
0000
,
0000
0001
1000
0010
,
0100
0000
0000
0000
0001
0000
0000
1000
0001
0000
0010
0000
0100
0000
0010
0000
,
0001
0001
1000
0100
,
1000
0000
0000
0000
0010
0000
0000
0001
0100
0000
0001
0000
1000
0000
0100
0000
,
1000
0010
0001
1000
,
0010
0000
0000
0000
0001
0000
0000
1000
0100
0000
1000
0000
0010
0000
1000
0000
,
0001
0010
0100
1000
,
0001
0000
0000
0000
1001
0000
0000
1000
0001
0000
1000
0000
0100
0000
0010
0000
,
0001
0000
0000
0000
1001
0000
0000
0001
1000
0000
0001
0000
0010
0000
0100
0000
,
1000
0000
0000
0000
1001
0000
0000
1000
0001
0000
1000
0000
0100
0000
0010
0000
,
0001
0011
1000
1100
,
0010
1001
0001
1010
,
0001
0000
0000
0000
1100
0000
0000
1000
0010
0000
1000
0000
0100
0000
1000
0000
,
0010
0000
0000
0000
1001
0000
0000
0100
1000
0000
0100
0000
0010
0000
0001
0000
,
1000
0010
0100
0001
,
1000
0000
0100
1000
0010
0000
1010
0000
,
0000
0000
0000
0000
0001
0010
0001
0000
0100
0010
0100
0000
0010
1000
0010
0000
,
1000
0100
1000
0000
0100
0010
0100
0000
0010
0001
0010
0000
0001
1000
0001
0000
,
1000
0001
1000
0000
0010
1000
0010
0000
1000
0001
1000
0000
0001
0100
0001
0000
,
1000
0010
1000
0000
0010
0100
0010
0000
0100
0001
0100
0000
0001
1000
0001
0000
,
1000
0100
1000
0000
0010
1000
0010
0000
0100
0010
0100
0000
0001
0100
0001
0000
,
1000
0100
1000
0000
0010
1000
0010
0000
1000
0010
1000
0000
0010
0000
1000
0000
,
0010
0100
0010
0001
1000
1000
0010
1000
,
0010
0100
0010
0001
1000
0100
0001
0010
,
0100
0010
1000
0001
0100
1000
0010
1000
,
0010
0100
0001
1000
0100
1000
0010
1000
,
0001
0100
0010
1000
0100
1000
0001
1000
,
0010
1000
0001
0100
0010
1000
0100
1000
,
0001
0000
1000
0000
0001
0100
0001
0000
0100
0010
0100
0000
0010
1000
0010
0000
,
1000
0100
1000
0000
0001
0100
0001
0000
1000
0010
1000
0000
0010
0100
0010
0000
,
0001
0010
0001
0000
0100
1000
0100
0000
0001
0100
0001
0000
0010
0100
0010
0000
,
0001
1000
0001
0000
1000
0100
1000
0000
0010
0100
0010
0000
0100
0002
0200
0000
,
0000
0000
0000
0303
0000
0000
0000
0000
0000
0000
0000
0000
0000
0000
0000
0000
;
