#TITLE:Move Your Ass;
#SUBTITLE:Full Version;
#ARTIST:Scooter;
#TITLETRANSLIT:;
#SUBTITLETRANSLIT:;
#ARTISTTRANSLIT:;
#CREDIT:;
#BANNER:moveyourass-banner.png;
#BACKGROUND:moveyourass-bg.png;
#LYRICSPATH:;
#CDTITLE:!MoDtitle.png;
#MUSIC:MoveYourAss.mp3;
#OFFSET:0.002;
#SAMPLESTART:66.707;
#SAMPLELENGTH:12.000;
#SELECTABLE:YES;
#BPMS:0.000=160.950,164.000=80.475,212.000=160.950,468.000=80.475,516.000=160.950,612.000=80.475,628.000=160.950,692.000=80.475;
#STOPS:;
#BGCHANGES:;
// cache tags:
#FIRSTBEAT:4.000;
#LASTBEAT:714.000;
#SONGFILENAME:Songs/Bemani.se Megapack/(MoD) MoveYourAss/MoveYourAss.sm;
#HASMUSIC:1;
#HASBANNER:1;
#MUSICLENGTH:317.648;
// end cache tags

//---------------dance-single - Index----------------
#NOTES:
     dance-single:
     Index:
     Hard:
     11:
     1.000,1.000,1.000,0.205,1.000,1809.000,374.000,65.000,0.000,18.000:



0000
0000
0000
0000
,
1000
0000
0000
0000
0100
0000
0000
0000
0000
0000
0000
0000
0000
0000
0000
0000
0000
0010
0000
0000
0000
0000
0000
0000
0000
0000
0000
0000
0000
0000
0000
0000
0000
0000
0000
0000
1000
0000
0000
0000
0100
0000
0000
0000
0010
0000
0000
0000
0001
0000
0000
0000
0010
0000
0000
0000
0100
0000
0000
0000
0010
0000
0000
0000
,
1000
0000
0000
0000
0010
0000
0000
0000
0000
0000
0000
0000
0000
0000
0000
0000
0000
0100
0000
0000
0000
0000
0000
0000
0000
0000
0000
0000
0000
0000
0000
0000
0000
0000
0000
0000
0100
0000
0000
0000
0001
0000
0000
0000
1000
0000
0000
0000
0100
0000
0000
0000
0010
0000
0000
0000
0100
0000
0000
0000
1000
0000
0000
0000
,
0001
0000
0000
0000
0100
0000
0000
0000
0000
0000
0000
0000
0000
0000
0000
0000
0000
0100
0000
0000
0000
0000
0000
0000
0000
0000
0000
0000
0000
0000
0000
0000
0000
0000
0000
0000
0100
0000
0000
0000
0010
0000
0000
0000
1000
0000
0000
0000
0001
0000
0000
0000
0100
0000
0000
0000
0010
0000
0000
0000
1000
0000
0000
0000
,
0100
0000
0000
0000
0010
0000
0000
0000
0000
0000
0000
0000
0000
0000
0000
0000
0000
0010
0000
0000
0000
0000
0000
0000
0000
0000
0000
0000
0000
0000
0000
0000
0000
0000
0000
0000
1000
0000
0000
0000
0100
0000
0000
0000
0010
0000
0000
0000
0100
0000
0000
0000
0001
0000
0000
0000
0100
0000
0000
0000
1000
0000
0000
0000
,
0010
0000
0000
0000
0100
0000
0000
0000
0000
0000
0000
0000
0000
0000
0000
0000
0000
0100
0000
0000
0000
0000
0000
0000
0000
0000
0000
0000
0000
0000
0000
0000
0000
0000
0000
0000
1000
0000
0000
0000
0100
0000
0000
0000
0010
0000
0000
0000
0001
0000
0000
0000
0010
0000
0000
0000
0100
0000
0000
0000
0010
0000
0000
0000
,
0100
0000
0000
0000
1000
0000
0000
0000
0000
0000
0000
0000
0000
0000
0000
0000
0000
0001
0000
0000
0000
0000
0000
0000
0000
0000
0000
0000
0000
0000
0000
0000
0000
0000
0000
0000
1000
0000
0000
0000
0100
0000
0000
0000
0010
0000
0000
0000
0001
0000
0000
0000
0010
0000
0000
0000
0100
0000
0000
0000
0010
0000
0000
0000
,
0100
0000
0000
0000
1000
0000
0000
0000
0000
0000
0000
0000
0000
0000
0000
0000
0000
1000
0000
0000
0000
0000
0000
0000
0000
0000
0000
0000
0000
0000
0000
0000
0000
0000
0000
0000
0100
0000
0000
0000
0010
0000
0000
0000
0100
0000
0000
0000
0001
0000
0000
0000
0010
0000
0000
0000
0100
0000
0000
0000
1000
0000
0000
0000
,
0100
0000
0000
0000
0000
0000
0000
0000
0000
0000
0000
0000
0010
0000
0000
0000
0000
0000
0000
0000
0000
0000
0000
0000
0000
0000
0000
0000
0000
0000
0000
0000
0000
0000
0000
0000
0000
0000
0000
0000
0000
0000
0000
0000
0000
0000
0000
0000
0000
0000
0000
0010
0000
0000
0000
0000
0000
0000
0000
0000
0000
0000
0000
0000
0000
0000
0000
0000
0000
0000
0000
0000
0000
0000
0000
0000
0000
0000
0000
0000
0000
0000
0000
0000
0000
0000
0000
0000
0000
0000
0000
0000
0000
0000
0000
0000
0000
0000
0000
0000
0000
0000
0000
0000
0000
0000
0000
0000
0100
0000
0000
0000
0000
0000
0000
0000
0000
0000
0000
0000
0010
0000
0000
0000
0000
0000
0000
0000
0000
0000
0000
0000
0001
0000
0000
0000
0000
0000
0000
0000
0000
0000
0000
0000
1000
0000
0000
0000
0000
0000
0000
0000
0100
0000
0000
0000
0000
0000
0000
0000
0010
0000
0000
0000
0000
0000
0000
0000
0001
0000
0000
0000
0000
0000
0000
0000
0100
0000
0000
0000
0000
0000
0000
0000
0010
0000
0000
0000
0000
0000
0000
0000
,
1001
0110
0011
0110
,
1100
0110
1001
0110
,
0011
1100
0110
1001
,
0110
0000
1001
0000
0101
0000
0110
0101
,
1100
0110
0011
0110
,
1001
0110
1100
0101
,
0110
1001
0110
1100
,
0110
1100
0110
1001
,
1000
0100
0010
0100
1000
0010
0100
0001
0100
0010
0000
0010
0000
0100
0010
0000
,
1000
0100
0010
0100
0010
0001
0010
0100
0010
0001
0000
0010
0000
1000
0100
0000
,
0010
0001
0010
0100
1000
0010
0001
0010
0100
1000
0000
0100
0000
0001
0010
0000
,
1000
0001
0100
0010
0001
0010
0100
0001
1000
0100
0000
0100
0000
0001
0010
0000
,
0010
0100
0010
0001
0010
0100
1000
0001
0100
0010
0000
0010
0000
1000
0100
0000
,
0010
0100
0001
1000
0100
0010
0001
0010
0100
1000
0000
0100
0000
1000
0100
0000
,
0001
0010
0100
0010
0001
1000
0100
0010
0100
1000
0000
0100
0000
0001
0010
0000
,
1000
0100
1000
0010
0100
0001
0010
0100
1000
0100
0010
0001
0010
0100
0010
0001
,
1100
0000
0000
0000
1000
0100
1000
0100
1000
0100
1000
0100
1000
0100
1000
0100
,
1000
0100
1000
0100
1000
0100
1000
0100
1000
0100
1000
0100
1000
0100
1000
0100
,
0010
0100
0010
0100
0010
0001
0010
0001
0010
0001
0010
0001
0010
0001
0010
0001
,
0010
0001
0010
0001
0010
0001
0010
0001
0010
0001
0010
0001
0010
0001
0010
0001
,
1000
0010
1000
0010
0100
0001
0100
0001
0100
0001
0100
0001
0100
0001
0100
0001
,
0100
0001
0100
0001
0100
0001
0100
0001
0100
0001
0100
0001
0100
0001
0100
0001
,
1000
0100
1000
0100
0010
0100
0010
0100
0010
0100
0010
0100
0010
0100
0010
0100
,
0010
0100
0010
0100
0010
0100
0010
0100
0010
0100
0010
0100
0010
0100
0010
0100
,
1010
0000
1000
0100
1000
0100
1000
0001
1000
0001
1000
0001
1000
0001
1000
0001
,
1000
0001
1000
0001
1000
0001
1000
0001
1000
0001
1000
0001
1000
0001
1000
0001
,
1000
0010
0100
0010
0100
0001
0010
0001
0010
0001
0010
0001
0010
0001
0010
0001
,
0010
0001
0010
0001
0010
0001
0010
0001
0010
0001
0010
0001
0010
0001
0010
0001
,
0010
0100
1000
0100
1000
0010
0100
0010
0100
0010
0100
0010
0100
0010
0100
0010
,
0100
0010
0100
0010
0100
0010
0100
0010
0100
0010
0100
0010
0100
0010
0100
0010
,
0100
0001
0010
0001
1000
0010
1000
0010
1000
0010
1000
0010
1000
0010
1000
0010
,
1000
0010
1000
0010
1000
0010
1000
0010
1000
0010
1000
0010
1000
0010
1000
0010
,
2000
0000
0000
0000
3200
0000
0302
0203
,
0320
0000
0000
0000
0000
0000
0000
0000
0000
0000
0000
0000
0000
0000
0000
0000
0000
0000
0000
0000
0000
0000
0000
0000
0000
0000
0000
0000
0000
0000
0000
0000
0030
2200
0000
0000
0000
0000
0000
0000
0000
0000
0000
0000
0000
0000
0000
3300
0000
0202
0000
0000
0000
0000
0000
0000
0000
0000
0000
0000
0000
0000
0000
0000
,
0303
2002
0000
0000
0000
0000
0000
0000
0000
0000
0000
0000
0000
0000
0000
0000
3003
0000
0000
0000
0000
0000
0000
0000
0000
0000
0000
0000
0000
0000
0000
0000
0220
0000
0000
0000
0000
0000
0000
0000
0000
0000
0000
0000
0000
0000
0000
0000
2330
0000
0000
0000
0000
0000
0000
0000
3020
0000
0000
0000
0000
0000
0000
0000
,
0032
0003
0000
1000
0002
0000
0023
0000
,
1130
0000
0001
0010
0000
0000
0010
0000
1001
0000
0100
0010
0000
0000
0010
0000
1100
0000
0001
0100
0000
0000
0010
0000
1010
0000
0100
0010
0000
0000
0100
0000
,
0011
0000
0100
0010
0000
0000
0001
0000
1100
0000
0001
0100
0000
0000
0010
0000
1100
0000
0100
0001
0000
0000
0100
0000
0011
0000
0100
0010
0000
0000
0100
0000
,
2002
0000
0000
0000
0000
0000
0000
0000
0000
0000
0000
0000
0000
0000
0000
3003
0110
0000
0000
0000
0001
0000
0010
0000
0000
0000
0000
0000
0010
0000
0000
0000
1100
0000
0000
0000
0001
0000
0010
0000
0000
0000
0000
0000
0100
0000
0000
0000
0011
0000
0000
0000
1000
0000
0100
0000
0000
0000
0000
0000
0010
0000
0000
0000
,
1001
0000
0100
1000
0000
0000
0100
0000
0011
0000
1000
0010
0000
0000
0100
0000
1010
0000
0001
0100
0000
0000
0020
0000
0100
0000
0000
0000
0230
0000
0000
0000
,
0302
0000
0000
0000
0000
0000
0000
0000
0000
0000
0000
0000
0000
0000
0000
0000
0000
0000
1000
0000
0000
0000
0000
0000
0000
0000
0000
0000
0000
0000
0000
0000
0003
0000
0000
0000
0100
0000
0000
0000
0000
0000
0000
0000
0000
0000
0000
0000
0010
0000
0000
0000
0000
0000
0000
0000
0000
0000
0000
0000
0000
0000
0000
0000
0000
0000
0001
0000
0000
0000
0000
0000
0000
0000
0000
0000
0000
0000
0000
0000
0000
0000
0000
0000
1000
0000
0000
0000
0000
0000
0000
0000
0000
0000
0000
0000
0010
0000
0000
0000
0000
0000
0000
0000
0000
0000
0000
0000
0000
0000
0000
0000
0000
0000
0100
0000
0000
0000
0000
0000
0000
0000
0000
0000
0000
0000
0000
0000
0000
0000
0000
0000
0010
0000
0000
0000
0000
0000
0000
0000
0000
0000
0000
0000
1000
0000
0000
0000
0000
0000
0000
0000
0000
0000
0000
0000
0000
0000
0000
0000
0000
0000
0100
0000
0000
0000
0000
0000
0000
0000
0000
0000
0000
0000
0000
0000
0000
0000
0000
0000
0001
0000
0000
0000
0000
0000
0000
0000
0000
0000
0000
0000
,
0110
0000
1000
0100
0000
0000
0001
0000
1100
0000
0010
0100
0000
0000
0001
0000
1100
0000
0010
0100
0000
0000
0001
0000
0110
0000
0100
0001
0000
0000
0010
0000
,
1100
0000
0001
0100
0000
0000
0100
0000
1010
0000
0010
0001
0000
0000
0100
0000
1001
0000
0100
0010
0000
0000
0100
0000
0011
0000
0010
0100
0000
0000
0100
0000
,
0011
0000
0100
1000
0000
0000
0010
0000
0101
0000
0010
0100
0000
0000
1000
0000
0100
1000
0100
1000
0100
1000
0100
1000
0100
1000
0100
1000
0100
1000
0100
1000
,
1100
0010
1100
0100
0011
0100
0011
0001
,
1100
0001
1100
0010
0101
0010
0101
0010
,
1100
0011
1100
0011
0110
1000
0110
0001
,
1010
0001
1100
0100
0011
0001
1010
0001
,
0110
1100
0001
1100
0010
1001
0100
0011
,
0010
1100
0001
1010
0100
0101
0100
1010
,
0011
1000
1100
0011
0010
1100
0010
0101
,
0001
0010
0100
1000
0100
0010
0001
0010
0100
1000
0100
0010
0001
0010
0100
1000
,
0110
0000
0110
0000
0110
0000
1100
0011
,
0110
0000
0000
0000
1100
0000
0000
0000
0011
0000
0000
1000
0101
0000
0110
0000
,
1001
0000
1001
0000
1001
0000
0011
0110
,
1100
0000
0000
0000
0110
0000
0000
0000
0011
0000
0000
0010
1100
0000
0110
0000
,
0101
0000
0101
0000
1010
0000
0110
0011
,
1100
0000
0000
0000
0110
0000
0000
0000
1001
0000
0000
0001
1100
0000
0110
0000
,
0101
0000
0101
0000
0101
0000
0110
0101
,
1000
0010
1000
0010
1000
0010
1000
0010
0100
0001
0100
0001
0100
0001
0100
0001
,
0100
0010
0001
0000
1001
0000
0000
1001
,
0000
0110
0000
1001
0110
0000
0101
0101
,
0100
0001
1100
0000
0110
0000
0100
0011
,
0000
1100
0000
0010
0101
0000
0010
1100
,
0101
1010
1001
0000
0110
0000
0100
0110
,
0000
0110
0000
1000
0110
0000
0011
0110
,
1001
0010
0101
0000
1100
0000
0100
1010
,
0000
0110
0000
0011
0101
0000
0110
1001
,
0011
0010
1100
0000
0110
0000
1000
0011
,
0000
1100
0000
1001
0110
0000
1100
0011
,
0110
0001
1010
0000
0011
0000
0010
1001
,
0000
0110
0000
1100
0101
0000
0110
1001
,
1100
0010
0011
0000
1001
0000
0010
1001
,
0000
0110
0000
0110
1100
0000
0110
0110
,
0100
0001
0100
0001
0100
0001
0100
0001
0100
0001
0100
0001
0100
0001
0100
0001
,
0100
0010
1000
0010
1000
0010
1000
0010
1000
0010
1000
0010
1000
0010
1000
0010
,
1100
0001
0000
0000
0100
0000
0000
0000
0000
0001
0100
0010
1000
0100
0010
0001
,
1000
0010
0000
0000
0010
0000
0000
0000
0000
0100
0010
0100
1000
0100
0010
0001
,
0100
0010
0000
0000
0010
0000
0000
0000
0000
0100
0001
0010
0100
0010
0001
0010
,
0100
1000
0000
0000
0010
0000
0000
0000
0000
0100
1000
0010
0100
0001
1000
0010
,
0100
0010
0000
0000
1000
0000
0000
0000
0000
0100
0010
0001
0010
0100
1000
0100
,
1000
0100
0000
0000
0001
0000
0000
0000
0000
0010
0001
0010
0100
1000
0010
0100
,
0001
1000
0000
0000
0001
0000
0000
0000
0000
0100
0010
1000
0100
0010
0100
0001
,
0100
0010
0000
0000
0001
0000
0000
0000
0000
0010
0100
1000
0001
0010
0100
0010
,
0011
0001
0010
0100
1000
0010
0100
0001
1000
0100
0000
1010
0000
0100
0010
0000
,
1000
0100
1000
0001
0100
0010
1000
0100
0001
0100
0000
0011
0000
0100
0001
0000
,
0010
0001
1000
0100
0001
0100
1000
0010
0100
0001
0000
1100
0000
0010
0100
0000
,
1000
0001
0100
1000
0100
0001
0010
0100
1000
0010
0000
0101
0000
1000
0001
0000
,
0010
0100
1000
0010
0100
0001
0100
0010
1000
0100
0000
0011
0000
0010
1000
0000
,
0010
0100
0001
1000
0100
0010
0100
1000
0010
0100
0000
1010
0000
0010
0001
0000
,
0100
0001
0010
1000
0010
0001
0100
0010
1000
0100
0000
0110
0000
0001
0010
0000
,
1000
0100
1000
0100
1000
0100
1000
0100
0010
0001
0010
0001
0010
0001
0010
0001
,
2000
0100
0001
0100
0020
0031
0010
0100
,
3012
0100
1000
0010
0200
0310
1000
0100
,
1023
0001
1000
0001
0200
0301
1000
0001
,
2130
0010
0001
0100
0020
0031
0010
0100
,
3201
1000
0010
1000
0002
0013
1000
0001
,
2310
0001
0100
0010
0200
0301
0010
0001
,
3120
0001
0100
1000
0200
0301
1000
0100
,
1030
0001
1000
0001
1000
0001
1000
0001
1000
0001
1000
0001
1000
0001
1000
0001
,
1001
0100
0010
0001
0010
0100
0010
0001
0010
0100
1000
0100
0010
0100
1000
0010
,
0100
0001
0100
0010
1000
0100
0010
0001
0010
0100
0010
0100
1000
0010
0100
0010
,
0001
0010
1000
0001
0010
0100
0010
0001
0010
0100
1000
0010
0100
0001
0100
1000
,
0100
0010
0001
0010
0100
0010
0001
0010
0100
1000
0100
0010
1000
0001
0100
0010
,
1000
0100
0010
0001
0010
0100
1000
0010
0100
0001
1000
0100
0010
0100
1000
0010
,
0100
0001
0010
0100
1000
0010
0100
0010
1000
0001
0100
0010
1000
0100
0010
0001
,
0010
0100
0010
0001
1000
0100
0010
0100
1000
0010
0100
0001
1000
0100
1000
0100
,
1000
0100
1000
0100
1000
0001
0100
0001
0100
0001
0100
0001
0100
0001
0100
0001
,
0200
0000
0000
0000
0000
0000
0000
0000
0320
0000
0000
0000
0030
0000
0010
0100
,
2000
0000
0000
0000
0000
0000
0000
0000
0000
0000
0000
0000
0000
0000
0000
0000
0000
0000
0000
0000
0000
0000
0000
0000
0000
0000
0000
0000
0000
0000
0000
0000
0000
0000
0000
0000
0000
0000
0000
0000
0000
0000
0000
0000
0000
0000
0000
0000
3000
0000
0000
0000
0000
0000
0000
0000
0000
0000
0000
0000
0000
0000
0000
0000
0000
0000
0000
0000
0000
0000
0000
0000
1000
0000
0000
0000
0000
0000
0000
0000
0000
0000
0000
0000
0100
0000
0000
0000
0000
0000
0000
0000
0000
0000
0000
0000
0020
0000
0000
0000
0000
0000
0000
0000
0000
0000
0000
0000
0000
0000
0000
0000
0000
0000
0000
0000
0000
0000
0000
0000
0000
0000
0000
0000
0000
0000
0000
0000
0000
0000
0000
0000
0000
0000
0000
0000
0000
0000
0000
0000
0000
0000
0000
0000
0032
0000
0000
0000
0000
0000
0000
0000
0000
0000
0000
0000
0000
0000
0000
0000
0000
0000
0000
0000
0000
0000
0000
0000
0000
0000
0000
0000
0000
0000
0000
0000
0000
0000
0000
0000
0000
0000
0000
0000
0000
0000
0000
0003
0000
0000
0000
0000
,
2200
0000
0000
0000
0000
0000
0000
0000
0000
0000
0000
0000
3300
0000
0000
0000
0220
0000
0000
0000
0000
0000
0000
0000
0000
0000
0000
0000
0000
0000
0000
0330
,
2002
0000
0000
0000
0000
0000
0000
0000
0000
0000
0000
0000
0000
0000
0000
0000
0000
0000
0000
0000
0000
0000
0000
0000
0000
0000
0000
0000
0000
0000
0000
0000
0000
0000
0000
0000
0000
0000
0000
0000
0000
0000
0000
0000
0000
0000
0000
0000
0000
0000
0000
0000
0000
0000
0000
0000
0000
0000
0000
0000
0000
0000
0000
0000
0000
0000
0000
0000
0000
0000
0000
0000
0000
0000
0000
0000
0000
0000
0000
0000
0000
0000
0000
0000
0000
0000
0000
0000
0000
0000
0000
0000
3003
0000
0000
0000
0220
0000
0000
0000
0000
0000
0000
0000
0000
0000
0000
0000
0000
0000
0000
0000
0000
0000
0000
0000
0000
0000
0000
0000
0000
0000
0000
0000
0000
0000
0000
0000
0000
0000
0000
0000
0000
0000
0000
0000
0000
0000
0000
0330
0000
0000
0000
0000
2002
0000
0000
0000
0000
0000
0000
0000
0000
0000
0000
0000
0000
0000
0000
0000
0000
0000
0000
0000
0000
0000
0000
0000
0000
0000
0000
0000
0000
0000
0000
0000
0000
0000
0000
0000
0000
0000
0000
0000
0000
0000
0000
0000
3003
0000
0000
0000
,
0110
0000
1000
0100
0000
0000
0010
0000
1100
0000
0001
0100
0000
0000
0010
0000
0101
0000
0100
1000
0000
0000
0010
0000
0101
0000
0010
0001
0000
0000
0100
0000
,
1010
0000
0100
0001
0000
0000
0100
0000
1100
0000
0010
0001
0000
0000
0001
0000
0110
0000
0010
1000
0000
0000
0010
0000
0101
0000
0010
1000
0000
0000
0100
0000
,
0220
0000
0000
0000
0000
0000
0000
0000
1330
0000
0100
1000
0000
0000
0010
0000
0101
0000
0010
0001
0000
0000
0100
0000
1001
0000
0010
0100
0000
0000
0100
0000
,
1100
0000
0010
0001
0000
0000
0010
0000
1010
0000
0100
0001
0000
0000
0010
0000
0101
0000
0010
0100
0000
0000
1000
0000
0011
0000
0100
1000
0000
0000
0010
0000
,
1100
0000
0000
0001
0000
0000
0100
0000
0001
0000
0000
1000
0000
0000
0010
0000
0100
0000
0000
0001
0000
0000
0100
0000
0001
0000
0000
0010
0000
0000
1000
0000
,
0100
0000
0000
0010
0000
0000
0100
0000
0001
0000
0000
0010
0000
0000
1000
0000
0010
0000
0000
0100
0000
0000
1000
0000
0001
0000
0000
0010
0000
0000
0100
0000
,
0020
0000
0000
0000
2030
0000
0000
0000
3100
0000
0000
0001
0000
0000
0010
0000
1000
0000
0000
0100
0000
0000
0010
0000
1000
0000
0000
0010
0000
0000
0100
0000
,
0001
0000
0000
0001
0000
0000
0010
0000
1000
0000
0000
0100
0000
0000
0001
0000
0010
0001
0010
0001
0010
0001
0010
0001
1000
0100
1000
0100
1000
0100
1000
0100
,
1100
0000
0110
0000
1001
0000
0011
0110
,
0101
0000
0000
0000
0110
0000
0000
0000
1010
0000
0000
0010
1001
0000
0110
0000
,
1001
0000
0110
0000
1100
0000
0110
1100
,
0110
0000
0000
0000
1001
0000
0000
0000
0110
0000
0000
0001
1010
0000
0110
0000
,
1001
0000
0011
0000
0110
0000
0011
0110
,
1100
0000
0000
0000
0110
0000
0000
0000
0011
0000
0000
1000
0110
0000
0011
0000
,
1100
0000
1100
0000
1100
0000
0110
1001
,
0011
0000
0000
0000
0101
0000
0000
0000
1100
0000
0000
0010
0101
0000
0110
0000
,
1100
0001
0110
0000
0110
0000
0000
0110
,
0000
1100
0000
0110
1001
0000
0110
0011
,
1001
0010
0101
0000
1100
0000
0000
0110
,
0000
0110
0000
0011
0110
0000
1100
0110
,
1001
1000
0101
0000
0101
0000
0000
0110
,
0000
0110
0000
0110
1001
0000
1001
1100
,
0110
0001
1100
0000
0110
0000
0000
0011
,
0000
0110
0000
1001
0110
0000
1100
0110
,
1001
0100
0011
0000
1100
0000
0000
0110
,
0000
1001
0000
0011
1010
0000
0110
0011
,
1100
0010
1001
0000
1001
0000
1001
0110
,
0000
1100
0000
0110
0101
0000
0110
1100
,
0101
1000
0011
0000
1010
0000
0000
0110
,
0000
1100
0000
0110
1001
0000
0011
1100
,
1001
0001
1100
0000
0110
0000
0000
0110
,
1000
0100
0010
0001
0010
0100
1000
0100
0010
0001
0010
0100
1000
0100
0010
0001
,
1001
0100
0101
0000
0101
0000
0000
1100
0000
0110
0000
1010
0011
0000
0110
1100
,
0101
1000
0011
0000
1100
0000
0000
0110
0000
1100
0000
0101
1001
0000
0110
1100
,
0101
0010
1001
0000
0110
0000
0000
1100
0000
0110
0000
0011
1100
0000
0101
1010
,
0110
0001
0110
0000
1100
0000
0000
0011
0000
1100
0000
0110
0011
0000
1100
0011
,
1100
0001
0010
0100
1000
0100
0010
0001
0010
0100
1000
0001
0010
0100
1000
0100
,
0010
0001
1000
0100
0010
0001
0010
0100
0010
0001
0010
0100
1000
0100
0010
0100
,
1000
0010
0100
0001
0010
0100
1000
0100
0010
0001
0100
0010
1000
0001
0100
0010
,
1000
0001
0100
0010
1000
0100
0010
0001
0010
0100
0010
0001
0010
0100
1000
0010
,
0100
0001
0010
0100
1000
0100
0010
0001
0100
0010
0100
0001
0010
0100
0010
0001
,
1000
0100
0010
0100
1000
0010
0100
0001
1000
0010
0100
0001
0010
0100
1000
0100
,
0010
0100
1000
0001
0100
0010
1000
0010
0100
0001
0010
0100
1000
0100
0010
0001
,
1000
0100
0010
0001
0010
0100
1000
0100
0010
0100
1000
0010
0100
0001
0100
0010
,
0100
1000
0100
0001
0010
0100
0010
0001
0100
0001
0010
0100
1000
0001
1000
0001
,
0100
0001
1000
0100
0010
0001
0010
0100
1000
0010
0100
0010
1000
0100
0010
0100
,
0010
0001
1000
0100
0010
1000
0010
0100
0010
0001
0010
0100
1000
0100
0010
0100
,
1000
0010
0001
1000
0100
0001
0010
0100
1000
0100
0010
0100
0010
0001
0100
0010
,
0100
1000
0100
0001
0100
1000
0010
0001
0010
1000
0010
0100
0001
0010
0001
1000
,
0100
0010
0001
1000
0001
0100
0001
0010
0100
1000
0010
0100
0001
0010
0100
1000
,
0010
0001
1000
0100
0001
0010
0100
0010
1000
0010
0100
1000
0100
0010
0001
0010
,
0100
1000
0100
0010
0100
1000
0001
0100
0001
1000
0001
0100
0001
0100
0001
0100
,
0002
0000
0000
0000
0203
0000
0301
1000
,
0020
0000
0000
0000
0000
0000
0000
0000
0000
0000
0000
0000
0000
0000
0000
0000
0000
0000
0000
0000
0000
0000
0000
0000
0000
0000
0000
0000
0000
0000
0000
0000
2230
0000
0000
0000
0000
0000
0000
0000
0000
0000
0000
0000
0000
0000
0000
0000
3322
0000
0000
0000
0000
0000
0000
0000
0000
0000
0000
0000
0000
0000
0000
0033
,
2002
0000
0000
0000
,
0000
0000
0000
0000
,
0000
0000
0000
0000
,
0000
0000
3003
0000
;

//---------------dance-single - Spread----------------
#NOTES:
     dance-single:
     Spread:
     Challenge:
     13:
     1.000,1.000,1.000,0.220,1.000,1817.000,722.000,70.000,0.000,20.000:

0000
0000
0000
0000
,
1100
0000
0000
0000
0011
0000
0000
0000
0000
0000
0000
0000
0000
0000
0000
0000
0000
0110
0000
0000
0000
0000
0000
0000
0000
0000
0000
0000
0000
0000
0000
0000
0000
0000
0000
0000
1000
0000
0000
0000
0100
0000
0000
0000
0001
0000
0000
0000
1100
0000
0000
0000
0001
0000
0000
0000
0010
0000
0000
0000
1000
0000
0000
0000
,
0101
0000
0000
0000
0010
0000
0000
0000
0000
0000
0000
0000
0000
0000
0000
0000
0000
1100
0000
0000
0000
0000
0000
0000
0000
0000
0000
0000
0000
0000
0000
0000
0000
0000
0000
0000
1000
0000
0000
0000
0010
0000
0000
0000
0001
0000
0000
0000
1100
0000
0000
0000
0010
0000
0000
0000
0001
0000
0000
0000
1000
0000
0000
0000
,
0011
0000
0000
0000
1000
0000
0000
0000
0000
0000
0000
0000
0000
0000
0000
0000
0000
1100
0000
0000
0000
0000
0000
0000
0000
0000
0000
0000
0000
0000
0000
0000
0000
0000
0000
0000
0001
0000
0000
0000
0010
0000
0000
0000
1000
0000
0000
0000
0011
0000
0000
0000
1000
0000
0000
0000
0010
0000
0000
0000
0001
0000
0000
0000
,
0110
0000
0000
0000
0001
0000
0000
0000
0000
0000
0000
0000
0000
0000
0000
0000
0000
1001
0000
0000
0000
0000
0000
0000
0000
0000
0000
0000
0000
0000
0000
0000
0000
0000
0000
0000
0001
0000
0000
0000
0100
0000
0000
0000
0010
0000
0000
0000
1100
0000
0000
0000
0010
0000
0000
0000
0001
0000
0000
0000
1000
0000
0000
0000
,
0101
0000
0000
0000
0010
0000
0000
0000
0000
0000
0000
0000
0000
0000
0000
0000
0000
0101
0000
0000
0000
0000
0000
0000
0000
0000
0000
0000
0000
0000
0000
0000
0000
0000
0000
0000
1000
0000
0000
0000
0100
0000
0000
0000
0001
0000
0000
0000
0110
0000
0000
0000
1000
0000
0000
0000
0001
0000
0000
0000
0100
0000
0000
0000
,
0011
0000
0000
0000
0100
0000
0000
0000
0000
0000
0000
0000
0000
0000
0000
0000
0000
1001
0000
0000
0000
0000
0000
0000
0000
0000
0000
0000
0000
0000
0000
0000
0000
0000
0000
0000
1000
0000
0000
0000
0001
0000
0000
0000
0100
0000
0000
0000
0011
0000
0000
0000
1000
0000
0000
0000
0010
0000
0000
0000
0001
0000
0000
0000
,
1100
0000
0000
0000
0010
0000
0000
0000
0000
0000
0000
0000
0000
0000
0000
0000
0000
1100
0000
0000
0000
0000
0000
0000
0000
0000
0000
0000
0000
0000
0000
0000
0000
0000
0000
0000
0001
0000
0000
0000
0010
0000
0000
0000
0100
0000
0000
0000
0011
0000
0000
0000
0100
0000
0000
0000
0001
0000
0000
0000
1000
0000
0000
0000
,
0101
0000
0000
0000
0000
0000
0000
0000
0000
0000
0000
0000
1000
0000
0000
0000
0000
0000
0000
0000
0000
0000
0000
0000
0000
0000
0000
0000
0000
0000
0000
0000
0000
0000
0000
0000
0000
0000
0000
0000
0000
0000
0000
0000
0000
0000
0000
0000
0000
0000
0000
0011
0000
0000
0000
0000
0000
0000
0000
0000
0000
0000
0000
0000
0000
0000
0000
0000
0000
0000
0000
0000
0000
0000
0000
0000
0000
0000
0000
0000
0000
0000
0000
0000
0000
0000
0000
0000
0000
0000
0000
0000
0000
0000
0000
0000
0000
0000
0000
0000
0000
0000
0000
0000
0000
0000
0000
0000
1000
0000
0000
0000
0000
0000
0000
0000
0000
0000
0000
0000
0100
0000
0000
0000
0000
0000
0000
0000
0000
0000
0000
0000
0001
0000
0000
0000
0000
0000
0000
0000
0000
0000
0000
0000
1000
0000
0000
0000
0000
0000
0000
0000
0100
0000
0000
0000
0000
0000
0000
0000
0001
0000
0000
0000
0000
0000
0000
0000
1000
0000
0000
0000
0000
0000
0000
0000
0100
0000
0000
0000
0000
0000
0000
0000
0001
0000
0000
0000
0000
0000
0000
0000
,
1100
0101
0110
1001
,
1010
0101
0101
1100
,
0101
1001
0101
0101
,
1100
0000
1100
0000
0101
0000
0101
1100
,
0101
1010
0101
0101
,
1100
0011
0110
1001
,
1010
0101
0101
1010
,
0011
1001
1010
0011
,
1100
0010
0001
0010
1100
0010
0001
0010
1100
0010
0000
0010
1100
0001
0010
0000
,
0011
0100
1000
0100
0011
0100
1000
0100
0011
1000
0000
0100
0011
1000
0100
0000
,
0110
0001
1000
0001
0110
1000
0001
1000
0110
0001
0000
1000
0110
0001
1000
0000
,
1010
0001
0100
0001
1010
0001
0100
0001
1010
0001
0000
0100
1010
0001
0010
0000
,
0101
0010
1000
0010
0101
1000
0010
1000
0101
0010
0000
0010
0101
1000
0010
0000
,
1100
0010
0100
0010
1100
0010
0100
0010
1100
0010
0000
0010
1100
0010
0100
0000
,
0011
0100
0010
0100
0011
0100
0010
0100
0011
0100
0000
0100
0011
0100
0010
0000
,
1010
0100
1000
0100
1010
0001
0010
0100
1001
0100
0010
0001
1010
0100
0010
0001
,
1100
0000
0000
0000
1010
0001
0010
0100
1010
0100
0010
0001
1010
0100
1000
0100
,
0011
0100
0010
0100
1010
0100
0001
1000
0110
0001
1000
0010
0101
0010
1000
0001
,
1100
0010
1100
0010
1100
0001
0010
1000
0110
1000
0010
0100
0011
0100
1000
0010
,
0101
0010
0100
0001
1100
0010
0100
1000
0110
0001
0010
0100
0011
0100
0010
0100
,
1010
0100
1010
0100
1010
0001
0100
0010
1100
0010
0001
1000
0011
0100
1000
0001
,
0110
1000
0100
0001
1100
0010
0100
1000
0011
1000
0100
0001
0110
1000
0001
0010
,
1001
0100
1001
0100
1001
0010
1000
0001
0110
1000
0010
0001
0110
0001
1000
0010
,
0101
1000
0100
1000
0011
0100
0001
0010
1100
0001
0100
1000
0110
0001
0010
0100
,
1001
0000
1100
0010
1001
0100
1000
0001
1010
0100
0010
0001
1100
0010
1000
0100
,
0011
0100
1000
0010
0101
1000
0010
0100
1001
0010
1000
0001
0110
0001
0100
0010
,
1100
0010
1100
0010
1100
0001
0010
1000
0110
0001
0010
0100
1010
0100
0010
0001
,
0110
1000
0100
0001
1010
0100
1000
0010
1100
0010
0100
1000
0101
0010
1000
0100
,
0011
0100
0011
0100
0011
1000
0100
0010
0101
1000
0001
0010
1100
0001
0100
0010
,
0101
1000
0100
0001
1010
0100
0001
0010
1001
0010
0001
1000
0110
0001
1000
0010
,
1100
0001
1100
0001
1100
0010
0100
0001
0110
0001
1000
0100
1001
0100
0010
0100
,
0011
0100
0001
0010
1001
0010
0100
0001
0110
0001
0100
0010
0101
0010
1000
0010
,
2200
0000
0000
0000
0000
0000
0000
0000
0000
0000
0000
0000
0000
0000
0000
0000
0000
0000
0000
0000
0000
0000
0000
0000
0000
0000
0000
0000
0000
0000
0000
3300
0000
0200
0000
0000
0000
0000
0000
0000
0000
0000
0000
0000
0000
0000
0000
0000
0300
0002
0000
0000
0000
0000
0000
0000
0003
0200
0000
0000
0000
0000
0000
0000
,
0300
0020
0000
0000
0000
0000
0000
0000
0000
0000
0000
0000
0000
0000
0000
0000
0000
0000
0000
0000
0000
0000
0000
0000
0000
0000
0000
0000
0000
0000
0000
0000
0030
2200
0000
0000
0000
0000
0000
0000
0000
0000
0000
0000
0000
0000
0000
3300
0000
0202
0000
0000
0000
0000
0000
0000
0000
0000
0000
0000
0000
0000
0000
0000
,
0303
2002
0000
0000
0000
0000
0000
0000
0000
0000
0000
0000
0000
0000
0000
0000
3003
0000
0000
0000
0000
0000
0000
0000
0000
0000
0000
0000
0000
0000
0000
0000
0220
0000
0000
0000
0000
0000
0000
0000
0000
0000
0000
0000
0000
0000
0000
0000
2330
0000
0000
0000
0000
0000
0000
0000
3020
0000
0000
0000
0000
0000
0000
0000
,
0232
0000
0000
0000
0000
0000
0000
0000
0303
0000
0000
0000
0000
0000
0000
0000
0000
0000
0000
0000
0000
0000
0000
0000
1100
0000
0000
0000
0000
0000
0000
0000
0200
0000
0000
0000
0000
0000
0000
0000
0000
0000
0000
0000
0000
0000
0000
0000
0302
0000
0000
0000
0000
0000
0000
0000
0000
0000
0000
0000
0000
0000
0000
0003
,
1100
0000
0001
0110
0000
0000
0110
0000
1001
0000
0100
1010
0000
0000
0110
0000
0101
0000
1000
0110
0000
0000
0011
0000
0110
0000
1000
0011
0000
0000
1100
0000
,
1001
0000
0001
1010
0000
0000
0011
0000
0110
0000
0001
1100
0000
0000
0101
0000
1100
0000
0100
0011
0000
0000
1100
0000
0101
0000
1000
0011
0000
0000
0110
0000
,
2002
0000
0000
0000
0000
0000
0000
0000
0000
0000
0000
0000
0000
0000
0000
3003
0110
0000
0000
0000
0100
0000
1010
0000
0000
0000
0000
0000
0011
0000
0000
0000
1010
0000
0000
0000
0001
0000
0110
0000
0000
0000
0000
0000
0110
0000
0000
0000
1001
0000
0000
0000
0010
0000
0101
0000
0000
0000
0000
0000
0110
0000
0000
0000
,
0101
0000
0100
1010
0000
0000
1100
0000
0101
0000
1000
0110
0000
0000
0101
0000
1100
0000
0001
0110
0000
0000
0020
0000
0001
0000
0000
0000
2030
0000
0000
0000
,
3002
0000
0000
0000
0000
0000
0000
0000
0000
0000
0000
0000
0000
0000
0000
0000
0000
0000
1000
0000
0000
0000
0000
0000
0000
0000
0000
0000
0000
0000
0000
0000
0003
0000
0000
0000
1100
0000
0000
0000
0000
0000
0000
0000
0000
0000
0000
0000
0110
0000
0000
0000
0000
0000
0000
0000
0000
0000
0000
0000
0000
0000
0000
0000
0000
0000
0101
0000
0000
0000
0000
0000
0000
0000
0000
0000
0000
0000
0000
0000
0000
0000
0000
0000
1100
0000
0000
0000
0000
0000
0000
0000
0000
0000
0000
0000
0110
0000
0000
0000
0000
0000
0000
0000
0000
0000
0000
0000
0000
0000
0000
0000
0000
0000
0101
0000
0000
0000
0000
0000
0000
0000
0000
0000
0000
0000
0000
0000
0000
0000
0000
0000
1100
0000
0000
0000
0000
0000
0000
0000
0000
0000
0000
0000
0101
0000
0000
0000
0000
0000
0000
0000
0000
0000
0000
0000
0000
0000
0000
0000
0000
0000
0110
0000
0000
0000
0000
0000
0000
0000
0000
0000
0000
0000
0000
0000
0000
0000
0000
0000
0011
0000
0000
0000
0000
0000
0000
0000
0000
0000
0000
0000
,
0110
0000
0010
1100
0000
0000
0011
0000
1100
0000
1000
0110
0000
0000
0011
0000
1100
0000
0010
1100
0000
0000
1001
0000
1010
0000
0001
0110
0000
0000
0110
0000
,
1100
0000
0010
1100
0000
0000
0110
0000
1010
0000
0010
0101
0000
0000
0110
0000
1001
0000
0100
0011
0000
0000
1100
0000
0011
0000
1000
0110
0000
0000
0101
0000
,
1001
0000
0100
1010
0000
0000
0110
0000
0101
0000
0010
0110
0000
0000
1000
0000
0001
0010
0100
1000
0100
0010
0001
0010
0100
0010
0001
0010
0100
1000
0100
0010
,
1100
0110
1100
0110
0011
1100
0011
0101
,
1010
0101
1010
0101
1001
0110
1100
0101
,
1100
0101
1100
1010
0110
1100
0110
0101
,
0110
0011
1100
0011
1010
0101
1001
0101
,
0011
1100
0101
1010
0110
0101
1100
0101
,
0011
1010
0101
0011
1100
0011
0110
1010
,
0101
1010
0110
1010
0110
1100
0011
0101
,
0001
0010
1000
0100
0001
0010
1000
0100
0001
0010
1000
0100
0001
0010
0100
1000
,
0101
0000
1001
0000
1100
0000
1001
0110
,
1001
0000
0000
0000
0110
0000
0000
0000
0110
0000
0000
1010
0110
0000
0101
0000
,
1100
0000
1010
0000
0011
0000
0011
1100
,
0011
0000
0000
0000
0101
0000
0000
0000
1001
0000
0000
0011
1100
0000
1010
0000
,
0011
0000
1100
0000
0110
0000
1010
0101
,
1010
0000
0000
0000
0011
0000
0000
0000
1001
0000
0000
0101
1010
0000
0101
0000
,
1001
0000
1010
0000
0110
0000
1010
0011
,
1100
0010
1000
0010
1100
0010
1000
0010
1100
0001
0100
0001
1100
0001
0100
0001
,
1100
0010
0001
0000
0101
0000
0000
1001
,
0000
0110
0000
0101
1010
0000
0101
0101
,
0100
0001
1010
0000
0101
0000
1100
0101
,
0000
1100
0000
0110
1001
0000
0011
1001
,
1100
0011
1010
0000
1010
0000
0101
0110
,
0000
0101
0000
1001
1010
0000
0101
1010
,
1001
0110
1001
0000
1010
0000
0101
0011
,
0000
1010
0000
1010
0110
0000
0011
1100
,
0101
0110
1001
0000
0101
0000
1010
0101
,
0000
1010
0000
1001
0101
0000
1100
0101
,
1010
0101
0110
0000
0011
0000
0110
0101
,
0000
0101
0000
1010
0101
0000
1010
1001
,
1100
0110
0011
0000
0110
0000
1010
0101
,
0000
1001
0000
0011
1010
0000
1100
0110
,
1100
0001
0010
0100
1000
0001
0010
1000
0100
0010
0100
1000
0100
0001
0010
0001
,
0100
0010
0001
0010
0100
1000
0100
0010
1000
0010
0001
0100
0010
0001
1000
0010
,
1100
0000
0000
0000
0011
0000
0000
0000
0000
0000
0000
0000
0000
0000
0000
0000
0000
0100
0000
0000
0000
0000
0000
0000
0000
0000
0000
0000
0000
0000
0000
0000
0000
0000
0000
0000
0001
0000
0000
0000
0010
0000
0000
0000
0100
0000
0000
0000
1010
0000
0000
0000
0100
0000
0000
0000
0001
0000
0000
0000
0100
0000
0000
0000
,
1010
0000
0000
0000
0100
0000
0000
0000
0000
0000
0000
0000
0000
0000
0000
0000
0000
0010
0000
0000
0000
0000
0000
0000
0000
0000
0000
0000
0000
0000
0000
0000
0000
0000
0000
0000
0001
0000
0000
0000
0010
0000
0000
0000
1000
0000
0000
0000
0110
0000
0000
0000
1000
0000
0000
0000
0010
0000
0000
0000
0100
0000
0000
0000
,
0011
0000
0000
0000
1000
0000
0000
0000
0000
0000
0000
0000
0000
0000
0000
0000
0000
0010
0000
0000
0000
0000
0000
0000
0000
0000
0000
0000
0000
0000
0000
0000
0000
0000
0000
0000
1000
0000
0000
0000
0001
0000
0000
0000
0100
0000
0000
0000
1010
0000
0000
0000
0100
0000
0000
0000
0001
0000
0000
0000
0010
0000
0000
0000
,
0101
0000
0000
0000
0010
0000
0000
0000
0000
0000
0000
0000
0000
0000
0000
0000
0000
0010
0000
0000
0000
0000
0000
0000
0000
0000
0000
0000
0000
0000
0000
0000
0000
0000
0000
0000
1000
0000
0000
0000
0100
0000
0000
0000
0001
0000
0000
0000
1100
0000
0000
0000
0001
0000
0000
0000
0010
0000
0000
0000
1000
0000
0000
0000
,
0101
0000
0000
0000
1000
0000
0000
0000
0000
0000
0000
0000
0000
0000
0000
0000
0000
1000
0000
0000
0000
0000
0000
0000
0000
0000
0000
0000
0000
0000
0000
0000
0000
0000
0000
0000
0100
0000
0000
0000
1000
0000
0000
0000
0001
0000
0000
0000
0110
0000
0000
0000
1000
0000
0000
0000
0010
0000
0000
0000
0100
0000
0000
0000
,
0011
0000
0000
0000
0100
0000
0000
0000
0000
0000
0000
0000
0000
0000
0000
0000
0000
0001
0000
0000
0000
0000
0000
0000
0000
0000
0000
0000
0000
0000
0000
0000
0000
0000
0000
0000
0010
0000
0000
0000
0100
0000
0000
0000
0001
0000
0000
0000
1100
0000
0000
0000
0010
0000
0000
0000
0001
0000
0000
0000
0100
0000
0000
0000
,
1001
0000
0000
0000
0010
0000
0000
0000
0000
0000
0000
0000
0000
0000
0000
0000
0000
0001
0000
0000
0000
0000
0000
0000
0000
0000
0000
0000
0000
0000
0000
0000
0000
0000
0000
0000
0001
0000
0000
0000
0010
0000
0000
0000
1000
0000
0000
0000
0101
0000
0000
0000
1000
0000
0000
0000
0010
0000
0000
0000
0100
0000
0000
0000
,
1010
0000
0000
0000
0001
0000
0000
0000
0000
0000
0000
0000
0000
0000
0000
0000
0000
0001
0000
0000
0000
0000
0000
0000
0000
0000
0000
0000
0000
0000
0000
0000
0000
0000
0000
0000
1000
0000
0000
0000
0100
0000
0000
0000
1000
0000
0000
0000
0101
0000
0000
0000
0010
0000
0000
0000
0100
0000
0000
0000
1000
0000
0000
0000
,
0101
0010
0001
0100
1010
0100
0010
0100
1001
0100
0000
0011
0000
0100
0010
0000
,
1100
0010
1000
0001
1100
0001
0010
0100
1010
0100
0000
0011
0000
1000
0100
0000
,
0110
0001
0010
0100
0011
1000
0001
0100
1001
0010
0000
1100
0000
0001
0100
0000
,
0110
0001
0010
0001
1100
0001
0010
0001
1010
0100
0000
0101
0000
1000
0100
0000
,
0011
1000
0010
0001
1100
0001
0100
0001
1010
0100
0000
0011
0000
0100
0001
0000
,
0011
1000
0010
1000
0110
0001
0010
0100
0011
0100
0000
1010
0000
0010
0100
0000
,
1100
0010
0100
0001
1010
0100
0001
0010
1001
0100
0000
0110
0000
0100
0010
0000
,
1010
0100
0010
0100
1010
0100
0010
0100
1010
0001
0100
0001
1010
0001
0100
0001
,
2000
0100
0001
0100
0020
0031
0010
0100
,
3012
0100
1000
0010
0200
0310
1000
0100
,
1023
0001
1000
0001
0200
0301
1000
0001
,
2130
0010
0001
0100
0020
0031
0010
0100
,
3201
1000
0010
1000
0002
0013
1000
0001
,
2310
0001
0100
0010
0200
0301
0010
0001
,
3120
0001
0100
1000
0200
0301
1000
0100
,
1030
0001
1000
0001
1000
0001
1000
0001
1000
0001
1000
0001
1000
0001
1000
0001
,
1010
0100
1000
0001
1010
0001
0010
0100
1010
0001
0010
0001
1010
0100
1000
0001
,
1010
0001
1000
0100
1010
0001
1000
0100
1010
0001
1000
0100
1010
0100
0001
0100
,
1010
0001
1000
0100
1010
0100
0010
0001
1010
0001
0010
0100
1010
0001
1000
0100
,
1010
0100
0001
0100
1010
0001
0010
0100
1010
0001
0100
0001
1010
0100
1000
0100
,
1010
0100
1000
0100
1010
0001
0010
0100
1010
0001
1000
0100
1010
0001
1000
0001
,
1010
0100
0010
0100
1010
0001
1000
0100
1010
0100
1000
0001
1010
0100
0010
0001
,
1010
0100
1000
0100
1010
0001
1000
0100
1010
0100
0010
0100
1010
0001
0010
0100
,
1010
0100
1000
0100
1010
0001
0100
0001
1010
0001
0100
0001
1010
0001
0100
0001
,
0200
0000
0000
0000
0000
0000
0000
0000
0320
0000
0000
0000
0030
0000
0010
0100
,
2000
0000
0000
0000
0000
0000
0000
0000
0000
0000
0000
0000
0000
0000
0000
0000
0000
0000
0000
0000
0000
0000
0000
0000
0000
0000
0000
0000
0000
0000
0000
0000
0000
0000
0000
0000
0000
0000
0000
0000
0000
0000
0000
0000
0000
0000
0000
0000
3000
0000
0000
0000
0000
0000
0000
0000
0000
0000
0000
0000
0000
0000
0000
0000
0000
0000
0000
0000
0000
0000
0000
0000
1000
0000
0000
0000
0000
0000
0000
0000
0000
0000
0000
0000
0100
0000
0000
0000
0000
0000
0000
0000
0000
0000
0000
0000
0020
0000
0000
0000
0000
0000
0000
0000
0000
0000
0000
0000
0000
0000
0000
0000
0000
0000
0000
0000
0000
0000
0000
0000
0000
0000
0000
0000
0000
0000
0000
0000
0000
0000
0000
0000
0000
0000
0000
0000
0000
0000
0000
0000
0000
0000
0000
0000
0032
0000
0000
0000
0000
0000
0000
0000
0000
0000
0000
0000
0000
0000
0000
0000
0000
0000
0000
0000
0000
0000
0000
0000
0000
0000
0000
0000
0000
0000
0000
0000
0000
0000
0000
0000
0000
0000
0000
0000
0000
0000
0000
0003
0000
0000
0000
0000
,
2020
0000
0000
0000
0000
0000
0000
0000
0000
0000
0000
0000
0000
0000
3030
0000
0200
0000
0000
0000
0000
0000
0000
0000
0000
0000
0000
0000
0000
0000
0000
0300
,
2002
0000
0000
0000
0000
0000
0000
0000
0000
0000
0000
0000
0000
0000
0000
0000
0000
0000
0000
0000
0000
0000
0000
0000
0000
0000
0000
0000
0000
0000
0000
0000
0000
0000
0000
0000
0000
0000
0000
0000
0000
0000
0000
0000
0000
0000
0000
0000
0000
0000
0000
0000
0000
0000
0000
0000
0000
0000
0000
0000
0000
0000
0000
0000
0000
0000
0000
0000
0000
0000
0000
0000
0000
0000
0000
0000
0000
0000
0000
0000
0000
0000
0000
0000
0000
0000
0000
0000
0000
0000
0000
0000
3003
0000
0000
0000
0220
0000
0000
0000
0000
0000
0000
0000
0000
0000
0000
0000
0000
0000
0000
0000
0000
0000
0000
0000
0000
0000
0000
0000
0000
0000
0000
0000
0000
0000
0000
0000
0000
0000
0000
0000
0000
0000
0000
0000
0000
0000
0000
0330
0000
0000
0000
0000
2002
0000
0000
0000
0000
0000
0000
0000
0000
0000
0000
0000
0000
0000
0000
0000
0000
0000
0000
0000
0000
0000
0000
0000
0000
0000
0000
0000
0000
0000
0000
0000
0000
0000
0000
0000
0000
0000
0000
0000
0000
0000
0000
0000
3003
0000
0000
0000
,
0110
0000
1000
0110
0000
0000
0011
0000
1100
0000
0001
0110
0000
0000
1010
0000
0101
0000
0010
1001
0000
0000
1010
0000
0101
0000
0010
0001
0100
0000
1100
0000
,
1010
0000
0100
0011
0000
0000
0101
0000
1100
0000
0010
0101
0000
0000
1001
0000
0110
0000
1000
0110
0000
0000
0011
0000
0101
0000
0010
1100
0000
0000
0101
0000
,
0220
0000
0000
0000
0000
0000
0000
0000
1330
0000
0100
1001
0000
0000
1010
0000
0101
0000
0100
0011
0000
0000
0110
0000
1001
0000
0001
1010
0000
0000
0101
0000
,
1010
0000
0010
0101
0000
0000
0110
0000
1010
0000
0100
0011
0000
0000
1010
0000
1001
0000
0100
0011
0000
0000
1100
0000
1001
0000
0001
1010
0000
0000
0110
0000
,
1010
0000
0000
0001
0000
0000
0100
0000
0001
0000
0000
1000
0000
0000
0010
0000
0100
0000
0000
0001
0000
0000
0100
0000
0001
0000
0000
0010
0000
0000
1000
0000
,
0100
0000
0000
0010
0000
0000
0100
0000
0001
0000
0000
0010
0000
0000
1000
0000
0010
0000
0000
0100
0000
0000
1000
0000
0001
0000
0000
0010
0000
0000
0100
0000
,
0022
0000
0000
0000
2233
0000
0000
0000
3310
0000
0000
0001
0000
0000
0010
0000
1000
0000
0000
0100
0000
0000
0010
0000
1000
0000
0000
0010
0000
0000
0100
0000
,
0001
0000
0000
0100
0000
0000
0001
0000
1000
0000
0000
0100
0000
0000
1000
0000
0100
0010
0001
1000
0100
0010
0001
0010
0100
1000
0001
0010
0100
1000
0001
0010
,
1100
0000
0011
0000
0101
0000
1001
0110
,
0101
0000
0000
0000
0110
0000
0000
0000
1010
0000
0000
1100
0011
0000
1010
0000
,
0101
0000
0101
0000
1001
0000
1010
1001
,
0110
0000
0000
0000
0011
0000
0000
0000
0110
0000
0000
0011
1100
0000
1010
0000
,
0101
0000
1001
0000
0101
0000
1001
0011
,
1100
0000
0000
0000
0110
0000
0000
0000
0011
0000
0000
1100
0011
0000
0011
0000
,
1100
0000
1100
0000
1100
0000
0110
1001
,
0011
0000
0000
0000
0101
0000
0000
0000
1100
0000
0000
0010
0101
0000
0110
0000
,
1100
0001
0110
0000
0110
0000
0000
0110
,
0000
1100
0000
0110
1001
0000
0110
0011
,
1001
0110
1001
0000
1100
0000
0000
0110
,
0000
0110
0000
0011
0110
0000
1100
0110
,
1001
1010
1001
0000
0101
0000
0000
0110
,
0000
0110
0000
0110
1001
0000
1001
1100
,
0110
1001
1100
0000
0110
0000
0000
0011
,
0000
0110
0000
1001
0110
0000
1100
0110
,
1001
1100
0101
0000
1100
0000
0000
0110
,
0000
1001
0000
0011
1010
0000
0110
0011
,
1100
0011
1001
0000
1001
0000
1001
0110
,
0000
1100
0000
0110
0101
0000
0110
1001
,
0101
1010
0101
0000
1100
0000
0000
0101
,
0000
1100
0000
0110
1001
0000
0011
1100
,
1001
0101
1100
0000
0110
0000
0000
0110
,
1000
0100
0001
0010
1000
0100
0001
0010
1000
0100
0010
0001
1000
0100
0010
0001
,
1010
0001
1100
0000
0101
0000
0000
1100
0000
0110
0000
1100
0101
0000
0101
1010
,
0101
1100
0011
0000
1100
0000
0000
0101
0000
1100
0000
0110
0101
0000
0110
1100
,
0101
1010
1001
0000
0110
0000
0000
1100
0000
0101
0000
0011
1100
0000
0101
1010
,
0110
1001
0011
0000
1100
0000
0000
0011
0000
1001
0000
0110
0011
0000
1100
0011
,
1100
0001
0010
1000
0100
0001
0010
0100
0010
0001
0010
1000
0100
0001
0100
1000
,
0100
0001
0010
0100
0010
0001
0010
0100
0010
0001
0010
1000
0001
0100
0010
0100
,
1000
0001
0100
1000
0010
0001
1000
0100
1000
0010
0001
0010
1000
0100
0001
0100
,
1000
0001
0100
0001
1000
0100
1000
0010
0001
0010
0100
0001
0010
0001
1000
0100
,
0001
0010
1000
0100
1000
0100
1000
0100
0010
1000
0001
0100
0010
0100
0010
0001
,
0010
0001
0010
0100
1000
0100
0010
1000
0100
0001
0100
0001
0010
0100
1000
0010
,
1000
0001
1000
0010
0001
0100
0001
1000
0100
0001
0010
0100
1000
0100
0010
0001
,
1010
0100
0010
0001
1010
0100
1000
0100
1010
0100
1000
0010
1100
0001
0100
0010
,
0001
1000
0100
1000
0010
0100
0010
0001
0100
1000
0010
0001
1000
0100
1000
0001
,
0100
1000
0010
0100
1000
0010
0100
0001
1000
0001
0010
0001
1000
0100
0001
0100
,
1000
0100
0010
0001
1000
0100
0010
0001
1000
0010
0001
0100
1000
0100
0001
0010
,
1000
0010
0001
1000
0100
0010
0001
0100
1000
0100
0001
1000
0010
0001
1000
0010
,
0001
1000
0010
0001
0100
1000
0010
0100
0010
1000
0001
0100
1000
0010
0100
0001
,
0100
1000
0010
0100
1000
0100
0010
0001
0100
1000
0001
1000
0001
0010
0100
1000
,
0010
0001
1000
0100
0001
0010
0100
0010
1000
0010
0100
1000
0001
0010
0001
0010
,
0002
1000
0100
0010
0103
1000
0001
0100
0002
1000
0010
0100
1003
0100
0001
0100
,
0002
0000
0000
0000
2003
0000
3100
0001
,
0020
0000
0000
0000
0000
0000
0000
0000
0000
0000
0000
0000
0000
0000
0000
0000
0000
0000
0000
0000
0000
0000
0000
0000
0000
0000
0000
0000
0000
0000
0000
0000
2230
0000
0000
0000
0000
0000
0000
0000
0000
0000
0000
0000
0000
0000
0000
0000
3322
0000
0000
0000
0000
0000
0000
0000
0000
0000
0000
0000
0000
0000
0000
0033
,
2002
0000
0000
0000
,
0000
0000
0000
0000
,
0000
0000
0000
0000
,
0000
0000
3003
0000
;
