#TITLE:Underworld Evolution - Washing Away Me In The Tides.;
#SUBTITLE:Ascendancy (2005);
#ARTIST:Trivium;
#TITLETRANSLIT:;
#SUBTITLETRANSLIT:;
#ARTISTTRANSLIT:;
#CREDIT:;
#BANNER:Underworld - Banner.jpg;
#BACKGROUND:Underworld - Background.jpg;
#LYRICSPATH:;
#CDTITLE:cdtitle.gif;
#MUSIC:Trivium - Washing Away Me In The Tides - Underworld Evolution Soundtrack.mp3;
#OFFSET:0.080;
#SAMPLESTART:100.000;
#SAMPLELENGTH:12.000;
#SELECTABLE:YES;
#BPMS:0.000=220.040,161.000=110.020,193.000=220.040,321.000=110.020,369.000=220.040,465.000=110.020,473.000=220.040,585.000=110.020;
#STOPS:;
#BGCHANGES:;
// cache tags:
#FIRSTBEAT:1.000;
#LASTBEAT:660.000;
#SONGFILENAME:Songs/Astronomic Metal Collection/Underworld (N.T.M.)/Trivium - Washing Away Me In The Tides - Underworld Evolution Soundtrack.sm;
#HASMUSIC:1;
#HASBANNER:1;
#MUSICLENGTH:226.833;
// end cache tags

//---------------dance-single - ----------------
#NOTES:
     dance-single:
     :
     Hard:
     13:
     0.985,1.000,0.538,0.573,0.935,1312.000,122.000,130.000,0.000,46.000:
0000
0000
0000
0000
0010
1000
0010
0000
0010
1000
0010
0000
0001
0000
0100
0000
,
0010
1000
0010
0000
0010
1000
0010
0000
0010
1000
0010
0000
0020
0000
0000
0000
,
1030
0002
0000
0000
0203
0000
0301
0010
,
0100
2000
0000
3001
0010
0100
1000
0100
,
0010
0001
0010
0000
0000
0000
1100
0000
,
0000
0010
0001
1100
,
0000
0010
0000
0100
0010
0000
1100
0000
,
0000
0010
0000
0100
0010
0000
1100
0010
,
0001
0100
0000
1001
,
0000
0100
0010
1001
,
0000
1000
0000
0010
1000
0000
1001
0000
,
0000
1000
0000
0010
1000
0000
1001
0100
,
0010
1000
0000
0101
,
0000
1000
0010
0101
,
0000
0010
0000
1000
0010
0000
0101
0000
,
0000
0000
0110
0000
0110
0000
0000
0000
1000
0001
1000
0001
1000
0000
0100
0000
,
0010
0001
1000
0000
0000
0000
0011
0000
,
0000
0100
1000
0011
,
0000
0100
0000
1000
0100
0000
0011
0000
,
0000
0100
0000
1000
0100
0000
0011
0100
,
1000
0001
0000
1010
,
0000
0001
0100
1010
,
0000
0100
0000
0010
0100
0000
1010
0000
,
0000
0110
0110
0000
1000
0001
1000
0001
,
1000
0000
0000
0000
0001
0010
0100
1000
0001
0000
0000
0000
1000
0100
0010
0001
,
1000
0000
0000
0000
0001
0010
0100
1000
0001
0000
0000
0000
1000
0000
0000
0000
,
0010
0000
0000
0000
0100
0010
1000
0001
0100
0000
0000
0000
0010
0100
0001
1000
,
0010
0000
0000
0000
0100
0010
1000
0001
0100
0000
0000
0000
1000
0000
0000
0000
,
0010
0000
0000
0000
0001
0100
0010
1000
0001
0000
0000
0000
1000
0010
0100
0001
,
1000
0000
0000
0000
0001
0100
0010
1000
0001
0000
0000
0000
0100
0000
0000
0000
,
1000
0000
0000
0000
0010
0100
1000
0001
0010
0000
0000
0000
0100
0010
0001
1000
,
0100
0000
0000
0000
0010
0100
1000
0001
0010
0000
0000
0000
0100
0000
0000
0000
,
0001
0000
0000
0000
1000
0100
0010
0100
0010
0001
0010
0100
0010
0100
1000
0010
,
0100
0010
0001
0100
1000
0010
0100
0010
0001
0100
0010
1000
0100
0010
0100
0001
,
0010
0100
0010
0100
1000
0100
0010
0001
0100
0010
0100
1000
0010
0100
0010
0001
,
0010
0100
0010
1000
0100
0010
0100
0001
1000
0100
0010
0001
0100
0010
1000
0100
,
0001
0010
0100
1000
0010
0100
0010
0001
0100
1000
0010
0100
0010
0001
0100
1000
,
0100
0010
0100
1000
0001
0010
0100
0001
0100
0010
1000
0001
0010
0100
0010
0100
,
1000
0010
0001
1000
0100
0010
0100
0010
0001
0100
0010
1000
0100
0010
1000
0100
,
0001
0010
0100
0010
0100
1000
0010
0001
0100
0010
0001
0010
1100
0000
0000
0000
,
0010
0000
0000
0000
0002
0000
0000
0100
0000
0000
1013
0000
0000
0000
0100
0000
,
1010
0000
0001
0000
0200
0000
0000
1000
0000
0000
0311
0000
0000
0000
1000
0000
,
0011
0000
0200
0000
0320
0000
0000
0100
0000
0000
1031
0000
0000
0000
0100
0000
,
1001
0000
0010
0000
0200
0000
0000
1310
0000
0000
0200
0000
0320
0000
0000
0131
,
0000
0000
0020
0000
0230
0000
0000
1000
0000
0000
0311
0000
0000
0000
1000
0000
,
0011
0000
0100
0000
2000
0000
0000
0001
0000
0000
3110
0000
0000
0000
0001
0000
,
0110
0000
1000
0000
0002
0000
0000
0100
0000
0000
1013
0000
0000
0000
0100
0000
,
1010
0000
0001
0000
0020
0000
0000
1130
0000
0000
0020
0000
0230
0000
0000
0311
,
0000
0000
0200
0000
1300
0001
1000
0000
1000
0001
1000
0000
0100
0000
0010
0000
,
1000
0001
1000
0000
1000
0001
1000
0000
1000
0001
1000
0000
0200
0000
0000
0000
,
0310
2000
0000
0000
3020
0000
0032
0000
,
1003
0200
0000
0301
0010
0100
1000
0100
,
0010
0000
0001
0000
0100
1000
0100
0000
0100
1000
0100
0000
0010
0000
0001
0000
,
0100
1000
0100
0000
0100
1000
0100
0000
0100
1000
0100
0000
0002
0000
0000
0000
,
0103
2000
0000
0000
3020
0000
0230
0000
,
0301
1000
0001
1000
0022
0000
0000
0000
0000
0000
0033
0000
2200
0000
0000
0000
,
0000
0000
3300
0000
0001
0100
0001
0000
0001
0100
0001
0000
0010
0000
1000
0000
,
0001
0100
0001
0000
0001
0100
0001
0000
0001
0100
0001
0000
2000
0000
0000
0000
,
3010
0002
0000
0000
0023
0000
0230
0000
,
1300
0002
0000
1003
0010
0100
0001
0100
,
0010
0000
1000
0000
0100
0010
0100
0000
0100
0010
0100
0000
1000
0000
0001
0000
,
0100
0010
0100
0000
0100
0010
0100
0000
0100
0010
0100
0000
0002
0000
0000
0000
,
0103
2000
0000
0000
3020
0000
0230
0000
,
0301
1000
0001
1000
0001
0000
0010
0000
0100
0000
1000
0000
0101
0000
0010
0000
,
0100
0000
1000
0000
0001
0100
0010
1000
0001
0000
0000
0000
1000
0010
0100
0001
,
1000
0000
0000
0000
0001
0100
0010
1000
0001
0000
0000
0000
1000
0000
0000
0000
,
0010
0000
0000
0000
0100
0010
0001
1000
0100
0000
0000
0000
0010
0100
1000
0001
,
0010
0000
0000
0000
0100
0010
0001
1000
0100
0000
0000
0000
1000
0000
0000
0000
,
0010
0000
0000
0000
0001
0010
0100
1000
0001
0000
0000
0000
1000
0100
0010
0001
,
1000
0000
0000
0000
0001
0010
0100
1000
0001
0000
0000
0000
0100
0000
0000
0000
,
1000
0000
0000
0000
0010
0100
0001
1000
0010
0000
0000
0000
0100
0010
1000
0001
,
0100
0000
0000
0000
0010
0100
0001
1000
0010
0000
0000
0000
0100
0000
0000
0000
,
0001
0000
0000
0000
1000
0100
0010
0100
0001
0010
0001
0100
0010
0100
1000
0010
,
0100
0010
0001
0010
0100
1000
0100
0010
0100
1000
0010
0001
0010
0100
0010
0001
,
0100
1000
0100
0010
0100
1000
0010
0001
0100
0010
0100
1000
0100
0010
0001
0100
,
0010
1000
0100
1000
0010
0001
0100
0010
0100
1000
0010
0100
0010
0001
0100
0010
,
0100
1000
0010
0100
0001
0010
0100
0010
1000
0100
1000
0001
0010
0100
0010
1000
,
0100
0001
0010
0100
0010
1000
0001
0100
0001
0010
0100
1000
0010
0100
0010
0001
,
0100
0010
0100
1000
0010
0100
0010
0001
0010
1000
0100
1000
0010
0100
0001
0010
,
0100
1000
0100
0010
0100
1000
0010
0100
0010
0001
0100
0010
1001
0000
0000
0000
,
0010
0000
0000
0000
0200
0000
0000
0010
0000
0000
0311
0000
0000
0000
0010
0000
,
0011
0000
0100
0000
0020
0000
0000
1000
0000
0000
0131
0000
0000
0000
1000
0000
,
0101
0000
0020
0000
2030
0000
0000
0001
0000
0000
3110
0000
0000
0000
0001
0000
,
0110
0000
1000
0000
0200
0000
0000
0311
0000
0000
0002
0000
0023
0000
0000
1130
,
0000
0000
2000
0000
3200
0000
0000
0010
0000
0000
1301
0000
0000
0000
0010
0000
,
1001
0000
0100
0000
0002
0000
0000
0010
0000
0000
1103
0000
0000
0000
0010
0000
,
1100
0000
0001
0000
0020
0000
0000
1000
0000
0000
0131
0000
0000
0000
1000
0000
,
0101
0000
0010
0000
0200
0000
0000
1301
0000
0000
0200
0000
0320
0000
0000
1031
,
0000
0000
0020
0000
0032
0000
1003
0100
0010
0000
0002
0000
0003
0000
0002
0000
,
0203
0000
0000
0000
0302
0000
1003
0100
0010
0000
0002
0000
0003
0000
0002
0000
,
2003
0000
0000
0000
3022
0000
1033
0100
0010
0000
0002
0000
0003
0000
0002
0000
,
2003
0000
0000
0000
0000
0000
0100
0010
3101
0000
0000
0000
0010
0000
0101
0000
0000
0000
0010
0000
0101
0000
0010
0100
1000
0000
0100
0000
0010
0000
0001
0000
,
1000
0000
0100
0000
0010
0000
0001
1000
0200
0000
0000
0000
0000
0000
0000
0000
0000
0000
0000
0000
0000
0000
0000
0000
0302
0000
0000
0000
0000
0000
0000
0000
,
0023
0000
0000
0000
,
0000
0030
0001
0010
0100
1000
0010
0100
,
0001
0000
1000
0000
0001
0010
0100
0000
0001
0000
1000
0000
0200
0000
0000
0000
,
0000
0000
0000
0000
1300
0100
0010
0001
1000
0100
0010
0001
1000
0010
0100
0010
,
0001
0010
0100
1000
0010
0100
0010
0001
0100
0010
0100
1000
0001
0100
0010
1000
,
0001
0100
0010
1000
0001
0100
0010
1000
0001
0010
0100
1000
0001
0010
0100
1000
,
0001
0010
2000
0000
3100
0010
0002
0000
,
0000
0000
1003
0100
0010
0001
0010
0100
1000
0100
0010
0001
1000
0100
1000
0010
,
1000
0100
1000
0001
0010
0100
1000
0001
0100
0010
0100
0001
0100
0010
0100
1000
,
0100
0010
0001
1000
0200
0000
0000
0000
0020
0000
0000
0000
0000
0000
0000
0302
,
0000
0000
0000
0033
1000
0100
0010
0100
,
0001
0101
2020
3030
,
0002
0000
0000
0003
0002
0000
0000
0003
0002
0000
0000
0003
0002
0000
0000
0000
,
0003
1100
0011
1100
0000
0011
1100
0000
,
0011
1100
0000
0011
1100
0000
0001
0000
,
0020
2030
0000
3002
,
0203
0000
0320
0230
,
0000
0000
2300
0000
0000
0000
3010
0001
,
0010
0000
0100
0000
0002
0000
0000
0000
0000
0000
0003
0000
1000
0100
0010
0001
,
1000
0100
0010
0001
1000
0001
1000
0001
0100
0000
0000
0000
0100
0010
0001
1000
,
0100
0010
0001
1000
0100
0001
0100
0001
0010
0000
0000
0000
0010
0001
1000
0100
,
0010
0001
1000
0100
0010
0001
0010
0001
1000
0100
1000
0100
0001
1000
0100
0010
,
0001
1000
0100
0010
0002
0000
0000
0000
0000
0000
0000
0000
0023
0000
0000
0000
,
0000
0000
0000
0000
0000
0000
0000
0000
1130
0001
1000
0000
1000
0001
1000
0000
0100
0000
0010
0000
1000
0001
1000
0000
1000
0001
1000
0000
1000
0001
1000
0000
,
0020
0000
0000
0000
1030
0000
0002
0000
0000
0000
0000
0000
0203
0000
0000
0000
0301
0000
0010
0000
0100
0000
2000
0000
0000
0000
3001
0000
0010
0100
0010
0100
,
0010
0100
0010
0001
1000
0000
0000
0000
0000
0000
0000
0000
0110
0000
0000
0000
,
0000
1000
0001
0110
,
0000
0001
0000
0100
0001
0000
0110
0000
,
0000
0001
0000
0100
0001
0000
0110
1000
,
0100
0010
0000
0101
,
0000
0010
1000
0101
,
0000
0010
0000
0100
0010
0000
0101
0000
,
0000
0010
0000
0100
0010
0000
0101
0000
,
0110
0110
1000
0000
0000
0000
0011
0000
,
0000
1000
0100
0011
,
0000
1000
0000
0100
1000
0000
0011
0000
,
1000
0001
1000
0001
1000
0000
0100
0000
0001
0000
0010
0000
1000
0000
0100
0000
,
0001
0000
0010
0000
0001
0010
0100
1000
0001
0000
0000
0000
1000
0100
0010
0001
,
1000
0000
0000
0000
0001
0010
0100
1000
0001
0000
0000
0000
1000
0000
0000
0000
,
0010
0000
0000
0000
0100
0010
0001
1000
0100
0000
0000
0000
0010
0100
1000
0001
,
0010
0000
0000
0000
0100
0010
0001
1000
0100
0000
0000
0000
1000
0000
0000
0000
,
0010
0000
0000
0000
0001
0010
1000
0100
0001
0000
0000
0000
1000
0100
0001
0010
,
1000
0000
0000
0000
0001
0010
1000
0100
0001
0000
0000
0000
0100
0000
0000
0000
,
1000
0000
0000
0000
0010
0100
0001
1000
0010
0000
0000
0000
0100
0010
1000
0001
,
0100
0000
0000
0000
0010
0100
0001
1000
0010
0000
0000
0000
0100
0000
0000
0000
,
0001
0000
0000
0000
1000
0010
0100
0001
0010
0100
0010
0100
1000
0010
0100
0010
,
0001
0010
0100
0001
0010
0100
1000
0010
0100
0010
0001
0100
0010
0100
1000
0010
,
0100
0010
0001
0010
0100
1000
0001
0010
0100
0010
0100
1000
0001
0100
0010
0001
,
0010
0100
0010
1000
0100
1000
0010
0100
0010
0001
0100
0010
0100
1000
0010
0100
,
0010
1000
0100
0010
0001
0100
0010
0100
0001
0010
0100
1000
0100
0010
0100
1000
,
0010
0001
0100
0010
0100
1000
0010
0100
0010
0001
0010
0100
0010
1000
0100
0010
,
0100
1000
0010
0100
0010
0001
0010
0100
0010
0100
1000
0010
0100
1000
0100
1000
,
0010
0100
0010
0001
0010
0001
0100
0010
0100
1000
0100
0001
1010
0000
0000
0000
,
0100
0000
0000
0000
0020
0000
0000
0100
0000
0000
1031
0000
0000
0000
0100
0000
,
1001
0000
0010
0000
0200
0000
0000
1000
0000
0000
0311
0000
0000
0000
1000
0000
,
0011
0000
0200
0000
2300
0000
0000
0001
0000
0000
3110
0000
0000
0000
0001
0000
,
0110
0000
1000
0000
0020
0000
0000
0131
0000
0000
0002
0000
0203
0000
0000
1310
,
0000
0000
2000
0000
3002
0000
0000
0100
0000
0000
1013
0000
0000
0000
0100
0000
,
1010
0000
1000
0000
0020
0000
0000
0001
0000
0000
1130
0000
0000
0000
0001
0000
,
1100
0000
0020
0000
2030
0000
0000
0010
0000
0000
3101
0000
0000
0000
0010
0000
,
0101
0000
1000
0000
0200
0000
0000
0311
0000
0000
0200
0000
0320
0000
0000
1130
,
0000
0000
0020
0000
0230
0000
0000
0001
0000
0000
1301
0000
0000
0000
0001
0000
,
1001
0000
0010
0000
0002
0000
0000
0100
0000
0000
1013
0000
0000
0000
0100
0000
,
1010
0000
0002
0000
0203
0000
0000
1000
0000
0000
0311
0000
0000
0000
1000
0000
,
0011
0000
0100
0000
2000
0000
0000
3011
0000
0000
0020
0000
0032
0000
0000
1103
,
0000
0000
0200
0000
2300
0000
0000
0001
0000
0000
3110
0000
0000
0000
0001
0000
,
0110
0000
1000
0000
0020
0000
0000
0001
0000
0000
1130
0000
0000
0000
0001
0000
,
1100
0000
0010
0000
2000
0000
0000
0100
0000
0000
3011
0000
0000
0000
0100
0000
,
0011
0000
0010
0000
2000
0000
0000
3101
0000
0000
0100
0000
0002
0000
0000
1013
,
0000
0020
2032
0000
0000
0000
0000
0000
,
0000
0000
0000
0000
,
0000
0000
0000
0000
,
3003
0000
0000
0000
;

//---------------dance-single - Copied from----------------
#NOTES:
     dance-single:
     Copied from:
     Medium:
     11:
     0.794,1.000,0.538,0.780,0.478,962.000,122.000,177.000,0.000,49.000:
0000
0000
0000
0000
0010
1000
0010
0000
0010
1000
0010
0000
0001
0000
0100
0000
,
0010
1000
0010
0000
0010
1000
0010
0000
0010
1000
0010
0000
0020
0000
0000
0000
,
1030
0002
0000
0000
0203
0000
0301
0010
,
0100
2000
0000
3001
0010
0100
1000
0100
,
0010
0001
0010
0000
0000
0000
1100
0000
,
0000
0010
0001
1100
,
0000
0010
0000
0100
0010
0000
1100
0000
,
0000
0010
0000
0100
0010
0000
1100
0010
,
0001
0100
0000
1001
,
0000
0100
0010
1001
,
0000
1000
0000
0010
1000
0000
1001
0000
,
0000
1000
0000
0010
1000
0000
1001
0100
,
0010
1000
0000
0101
,
0000
1000
0010
0101
,
0000
0010
0000
1000
0010
0000
0101
0000
,
0000
0000
0110
0000
0110
0000
0000
0000
1000
0001
1000
0001
1000
0000
0100
0000
,
0010
0001
1000
0000
0000
0000
0011
0000
,
0000
0100
1000
0011
,
0000
0100
0000
1000
0100
0000
0011
0000
,
0000
0100
0000
1000
0100
0000
0011
0100
,
1000
0001
0000
1010
,
0000
0001
0100
1010
,
0000
0100
0000
0010
0100
0000
1010
0000
,
0000
0110
0110
0000
1000
0001
1000
0001
,
1000
0000
0000
0000
0001
0010
0100
1000
0001
0000
0000
0000
1000
0100
0010
0001
,
1000
0000
0000
0000
0001
0010
0100
1000
0001
0000
0000
0000
1000
0000
0000
0000
,
0010
0000
0000
0000
0100
0010
1000
0001
0100
0000
0000
0000
0010
0100
0001
1000
,
0010
0000
0000
0000
0100
0010
1000
0001
0100
0000
0000
0000
1000
0000
0000
0000
,
0010
0000
0000
0000
0001
0100
0010
1000
0001
0000
0000
0000
1000
0010
0100
0001
,
1000
0000
0000
0000
0001
0100
0010
1000
0001
0000
0000
0000
0100
0000
0000
0000
,
1000
0000
0000
0000
0010
0100
1000
0001
0010
0000
0000
0000
0100
0010
0001
1000
,
0100
0000
0000
0000
0010
0100
1000
0001
0010
0000
0000
0000
0100
0000
0000
0000
,
0001
0000
2000
3000
0000
0000
0002
0003
,
0000
0000
0200
0300
0000
0000
0020
0030
,
0000
0000
2000
3000
0000
0000
0002
0003
,
0000
0000
0200
0300
0000
2000
3000
0000
,
0010
0100
2000
3000
0000
0000
0002
0003
,
0000
0000
0200
0300
0000
0000
0020
0030
,
0000
0000
2000
3000
0000
0000
0002
0003
,
0000
0000
2000
3000
0000
0020
1130
0000
,
0010
0000
0000
0000
0002
0000
0000
0100
0000
0000
1013
0000
0000
0000
0100
0000
,
1010
0000
0001
0000
0200
0000
0000
1000
0000
0000
0311
0000
0000
0000
1000
0000
,
0011
0000
0200
0000
0320
0000
0000
0100
0000
0000
1031
0000
0000
0000
0100
0000
,
1001
0000
0010
0000
0200
0000
0000
1310
0000
0000
0200
0000
0320
0000
0000
0131
,
0000
0000
0020
0000
0230
0000
0000
1000
0000
0000
0311
0000
0000
0000
1000
0000
,
0011
0000
0100
0000
2000
0000
0000
0001
0000
0000
3110
0000
0000
0000
0001
0000
,
0110
0000
1000
0000
0002
0000
0000
0100
0000
0000
1013
0000
0000
0000
0100
0000
,
1010
0000
0001
0000
0020
0000
0000
1130
0000
0000
0020
0000
0230
0000
0000
0311
,
0000
0000
0100
0000
1000
0001
1000
0000
1000
0001
1000
0000
0100
0000
0010
0000
,
1000
0001
1000
0000
1000
0001
1000
0000
1000
0001
1000
0000
0200
0000
0000
0000
,
0310
2000
0000
0000
3020
0000
0032
0000
,
1003
0200
0000
0301
0010
0100
1000
0100
,
0010
0000
0001
0000
0100
1000
0100
0000
0100
1000
0100
0000
0010
0000
0001
0000
,
0100
1000
0100
0000
0100
1000
0100
0000
0100
1000
0100
0000
0002
0000
0000
0000
,
0103
2000
0000
0000
3020
0000
0230
0000
,
0301
1000
0001
1000
0022
0000
0000
0000
0000
0000
0033
0000
2200
0000
0000
0000
,
0000
0000
3300
0000
0001
0100
0001
0000
0001
0100
0001
0000
0010
0000
1000
0000
,
0001
0100
0001
0000
0001
0100
0001
0000
0001
0100
0001
0000
2000
0000
0000
0000
,
3010
0002
0000
0000
0023
0000
0230
0000
,
1300
0002
0000
1003
0010
0100
0001
0100
,
0010
0000
1000
0000
0100
0010
0100
0000
0100
0010
0100
0000
1000
0000
0001
0000
,
0100
0010
0100
0000
0100
0010
0100
0000
0100
0010
0100
0000
0002
0000
0000
0000
,
0103
2000
0000
0000
3020
0000
0230
0000
,
0301
1000
0001
1000
0001
0000
0010
0000
0100
0000
1000
0000
0101
0000
0010
0000
,
0100
0000
1000
0000
0001
0100
0010
1000
0001
0000
0000
0000
1000
0010
0100
0001
,
1000
0000
0000
0000
0001
0100
0010
1000
0001
0000
0000
0000
1000
0000
0000
0000
,
0010
0000
0000
0000
0100
0010
0001
1000
0100
0000
0000
0000
0010
0100
1000
0001
,
0010
0000
0000
0000
0100
0010
0001
1000
0100
0000
0000
0000
1000
0000
0000
0000
,
0010
0000
0000
0000
0001
0010
0100
1000
0001
0000
0000
0000
1000
0100
0010
0001
,
1000
0000
0000
0000
0001
0010
0100
1000
0001
0000
0000
0000
0100
0000
0000
0000
,
1000
0000
0000
0000
0010
0100
0001
1000
0010
0000
0000
0000
0100
0010
1000
0001
,
0100
0000
0000
0000
0010
0100
0001
1000
0010
0000
0000
0000
0100
0000
0000
0000
,
0001
0000
0020
0030
0000
0000
2000
3000
,
0000
0000
0200
0300
0000
0000
0002
0003
,
0000
0000
0020
0030
0000
0000
2000
3000
,
0000
0000
0200
0300
0000
0020
0030
0000
,
1000
0100
0020
0030
0000
0000
2000
3000
,
0000
0000
0200
0300
0000
0000
0002
0003
,
0000
0000
0020
0030
0000
0000
2000
3000
,
0000
0000
0020
0030
0000
0200
1301
0000
,
0010
0000
0000
0000
0200
0000
0000
0010
0000
0000
0311
0000
0000
0000
0010
0000
,
0011
0000
0100
0000
0020
0000
0000
1000
0000
0000
0131
0000
0000
0000
1000
0000
,
0101
0000
0020
0000
2030
0000
0000
0001
0000
0000
3110
0000
0000
0000
0001
0000
,
0110
0000
1000
0000
0200
0000
0000
0311
0000
0000
0002
0000
0023
0000
0000
1130
,
0000
0000
2000
0000
3200
0000
0000
0010
0000
0000
1301
0000
0000
0000
0010
0000
,
1001
0000
0100
0000
0002
0000
0000
0010
0000
0000
1103
0000
0000
0000
0010
0000
,
1100
0000
0001
0000
0020
0000
0000
1000
0000
0000
0131
0000
0000
0000
1000
0000
,
0101
0000
0010
0000
0200
0000
0000
1301
0000
0000
0200
0000
0320
0000
0000
1031
,
0000
0000
0020
0000
0032
0000
1003
0100
0010
0000
0002
0000
0003
0000
0002
0000
,
0203
0000
0000
0000
0302
0000
1003
0100
0010
0000
0002
0000
0003
0000
0002
0000
,
2003
0000
0000
0000
3022
0000
1033
0100
0010
0000
0002
0000
0003
0000
0002
0000
,
2003
0000
0000
0000
0000
0000
0100
0010
3101
0000
0000
0000
0010
0000
0101
0000
0000
0000
0010
0000
0101
0000
0010
0100
1000
0000
0100
0000
0010
0000
0001
0000
,
1000
0000
0100
0000
0010
0000
0001
1000
0200
0000
0000
0000
0000
0000
0000
0000
0000
0000
0000
0000
0000
0000
0000
0000
0302
0000
0000
0000
0000
0000
0000
0000
,
0023
0000
0000
0000
,
0000
0030
0001
0010
0100
1000
0010
0100
,
0001
0000
1000
0000
0001
0010
0100
0000
0001
0000
1000
0000
0200
0000
0000
0000
,
0000
0000
0000
0000
1300
0100
0010
0001
1000
0100
0010
0001
1000
0000
0000
0000
,
0010
0000
0000
0000
0100
0000
0000
0000
0010
0000
0000
0000
0001
0100
0010
1000
,
0001
0100
0010
1000
0001
0100
0010
1000
0001
0010
0100
1000
0001
0010
0100
1000
,
0001
0010
2000
0000
3100
0010
0002
0000
,
0000
0000
0103
0000
1000
0000
0000
0000
0010
0000
0000
0000
1000
0100
1000
0010
,
1000
0100
1000
0000
0000
0000
0000
0000
0100
0010
0100
0001
0100
0010
0100
0000
,
0000
0000
0000
0000
0200
0000
0000
0000
0020
0000
0000
0000
0000
0000
0000
0302
,
0000
0000
0000
0033
1000
0100
0010
0100
,
0001
0101
2020
3030
,
0002
0000
0000
0003
0002
0000
0000
0003
0002
0000
0000
0003
0002
0000
0000
0000
,
0003
1100
0011
1100
0000
0011
1100
0000
,
0011
1100
0000
0011
1100
0000
0001
0000
,
0020
2030
0000
3002
,
0203
0000
0320
0230
,
0000
0000
2300
0000
0000
0000
3010
0001
,
0010
0000
0100
0000
0002
0000
0000
0000
0000
0000
0003
0000
1000
0100
0010
0001
,
1000
0100
0010
0001
0000
0000
0000
0000
0100
0000
0000
0000
0100
0010
0001
1000
,
0100
0010
0001
1000
0000
0000
0000
0000
0010
0000
0000
0000
0010
0001
1000
0100
,
0010
0001
1000
0100
0000
0000
0000
0000
0001
0000
0000
0000
0001
1000
0100
0010
,
0001
1000
0100
0010
0002
0000
0000
0000
0000
0000
0000
0000
0023
0000
0000
0000
,
0000
0000
0000
0000
0000
0000
0000
0000
1130
0001
1000
0000
1000
0001
1000
0000
0100
0000
0010
0000
1000
0001
1000
0000
1000
0001
1000
0000
1000
0001
1000
0000
,
0020
0000
0000
0000
1030
0000
0002
0000
0000
0000
0000
0000
0203
0000
0000
0000
0301
0000
0010
0000
0100
0000
2000
0000
0000
0000
3001
0000
0010
0100
0010
0100
,
0010
0100
0010
0001
1000
0000
0000
0000
0000
0000
0000
0000
0110
0000
0000
0000
,
0000
1000
0001
0110
,
0000
0001
0000
0100
0001
0000
0110
0000
,
0000
0001
0000
0100
0001
0000
0110
1000
,
0100
0010
0000
0101
,
0000
0010
1000
0101
,
0000
0010
0000
0100
0010
0000
0101
0000
,
0000
0010
0000
0100
0010
0000
0101
0000
,
0110
0110
1000
0000
0000
0000
0011
0000
,
0000
1000
0100
0011
,
0000
1000
0000
0100
1000
0000
0011
0000
,
1000
0001
1000
0001
1000
0000
0100
0000
0001
0000
0010
0000
1000
0000
0100
0000
,
0001
0000
0010
0000
0001
0010
0100
1000
0001
0000
0000
0000
1000
0100
0010
0001
,
1000
0000
0000
0000
0001
0010
0100
1000
0001
0000
0000
0000
1000
0000
0000
0000
,
0010
0000
0000
0000
0100
0010
0001
1000
0100
0000
0000
0000
0010
0100
1000
0001
,
0010
0000
0000
0000
0100
0010
0001
1000
0100
0000
0000
0000
1000
0000
0000
0000
,
0010
0000
0000
0000
0001
0010
1000
0100
0001
0000
0000
0000
1000
0100
0001
0010
,
1000
0000
0000
0000
0001
0010
1000
0100
0001
0000
0000
0000
0100
0000
0000
0000
,
1000
0000
0000
0000
0010
0100
0001
1000
0010
0000
0000
0000
0100
0010
1000
0001
,
0100
0000
0000
0000
0010
0100
0001
1000
0010
0000
0000
0000
0100
0000
0000
0000
,
0001
0000
0200
0300
0000
0000
2000
3000
,
0000
0000
0002
0003
0000
0000
0020
0030
,
0000
0000
0200
0300
0000
0000
2000
3000
,
0000
0000
0002
0003
0000
0200
0300
0000
,
0001
0010
0200
0300
0000
0000
2000
3000
,
0000
0000
0002
0003
0000
0000
0020
0030
,
0000
0000
0200
0300
0000
0000
2000
3000
,
0000
0000
0200
0300
0000
0002
1013
0000
,
0100
0000
0000
0000
0020
0000
0000
0100
0000
0000
1031
0000
0000
0000
0100
0000
,
1001
0000
0010
0000
0200
0000
0000
1000
0000
0000
0311
0000
0000
0000
1000
0000
,
0011
0000
0200
0000
2300
0000
0000
0001
0000
0000
3110
0000
0000
0000
0001
0000
,
0110
0000
1000
0000
0020
0000
0000
0131
0000
0000
0002
0000
0203
0000
0000
1310
,
0000
0000
2000
0000
3002
0000
0000
0100
0000
0000
1013
0000
0000
0000
0100
0000
,
1010
0000
1000
0000
0020
0000
0000
0001
0000
0000
1130
0000
0000
0000
0001
0000
,
1100
0000
0020
0000
2030
0000
0000
0010
0000
0000
3101
0000
0000
0000
0010
0000
,
0101
0000
1000
0000
0200
0000
0000
0311
0000
0000
0200
0000
0320
0000
0000
1130
,
0000
0000
0020
0000
0230
0000
0000
0001
0000
0000
1301
0000
0000
0000
0001
0000
,
1001
0000
0010
0000
0002
0000
0000
0100
0000
0000
1013
0000
0000
0000
0100
0000
,
1010
0000
0002
0000
0203
0000
0000
1000
0000
0000
0311
0000
0000
0000
1000
0000
,
0011
0000
0100
0000
2000
0000
0000
3011
0000
0000
0020
0000
0032
0000
0000
1103
,
0000
0000
0200
0000
2300
0000
0000
0001
0000
0000
3110
0000
0000
0000
0001
0000
,
0110
0000
1000
0000
0020
0000
0000
0001
0000
0000
1130
0000
0000
0000
0001
0000
,
1100
0000
0010
0000
2000
0000
0000
0100
0000
0000
3011
0000
0000
0000
0100
0000
,
0011
0000
0010
0000
2000
0000
0000
3101
0000
0000
0100
0000
0002
0000
0000
1013
,
0000
0020
2032
0000
0000
0000
0000
0000
,
0000
0000
0000
0000
,
0000
0000
0000
0000
,
3003
0000
0000
0000
;
