#TITLE:Speedcore Dandy (Rebuild);
#SUBTITLE:;
#ARTIST:m1dy;
#TITLETRANSLIT:;
#SUBTITLETRANSLIT:;
#ARTISTTRANSLIT:;
#CREDIT:Rynker & Aoreo;
#BANNER:Bn-Dandy.png;
#BACKGROUND:Bg-Dandy.png;
#LYRICSPATH:;
#CDTITLE:;
#MUSIC:m1dy - Speedcore Dandy (REBUILD).ogg;
#OFFSET:0.010;
#SAMPLESTART:27.542;
#SAMPLELENGTH:12.000;
#SELECTABLE:YES;
#DISPLAYBPM:216.000;
#BPMS:0.000=216.004;
#STOPS:;
#BGCHANGES:;
// cache tags:
#FIRSTBEAT:0.000;
#LASTBEAT:598.500;
#SONGFILENAME:Songs/SPEEEDCOOOORE/Speedcore Dandy Rebuild - [Rynker & Aoreo]/m1dy - Speedcore Dandy (Rebuild).sm;
#HASMUSIC:1;
#HASBANNER:1;
#MUSICLENGTH:168.001;
// end cache tags

//---------------dance-single - J. Nero vs. R. Konku----------------
#NOTES:
     dance-single:
     J. Nero vs. R. Konku:
     Challenge:
     15:
     1.000,1.000,1.000,0.393,1.000,1430.000,175.000,66.000,36.000,14.000:

0001
1000
0010
0100
0001
0000
0010
0100
1000
0001
0010
0000
0001
0100
0010
0000
,
0100
0001
0010
0100
1000
0000
0010
1000
0010
0100
0001
0000
0202
0000
0303
0000
,
1000
0001
0010
0100
1000
0000
0010
0100
0010
1000
0001
0000
1000
0100
0010
0000
,
0001
0100
0010
0100
0001
0000
1000
0001
0010
0100
1000
0000
2200
0000
3300
0000
,
0100
0010
0001
1000
0010
0000
0100
0001
0010
0100
1000
0000
0001
1000
0010
0000
,
0100
0001
1000
0010
0100
0000
0010
1000
0001
0010
0100
0000
0220
0000
0330
0000
,
1100
2000
3000
0001
0100
0010
1000
0001
,
0101
0000
0000
0000
1010
0000
0000
0000
0100
0001
0010
0100
1000
0010
0100
0001
,
0100
0000
0001
0000
0100
0000
0010
0000
1000
0010
1000
0010
0100
0000
0001
0000
,
0010
0100
0010
0100
1000
0000
0010
0000
0100
0001
0100
0010
1000
0010
0100
0000
,
0001
0100
0001
1000
0100
0000
0010
0000
0100
0010
0001
1000
0001
0000
0100
0000
,
0010
0100
0010
0100
0001
0000
1000
0000
0100
1000
0001
1000
0100
0010
0001
0100
,
0010
1000
0010
1000
0001
0000
0100
0000
0001
1000
0001
1000
0100
0000
1000
0000
,
0100
0010
0001
0010
0001
0000
0010
0000
0100
1000
0100
1000
0100
0010
0001
1000
,
0010
0100
0001
1000
0001
0000
1000
0000
0100
1000
0001
0100
0001
0000
0000
0000
,
1001
0000
0000
0000
1101
0000
0000
0000
1000
0100
0010
0100
1000
0001
0010
0001
,
0100
0001
0100
0010
1000
0000
0100
0000
1000
0001
1000
0100
0010
0000
0001
0000
,
0100
0010
1000
0001
1000
0000
0010
0000
0100
0010
0100
0001
1000
0001
0100
0000
,
0001
1000
0001
0010
0100
0000
1000
0000
0001
1000
0001
0010
0100
0000
1000
0000
,
0001
1000
0001
0100
0001
0000
0010
0000
0001
0010
0100
1000
0100
1000
0010
0100
,
0001
0010
0001
1000
0001
0000
0010
0000
0100
1000
0100
1000
0001
0000
0100
0000
,
0010
0100
0010
1000
0001
0000
1000
0000
0100
0010
0100
0010
0001
0000
0100
0000
,
0202
0000
0303
0000
,
0000
0000
0000
0000
0000
0000
0000
0000
M000
0000
0000
0000
0000
0000
0000
0000
00M0
0000
0000
0000
0000
0000
0000
0000
0000
0000
0000
0000
0000
0000
0000
0000
0M00
0000
0000
0000
0000
0000
0000
0000
000M
0000
0000
0000
0000
0000
0000
0000
0000
0000
0000
0000
0000
0000
0000
0000
M000
0000
0000
0000
0000
0000
0000
0000
00M0
0000
0000
0000
0000
0000
0000
0000
0M00
0000
0000
0000
0000
0000
0000
0000
000M
0000
0000
0000
0000
0000
0000
0000
M000
0000
0000
0000
0000
0000
0000
0000
00M0
0000
0000
0000
0000
0000
0000
0000
0M00
0000
0000
0000
0000
0000
0000
0000
000M
0000
M000
0000
0000
0000
0000
0000
00M0
0000
0000
0000
0000
0000
0M00
0000
0000
0000
0000
0000
000M
0000
0000
0000
0000
0000
0000
0000
0000
0000
0000
0000
M000
0000
0000
0000
0000
0000
0M00
0000
000M
0000
0000
0000
0000
0000
0000
0000
00M0
0000
0000
0000
0000
0000
0000
0000
M000
0000
0000
0000
0000
0000
0000
0000
0M00
0000
0000
0000
0000
0000
0000
0000
0000
0000
0000
0000
0000
0000
0000
0000
,
0011
0000
0010
0100
1000
0000
0010
0000
0100
0001
0100
0000
0101
0000
0001
0000
,
1001
0000
1000
0100
0010
0000
0110
0000
0100
1000
0010
0000
0100
0001
0100
0010
,
1000
0000
0001
0100
0001
0000
0101
0000
0100
0010
1000
0000
1100
0000
0100
0000
,
0110
0000
0010
0001
0100
0000
0101
0000
0001
1000
0001
0010
0100
1000
0010
0100
,
0001
0000
0100
0010
0100
0000
0110
0000
0010
1000
0001
0000
1001
0000
1000
0000
,
1100
0000
0100
0010
0001
0000
0101
0000
0100
0010
1000
0000
0010
1000
0010
0100
,
0001
0000
0100
0001
1000
0000
1010
0000
0010
0100
0001
0000
1100
0000
0110
0000
,
0010
0001
0010
0100
1000
0010
0100
0001
1000
0001
2000
3001
1000
0001
1000
0001
,
0100
0000
0001
0010
0001
0000
0011
0000
0010
0100
1000
0000
1100
0000
0100
0000
,
1010
0000
1000
0010
0100
0000
0110
0000
0010
1000
0001
0000
0010
0100
0010
0001
,
1000
0000
0001
0100
0001
0000
1001
0000
1000
0100
0010
0000
0110
0000
0100
0000
,
1001
0000
0001
0100
0010
0000
0110
0000
0100
0001
1000
0001
1000
0001
0010
0100
,
1000
0000
0100
1000
0001
0000
0101
0000
0100
0010
1000
0000
1010
0000
0010
0000
,
0110
0000
0100
0010
1000
0000
1010
0000
0010
0100
0001
0000
1000
0100
1000
0100
,
0010
0000
0001
1000
0001
0000
1000
0000
0001
1000
0001
0000
0010
0000
0010
0000
,
0100
1000
0010
0100
0001
0000
0100
0001
1000
0100
1000
0000
0001
0010
0100
1000
,
0010
0100
0200
0310
1000
0100
0010
0001
,
0101
0000
1010
0000
0110
0000
0001
1000
,
1100
0200
0300
0010
0001
0100
0010
1000
,
1010
0000
0000
0000
0110
0000
0000
0000
0101
0000
0000
0000
0001
0100
0010
0100
,
0001
2000
3000
0100
0010
0001
1000
0010
,
1001
0000
0110
0000
0101
0000
1000
0001
,
0101
0200
0300
0010
1000
0001
0010
0100
,
1001
0000
0000
0000
1010
0000
0000
0000
0001
1000
0001
0010
0100
1000
0010
0100
,
0001
0000
1000
0010
1000
0000
0010
0000
0100
0001
0100
0000
0101
0000
0001
0000
,
1001
0000
1000
0100
1000
0000
1010
0000
0010
0100
0010
0000
0100
0001
0010
0100
,
1000
0000
0010
1000
0010
0000
0110
0000
0100
0001
1000
0000
1010
0000
0010
0000
,
0101
0000
0100
0010
1000
0000
1010
0000
0010
0100
0001
0010
0100
1000
0010
0100
,
0001
0000
0010
0100
0010
0000
0110
0000
0100
1000
0001
0000
1001
0000
1000
0000
,
1100
0000
0100
1000
0010
0000
0110
0000
0100
0001
0100
0000
0001
0100
0001
0100
,
0010
2000
3000
0100
0010
0001
1000
0001
,
0101
1010
0110
1001
,
1101
0001
0100
0020
0000
2030
3200
0302
,
0000
0000
0103
0000
1000
0000
0010
0000
0100
0001
1000
0000
0100
0000
1000
0000
,
1101
0001
1000
0200
0000
2300
3020
0032
,
0000
0000
0013
0000
0100
0000
0001
0000
1000
0010
0100
0000
0001
0000
0010
0000
,
1110
0100
1000
0020
0000
0230
0302
0203
,
0000
0000
0310
0000
0100
0001
0100
0000
0001
1000
0100
0000
1000
0010
0100
0000
,
0101
0000
0001
1000
0100
0000
0000
0011
,
0000
0000
0011
0000
0110
0000
0100
0000
1100
0000
1000
0000
0010
0100
0001
1000
,
01MM
1000
0100
0010
0001
0100
0001
0001
,
0100
0000
0010
0000
1000
0000
0100
0000
0010
0100
0010
0000
0100
0000
1000
0000
,
0001
0100
0010
0010
0100
0001
1000
1000
,
0100
0000
0010
0000
0001
0000
0010
0000
0100
1000
0100
0000
0010
0000
0001
0000
,
0100
0010
1000
1000
0001
0010
0100
0100
,
1000
0000
0001
0000
0100
0010
0100
0000
0001
0000
1000
0000
0001
0000
0010
0000
,
0100
1000
0100
0100
0010
0001
0100
0100
,
0010
0000
1000
0000
0100
0010
0100
0000
0010
0000
0010
0000
0001
0000
1000
0000
,
1001
0001
0100
0010
1000
0100
0010
0010
,
0001
0000
1000
0000
0001
0000
0100
0000
0001
0100
0001
0000
0100
0000
0010
0000
,
1000
0100
0010
0010
0001
0100
0010
0010
,
1000
0000
0001
0000
0010
0000
0100
0000
1000
0100
1000
0000
0001
0000
0100
0000
,
0101
0001
0010
0010
0100
1000
0001
0001
,
0100
0000
0010
0000
1000
0000
0001
0000
0010
0100
0010
0000
0100
0000
1000
0000
,
1001
0002
0003
0100
0010
1000
0001
0101
,
0000
0000
1000
0000
0010
0000
1000
0000
0001
0010
0100
0000
1000
0000
0010
0000
,
1111
0000
MMMM
0000
,
1111
0000
MMMM
0000
,
1111
0000
MMMM
0000
,
1111
0000
0000
0000
4000
3040
0430
0304
,
1003
0100
0110
0010
0011
0001
1001
1000
,
1010
0010
0110
0100
0101
0001
1001
1000
,
1100
0100
0110
0010
0011
0001
1001
1000
,
1010
0000
0010
0000
0110
0000
0100
0000
0101
0000
0001
0000
1000
0100
0010
0001
,
0100
0010
0110
0100
0101
0001
1001
1000
,
1100
0100
0110
0010
0011
0001
1001
1000
,
1010
0000
0010
0000
0110
0000
0100
0000
0101
0000
0001
0000
1001
0000
1000
0100
,
1000
0100
0010
0000
0001
0000
0100
0010
1000
0010
1000
0000
0010
0000
1000
0000
,
0001
0010
0001
0010
0001
0100
0001
0100
0010
1000
0010
1000
0100
0000
0010
0000
,
0100
0010
0001
0010
0001
0010
0001
0100
0010
1000
0100
0010
0001
1000
0100
0010
,
0001
1000
0010
0100
0001
1000
0001
1000
0001
1000
0100
1000
0100
0000
1000
0000
,
0010
0100
0010
0100
0001
0100
0001
0100
0001
0010
0100
1000
0001
0010
0100
1000
,
0010
0100
0001
1000
0100
1000
0010
0100
0001
0010
0100
1000
0010
0000
1000
0000
,
0100
1000
0010
0100
0001
0010
0100
1000
0010
0100
0001
0010
0001
1000
0001
1000
,
0002
0000
0000
0000
0000
0003
0000
0000
,
1000
0001
0100
0001
0010
0100
1000
0010
0100
0001
1000
0100
1000
0010
0100
0000
,
0000
0000
0000
1111
,
1001
0000
1000
0001
0010
0000
0100
0000
1000
0010
0100
0000
0101
0000
0001
0000
,
1001
0000
1000
0010
1000
0000
0110
0000
0100
0001
1000
0000
0100
1000
0010
0100
,
0001
0000
1000
0010
1000
0000
1010
0000
0010
0100
0001
0000
0011
0000
0010
0000
,
0110
0000
0100
1000
0010
0000
1010
0000
1000
0010
1000
0100
0010
0001
0100
0010
,
1000
0000
0010
0100
0010
0000
0110
0000
0100
0001
1000
0000
1001
0000
1000
0000
,
1100
0000
0100
1000
0010
0000
0110
0000
0100
0001
0100
0000
0001
0100
0001
0100
,
0010
0000
1000
0010
0100
0000
0101
0000
0001
0010
0001
0000
0011
0000
0110
0000
,
0100
1000
0100
0010
0001
0100
0010
1000
0001
1000
0002
1003
0001
1000
0001
0000
,
0011
0000
0010
0100
1000
0000
0100
0000
1000
0010
0100
0000
0110
0000
0010
0000
,
0101
0000
0001
1000
0010
0000
1010
0000
1000
0010
0100
0000
0010
0100
0001
0010
,
0100
0000
1000
0100
1000
0000
1010
0000
0010
0100
0001
0000
0101
0000
0100
0000
,
0110
0000
0010
1000
0100
0000
1001
0000
0001
1000
0001
0010
0100
1000
0010
0100
,
0001
0000
0100
0010
0100
0000
0110
0000
0010
1000
0001
0000
1001
0000
1000
0000
,
1010
0000
0010
0100
0001
0000
0011
0000
0010
0100
1000
0000
0100
1000
0010
0100
,
0001
0000
0100
0001
0010
0000
0100
0000
1000
0010
1000
0000
0010
0000
0100
0000
,
0001
1000
0100
1000
0010
0000
0100
0001
0010
0100
1000
0000
1100
0000
0000
0000
,
1001
2000
3000
0100
0010
0001
1000
0001
,
1010
1100
0011
1001
,
1001
0200
0300
0001
0010
0100
1000
0001
,
1100
0000
0000
0000
0110
0000
0000
0000
1001
0000
0001
0000
1000
0001
0010
0100
,
1000
0200
0300
1000
0001
0100
0010
1000
,
1010
0110
0101
1010
,
0101
0002
0003
1000
0010
0100
0001
1000
,
1001
0000
0000
0000
1001
0000
0000
0000
0001
1000
0001
1000
0001
1000
0001
1000
,
0001
0100
0001
1000
0100
1000
0100
0010
0001
1000
0001
0100
0001
0100
0001
0100
,
0001
1000
0010
1000
0100
1000
0100
0010
0001
1000
0001
0100
0010
1000
0100
0010
,
0001
0010
0001
0010
0100
1000
0100
1000
0100
0010
0001
0010
0001
0010
0001
0010
,
0001
0100
0010
1000
0001
1000
0001
1000
0100
0010
0001
0010
0100
1000
0001
0100
,
0010
0100
0001
1000
0100
1000
0100
0010
0001
0100
0010
0100
0010
0100
0010
0100
,
0010
1000
0001
0010
0100
0010
0100
1000
0001
0100
0010
0100
0001
1000
0001
0000
,
1001
2000
3000
0001
0010
0100
1000
0010
,
0110
1001
1010
1101
,
1111
0001
0100
0020
0000
2030
3200
0302
,
0000
0000
0103
0000
1000
0100
1000
0000
0010
0100
0001
0000
0100
0010
1000
0000
,
1010
0010
1000
0200
0000
2300
3020
0230
,
0000
0300
0010
0000
0100
0001
0100
0000
0010
1000
0100
0000
1000
0010
0100
0000
,
0101
0001
1000
0020
0000
0230
0320
2030
,
0000
0000
3010
0000
0100
0001
0100
0000
0001
1000
0100
0000
1000
0010
0100
0000
,
0101
0001
1000
0200
0000
2300
3020
0230
,
1310
0000
0010
0000
0110
0000
0100
0000
0101
0000
0000
0001
1000
0000
0010
0000
,
0110
0100
0001
0020
0000
0230
2300
3002
,
0000
0000
0013
0000
0001
1000
0100
0000
0010
0100
1000
0000
0100
1000
0001
0000
,
0101
0100
0001
0200
0000
0302
0203
0320
,
0000
0000
1030
0000
0001
0100
0010
0000
1000
0100
0010
0000
0001
0010
0100
0000
,
1100
1000
0001
0020
0000
0032
0203
2300
,
0000
0000
3100
0000
0010
1000
0001
0000
1000
0001
0100
0000
0010
1000
0100
0000
,
1100
0000
1000
0100
0010
0000
0001
0000
1000
0000
1000
0000
0001
0000
2001
0000
,
0000
0000
0000
0000
0000
0000
0012
0000
0000
0000
3000
0000
1100
0000
0000
0000
0003
0000
0011
0000
0000
0000
0000
0000
1100
0000
0000
0011
0000
0000
1100
0000
0000
0000
0000
0000
0011
0000
0000
0000
0000
0000
0100
0000
0000
0000
0000
0000
,
0020
0000
0000
0000
0000
0030
0000
0000
;
