#TITLE:I Turn to You;
#SUBTITLE:Hex Hector Vocal Mix;
#ARTIST:Melanie C;
#TITLETRANSLIT:;
#SUBTITLETRANSLIT:;
#ARTISTTRANSLIT:;
#CREDIT:Plaguefox (gamecast.org/plaguemix);
#BANNER:iturntoyou-bn.png;
#BACKGROUND:iturntoyou-bg.jpg;
#LYRICSPATH:;
#CDTITLE:pm1cd.png;
#MUSIC:iturntoyou.ogg;
#OFFSET:-0.003;
#SAMPLESTART:53.897;
#SAMPLELENGTH:15.647;
#SELECTABLE:YES;
#BPMS:0.000=138.041;
#STOPS:;
#BGCHANGES:;
// cache tags:
#FIRSTBEAT:16.000;
#LASTBEAT:208.000;
#SONGFILENAME:Songs/plaguemix series/I Turn to You/iturntoyou.sm;
#HASMUSIC:1;
#HASBANNER:1;
#MUSICLENGTH:93.571;
// end cache tags

//---------------dance-single - LIGHT----------------
#NOTES:
     dance-single:
     LIGHT:
     Easy:
     3:
     0.160,0.240,0.032,0.043,0.000,98.000,3.000,4.000,0.000,0.000:
0000
0000
0000
0000
,
0000
0000
0000
0000
,
0000
0000
0000
0000
,
0000
0000
0000
0000
,
0100
0000
0100
0000
,
0000
0000
0000
0000
,
0100
0000
0100
0000
,
0000
0000
0000
0000
,
1000
0000
1000
0000
,
0000
0000
0000
0000
,
0001
0000
0001
0000
,
0000
0000
0000
0000
,
0010
0000
0010
0000
,
1000
0000
1000
0000
,
0100
0000
0100
0000
,
0001
0000
0001
0100
,
1000
0000
0100
0000
,
0010
0001
0100
0100
,
0001
0000
0100
0000
,
0010
1000
0100
0100
,
0010
0001
1000
0100
,
0010
0001
1000
0100
,
0010
1000
0001
0100
,
0010
1000
0001
0100
,
0000
1000
0000
1000
0000
0001
0000
0001
,
0000
0000
0100
0000
1000
0000
0000
0001
,
0000
0000
1000
0000
,
0100
0000
0001
0000
,
0000
0001
0000
0001
0000
1000
0000
1000
,
0000
0010
0000
0001
0000
0000
0000
1000
,
0000
0000
0001
0000
,
0000
0001
0100
0010
,
1001
0000
0000
0001
,
0100
0000
0010
0000
,
1000
0000
0000
0000
,
0000
0001
0100
0010
,
1001
0000
0000
0000
,
0100
0001
1000
1000
,
0110
0000
0001
0000
,
0100
0000
1000
0000
,
0100
0000
0000
0001
,
0010
0000
1000
0000
,
0001
0000
0000
0000
,
0000
0100
1000
0001
,
2000
0000
0000
0000
,
0002
0000
0000
0000
,
3003
0000
0000
0000
,
0000
0010
0001
0100
,
0002
0000
0000
0000
,
2000
0000
0000
0000
,
3003
0000
0000
0000
;

//---------------dance-single - STANDARD----------------
#NOTES:
     dance-single:
     STANDARD:
     Medium:
     5:
     0.281,0.389,0.150,0.053,0.085,165.000,14.000,5.000,0.000,0.000:






0000
0000
0000
0000
,
0000
0000
0000
0000
,
0000
0000
0000
0000
,
0000
0000
0000
0000
,
0001
0000
0000
1000
0000
0000
0010
0000
0100
0000
0000
0010
0000
0000
1000
0000
,
0000
0000
0000
0000
,
1000
0000
0000
0001
0000
0000
0010
0000
0100
0000
0000
0010
0000
0000
0001
0000
,
0000
0000
0000
0000
0001
1000
0010
1000
,
0001
0000
0000
0010
0000
0000
0100
0000
1000
0000
0000
0010
0000
0000
0100
0000
,
0001
0010
1000
0010
,
0001
0000
0000
0100
0000
0000
0010
0000
1000
0000
0000
0100
0000
0000
0010
0000
,
0001
0100
1000
0100
,
0010
0000
0000
0100
0000
0000
0001
0000
1000
0000
0000
0100
0000
0000
0010
0000
,
0001
0000
0000
0100
0000
0000
0010
0000
1000
0000
0000
0001
0000
0000
0010
0000
,
0100
0000
0000
1000
0000
0000
0010
0000
0100
0000
0000
0001
0000
0000
1000
0000
,
0100
0000
0000
0010
0000
0000
0001
0000
1000
0000
0000
0010
0000
0000
0100
0000
,
0000
0000
1000
0100
1000
0100
0000
1001
,
0000
1001
0000
0001
0100
0001
0000
0110
,
0000
1001
0000
1000
0100
1000
0000
0000
,
1000
0001
0100
0001
,
1000
0000
0000
1000
0010
1000
0000
0110
,
0000
0110
0000
0001
0010
0001
0000
1001
,
0000
0000
0000
0000
,
0001
1000
0100
1000
,
0000
0001
1000
0100
0000
0100
0000
0100
,
0000
1000
0010
1000
0001
1000
0000
0011
,
0000
0100
0000
1000
0000
0001
0000
0010
,
0000
0100
0000
1000
0000
0001
0000
0010
,
0000
1001
0000
1001
0000
0110
0000
1001
,
0000
0110
0000
1000
0001
0000
0001
1000
,
0000
0000
0000
0000
,
0000
0000
1000
0000
0100
0000
0010
0001
,
0000
0000
0000
0000
0000
0000
1000
0100
,
0001
0100
0000
1000
0000
0010
0000
0100
,
0001
0000
0010
0100
0000
0000
0000
0000
,
0000
0000
0001
0000
0100
0000
0010
1000
,
0000
0000
0000
0000
0000
0000
0000
1000
,
1000
0000
0100
0100
0000
0001
0000
0002
,
0000
0003
0000
0000
,
0000
0001
1000
0100
0000
1000
0000
0001
,
2000
0000
0000
3000
0000
0000
0000
0000
,
0000
1000
0001
0100
0000
0001
0000
1000
,
2000
0000
3000
0000
,
0000
0000
0001
0000
0001
0000
0001
2000
,
0000
0000
0000
0000
,
0000
0000
0000
0000
,
3000
0000
0000
0000
,
0000
0000
1000
0000
1000
0000
1000
0002
,
0000
0000
0000
0000
,
0000
0000
0000
0000
,
0003
0000
0000
0000
,
0000
0000
0000
0000
,
1001
0000
0000
0000;

//---------------dance-single - HEAVY----------------
#NOTES:
     dance-single:
     HEAVY:
     Hard:
     7:
     0.397,0.472,0.289,0.064,0.075,227.000,27.000,6.000,0.000,0.000:
0000
0000
0000
0000
,
0000
0000
0000
0000
,
0000
0000
0000
0000
,
0000
0000
0000
0000
,
1000
0000
0001
0100
0000
0000
0001
0000
1000
0000
0001
0100
0000
0000
0001
0000
,
0000
0000
0000
0000
,
0001
0000
1000
0100
0000
0000
1000
0000
0001
0000
1000
0100
0000
0000
1000
0000
,
0000
0000
0000
0000
0001
1000
0010
1000
,
0001
0000
0001
1000
0000
0000
0001
0000
1000
0000
1000
0001
0000
0000
1000
0000
,
0001
0001
1000
1000
,
1000
0000
1000
0001
0000
0000
1000
0000
0001
0000
0001
1000
0000
0000
0001
0000
,
1000
1000
0001
0001
,
1000
0000
0001
0100
0000
0000
0001
0000
1000
0000
0100
1000
0000
0000
0001
0000
,
0010
0000
0001
1000
0000
0000
0010
0000
1000
0000
0001
0100
0000
0000
0001
0000
,
1000
0000
0100
1000
0000
0000
0001
0000
0010
0000
0001
1000
0000
0000
0010
0000
,
0100
0001
0010
0100
1000
0010
0100
0001
,
0010
0000
1000
0100
1000
0100
0000
1001
,
0000
1001
0000
0001
0100
0001
0000
0110
,
0000
1001
0000
1000
0100
1000
0000
1001
,
0000
0110
0000
0001
0010
0001
0000
0110
,
0000
1001
0000
1000
0010
1000
0000
0110
,
0000
0110
0000
0001
0010
0001
0000
0101
,
0000
1100
0000
0001
0100
0001
0000
1100
,
0000
0101
0000
1000
0010
1000
0000
0110
,
0000
0001
1000
0100
0000
1010
0000
0011
,
0000
1000
0010
1000
0001
1000
0000
0011
,
0000
0001
0010
0001
1000
0001
0000
1010
,
0000
0100
1000
0100
0010
0100
0000
0101
,
0000
1001
0000
1001
0000
0110
0000
1001
,
0000
0110
0000
1000
0001
0000
0001
1000
,
0000
1000
0010
0000
0010
0100
0000
0100
,
0001
0000
1000
0000
0100
0000
0010
0001
,
0000
0010
0000
0100
0000
0000
1000
0100
,
0001
0100
0000
1000
0000
0010
0000
0100
,
0001
0000
0010
0100
0000
1000
0010
0000
,
1001
0000
0001
0000
0100
0000
0010
1000
,
0000
0010
0000
0100
0000
0001
0000
1000
,
1000
0000
0100
0100
0000
0001
0000
0002
,
0000
0003
0000
0000
,
0000
0001
1000
0100
0000
1000
0000
0001
,
2000
0000
0000
3000
0000
0000
0000
0000
,
0000
1000
0001
0100
0000
0001
0000
1000
,
2000
0000
3000
0000
,
0000
0000
0001
0000
0001
0000
0001
2000
,
0000
0100
0001
0010
,
3002
0100
1000
0010
,
1003
0001
0100
0001
0010
0100
1000
0001
,
1000
0010
0100
0001
0010
0100
1000
0002
,
0000
0000
0000
0000
,
0000
0000
0000
0000
,
0003
0000
0000
0000
,
0000
0000
0000
0000
,
1001
0000
0000
0000
;
