#TITLE:Shield Sheldon;
#SUBTITLE:;
#ARTIST:Megaman X6;
#TITLETRANSLIT:;
#SUBTITLETRANSLIT:;
#ARTISTTRANSLIT:;
#CREDIT:;
#BANNER:Shield Sheldon.PNG;
#BACKGROUND:Shield Sheldon-bg.PNG;
#LYRICSPATH:;
#CDTITLE:djsuchiru.png;
#MUSIC:Shield Sheldon.mp3;
#OFFSET:0.000;
#SAMPLESTART:23.000;
#SAMPLELENGTH:19.000;
#SELECTABLE:YES;
#BPMS:0.000=125.000;
#STOPS:;
#BGCHANGES:;
// cache tags:
#FIRSTBEAT:1.000;
#LASTBEAT:272.000;
#SONGFILENAME:Songs/toune 2/Shield Sheldon/Shield Sheldon.sm;
#HASMUSIC:1;
#HASBANNER:1;
#MUSICLENGTH:139.996;
// end cache tags

//---------------dance-single - ----------------
#NOTES:
     dance-single:
     :
     Challenge:
     8:
     0.523,0.437,0.200,0.243,0.075,451.000,28.000,34.000,0.000,0.000:
0000
1002
1003
2001
,
3001
1002
1003
2001
,
3001
0000
0010
1000
0001
0000
0020
0000
,
2030
3002
0103
1001
,
1000
0100
0010
0001
1000
0100
0010
0001
,
0010
0000
0100
0000
1000
0000
0100
0000
1000
0001
1000
0001
1000
0000
0000
0000
,
0001
0010
0100
1000
0001
0010
0100
1000
,
0100
0000
0010
0000
0001
0000
0010
0000
0001
0010
0001
0010
0001
0000
0000
0000
,
1000
0000
0100
0000
0001
0000
0100
0000
1000
0000
0100
0000
0001
0100
1000
0000
,
0100
1000
0100
0010
0001
1000
0100
0000
,
0001
0000
0010
0000
1000
0000
0010
0000
0001
0000
0010
0000
1000
0010
0001
0000
,
0010
0001
0010
0100
1000
0001
0010
0000
,
1000
0100
0001
0100
1000
0010
0001
0010
,
1000
0000
0100
0000
0010
0000
0001
0000
1000
0010
1000
0001
1000
0000
0000
0000
,
0001
0010
1000
0010
0001
0100
1000
0100
,
0001
0000
0010
0000
0100
0000
1000
0000
0001
0100
0001
1000
0001
0000
0000
0000
,
1000
0100
0010
0001
0010
0000
0011
0000
,
0010
0001
0010
0000
0001
0010
0100
1000
,
0100
0000
1100
0000
1000
0100
1000
0000
,
1000
0010
0001
0100
1000
0000
1100
0000
,
1000
0001
1000
0000
0010
1000
0010
0001
,
0100
0100
1000
1000
0001
0001
1000
0000
,
1001
0000
0010
0100
0010
0000
1001
0000
,
2002
0000
3003
0000
0010
0100
0010
0100
,
0010
2000
3002
0023
,
0230
0300
2002
3003
,
0100
1000
0100
0010
0002
0000
1000
0000
,
0203
0000
0300
0000
0001
0010
1000
0010
,
0002
0010
0010
1000
,
2003
3000
0110
0000
,
0110
0100
0010
0100
0010
0000
1001
1000
,
0001
1000
0001
0000
0001
0100
1000
0100
,
0101
0001
0100
0001
0100
0000
1100
1000
,
0100
1000
0100
0000
0010
0001
0010
0001
,
1000
0000
0001
1000
0000
0000
1000
0001
,
1000
0000
0010
0100
0010
1000
0001
1000
,
0001
0010
0100
1000
0001
0010
0100
1000
,
1000
0000
0100
0000
0010
0000
0001
0000
1000
0100
0010
0001
1000
0000
0000
0000
,
1000
0010
0100
0001
1000
0010
0100
0001
,
0001
0000
0100
0000
0010
0000
1000
0000
0001
0100
0010
1000
0001
0000
0000
0000
,
1000
0000
0001
0000
1000
0000
0100
0000
0001
0000
1000
0000
0001
0010
0100
0000
,
0010
0100
0010
1000
0010
0001
0010
0000
,
0001
0000
0100
0000
0001
0000
1000
0000
1000
0000
0100
0000
1000
0100
0010
0000
,
0100
0010
0100
1000
0100
0001
0100
0000
,
0010
0100
0010
0100
0001
1000
0001
1000
,
0100
0000
0010
0000
0001
0000
1000
0000
0100
1000
0100
1000
0100
0000
0000
0000
,
0001
1000
0001
1000
0010
0100
0010
0100
,
0010
0000
1000
0000
0001
0000
0100
0000
0010
0100
0010
0100
0010
0000
0000
0000
,
1000
0010
0001
0010
1000
0100
0110
0000
,
0100
0010
0001
0000
0001
0100
1000
0100
,
0001
0010
0110
0000
1000
0100
0010
0000
,
0001
0010
1000
0100
0001
0100
0110
0000
,
1000
0001
0010
0000
0001
0010
0100
1000
,
0001
0001
0010
0010
0100
0100
1000
0000
,
0010
0001
0010
0100
1000
0100
0020
0000
,
0032
0000
2003
0000
3100
1000
0100
0010
,
0001
0010
0200
0000
2300
0000
3002
0000
,
0203
0000
0320
0000
,
0031
1000
0001
1000
0100
0010
0012
0000
,
0023
0000
0000
0000
0031
1000
0100
0001
,
0100
0010
2010
0000
3020
0000
0032
0000
,
0203
0000
0000
0000
0320
0000
0000
0030
,
1001
1000
0001
0001
1000
0000
0110
0100
,
0010
0010
0100
0000
0010
0001
1000
0100
,
0011
0001
0010
0010
0001
0000
1100
1000
,
0100
0100
1000
0000
0001
0010
0100
1000
,
1001
0000
1000
0000
0001
0000
0100
0000
0000
0000
0010
0000
0100
0000
1000
0001
,
1000
0000
0010
0010
0100
0100
0010
0010
,
0110
0000
0000
0000
;
