#TITLE:Anubis;
#SUBTITLE:(Black Land Mix);
#ARTIST:DM Ashura;
#TITLETRANSLIT:;
#SUBTITLETRANSLIT:;
#ARTISTTRANSLIT:;
#CREDIT:;
#BANNER:anubisblackland-banner.PNG;
#BACKGROUND:Anubisblackland-bg.PNG;
#LYRICSPATH:;
#CDTITLE:CMGtitle.PNG;
#MUSIC:Anubis (Black Land Mix).mp3;
#OFFSET:0.000;
#SAMPLESTART:69.880;
#SAMPLELENGTH:8.700;
#SELECTABLE:YES;
#BPMS:0.000=110.000;
#STOPS:;
#BGCHANGES:;
// cache tags:
#FIRSTBEAT:16.000;
#LASTBEAT:242.250;
#SONGFILENAME:Songs/new/Anubis (Black Land Mix)/Anubis (Black Land Mix).sm;
#HASMUSIC:1;
#HASBANNER:1;
#MUSICLENGTH:137.625;
// end cache tags

//---------------dance-single - ----------------
#NOTES:
     dance-single:
     :
     Beginner:
     2:
     0.135,0.218,0.182,0.000,0.000,105.000,25.000,0.000,0.000,0.000:
0000
0000
0000
0000
,
0000
0000
0000
0000
,
0000
0000
0000
0000
,
0000
0000
0000
0000
,
1000
0000
0000
0000
,
0001
0000
0000
0000
,
0100
0000
0000
0000
,
0010
0000
0000
0000
,
0001
0000
0000
0000
,
1000
0000
0000
0000
,
0010
0000
0000
0000
,
0100
0000
0000
0000
,
1000
0000
1000
0000
,
0001
0000
0001
0000
,
0100
0000
0100
0000
,
0010
0000
0010
0000
,
0001
0000
0001
0000
,
1000
0000
1000
0000
,
0010
0000
0010
0000
,
0100
0000
0100
0000
,
1001
0000
0000
0000
,
0110
0000
0000
0000
,
1001
0000
0000
0000
,
0110
0000
0000
0000
,
1000
0000
0001
0000
,
1001
0000
0000
0000
,
0100
0000
0010
0000
,
0110
0000
0000
0000
,
0110
0000
0000
0000
,
1001
0000
0000
0000
,
0110
0000
0000
0000
,
1001
0000
0000
0000
,
0010
0000
0100
0000
,
0110
0000
0000
0000
,
0001
0000
1000
0000
,
1001
0000
0000
0000
,
0001
0000
0001
0000
,
1000
0000
1000
0000
,
0010
0000
0010
0000
,
0100
0000
0100
0000
,
1000
0000
1000
0000
,
0001
0000
0001
0000
,
0100
0000
0100
0000
,
0010
0000
0010
0000
,
1000
1000
1000
0000
,
0001
0001
0001
0000
,
1000
0000
0001
0000
,
1001
1001
1001
0000
,
0100
0100
0100
0000
,
0010
0010
0010
0000
,
0100
0000
0010
0000
,
0110
0110
0110
0000
,
0001
0001
0001
0000
,
1000
1000
1000
0000
,
0001
0000
1000
0000
,
1001
1001
1001
0000
,
0010
0010
0010
0000
,
0100
0100
0100
0000
,
0010
0000
0100
0000
,
0110
0110
0110
0000
,
1001
0000
0000
0000
;

//---------------dance-single - ----------------
#NOTES:
     dance-single:
     :
     Easy:
     3:
     0.251,0.283,0.182,0.407,0.000,161.000,25.000,56.000,0.000,0.000:
0000
0000
0000
0000
,
0000
0000
0000
0000
,
0000
0000
0000
0000
,
0000
0000
0000
0000
,
1000
1000
0001
1000
,
0001
0001
1000
0001
,
0100
0100
0010
0100
,
0010
0010
0100
0010
,
1000
0001
1001
1001
,
0100
0010
0110
0110
,
0001
1000
0110
0110
,
0010
0100
1001
1001
,
2000
3000
0002
0003
,
2000
0001
0001
3001
,
0200
0300
0020
0030
,
0200
0010
0010
0310
,
0002
0003
2000
3000
,
0002
1000
1000
1003
,
0020
0030
0200
0300
,
0020
0100
0100
0130
,
0000
0000
1001
0000
,
0000
0000
0000
0000
1000
0001
0000
0000
,
0000
0000
0110
0000
,
0000
0000
0000
0000
0100
0010
0000
0000
,
0000
0000
1001
0000
,
0000
0000
0000
0000
0001
1000
0000
0000
,
0000
0000
0110
0000
,
0000
0000
0000
0000
0010
0100
0000
0000
,
2000
3000
0200
0300
,
0020
0030
0002
0003
,
2000
3000
0002
0003
,
0200
0300
0020
0030
,
0002
0003
0020
0030
,
0200
0300
2000
3000
,
0002
0003
2000
3000
,
0020
0030
0200
0300
,
1001
0000
1001
0000
,
2000
3001
0002
1003
,
0110
0000
0110
0000
,
0200
0310
0020
0130
,
2000
3100
0002
0103
,
2000
3010
0002
0013
,
0200
1300
0020
1030
,
0200
0301
0020
0031
,
1000
0001
1000
1000
,
0001
1000
0001
0001
,
0100
0010
0100
0100
,
0010
0100
0010
0010
,
1000
0001
1001
1001
,
0100
0010
0110
0110
,
0001
1000
0110
0110
,
0010
0100
1001
1001
,
2000
3000
0200
0300
,
0020
0030
0002
0003
,
2000
3000
0002
0003
,
0200
0300
0020
0030
,
0002
0003
0020
0030
,
0200
0300
2000
3000
,
0002
0003
2000
3000
,
0020
0030
0200
0300
,
1001
0000
0000
0000
;

//---------------dance-single - ----------------
#NOTES:
     dance-single:
     :
     Medium:
     4:
     0.338,0.392,0.356,0.436,0.000,217.000,49.000,60.000,0.000,0.000:
0000
0000
0000
0000
,
0000
0000
0000
0000
,
0000
0000
0000
0000
,
0000
0000
0000
0000
,
2000
3100
0002
0103
,
2000
3010
0002
0013
,
1100
0000
0101
0000
1000
0100
0001
0000
,
0011
0000
1010
0000
0001
0010
1000
0000
,
0200
1300
0020
1030
,
0200
0301
0020
0031
,
0101
0000
1100
0000
0001
0100
1000
0000
,
1010
0000
0011
0000
1000
0010
0001
0000
,
1000
1100
0001
0101
,
1000
1001
0001
1001
,
0100
1100
0010
0011
,
0100
0110
0010
0110
,
0001
0011
1000
1010
,
0001
1001
1000
1001
,
0010
1010
0100
0101
,
0010
0110
0100
0110
,
0000
0000
1001
0000
,
0000
0000
0000
0000
1100
0101
0000
0000
,
0000
0000
0110
0000
,
0000
0000
0000
0000
1100
0011
0000
0000
,
0000
0000
1001
0000
,
0000
0000
0000
0000
1010
0011
0000
0000
,
0000
0000
0110
0000
,
0000
0000
0000
0000
1010
0101
0000
0000
,
2000
0000
0000
0000
0000
0000
3000
1000
,
0002
0000
0003
0001
0010
0100
1000
0100
,
0020
0000
0000
0000
0000
0000
0030
0010
,
0200
0000
0300
0100
0001
1000
0010
0100
,
0002
0000
0000
0000
0000
0000
0003
0001
,
2000
0000
3000
1000
0100
0010
0001
0010
,
0200
0000
0000
0000
0000
0000
0300
0100
,
0020
0000
0030
0010
1000
0001
0100
0010
,
2000
3010
0002
0013
,
2000
3100
0002
0103
,
0020
1030
0200
1300
,
0020
0031
0200
0301
,
1010
0011
1100
0101
,
2002
3003
2002
3003
,
1010
1100
0011
0101
,
0220
0330
0220
0330
,
2000
0000
3002
0000
1003
0100
0010
0001
,
0020
0000
0230
0000
0310
0001
0010
0100
,
1000
0100
0001
0010
,
0001
0100
1000
0010
,
0002
0000
2003
0000
3001
0010
0100
1000
,
0200
0000
0320
0000
0130
1000
0100
0010
,
0001
0100
1000
0010
,
1000
0100
0001
0010
,
2000
0000
3001
0000
1000
0001
1000
0000
,
0200
0000
0310
0000
0100
0010
0100
0000
,
0002
0000
1003
0000
0001
1000
0001
0000
,
0020
0000
0130
0000
0010
0100
0010
0000
,
2000
3000
0200
0300
0020
0030
0002
0003
,
2000
3000
0002
0003
0200
0300
0020
0030
,
0002
0003
0020
0030
0200
0300
2000
3000
,
0002
0003
2000
3000
0020
0030
0200
0300
,
0110
0000
0000
0000
;

//---------------dance-single - ----------------
#NOTES:
     dance-single:
     :
     Hard:
     9:
     0.546,0.550,0.262,0.792,0.207,381.000,36.000,109.000,30.000,6.000:
0000
0000
0000
0000
,
0000
0000
0000
0000
,
0000
0000
0000
0000
,
0000
0000
0000
0000
,
1001
0000
0000
1000
0001
0000
0000
0001
1000
0000
0100
0000
0010
0000
0001
0000
,
1001
0000
0000
0001
1000
0000
0000
1000
0001
0000
1000
0000
0010
0000
0100
0000
,
1001
0000
0000
0001
1000
0000
0000
1000
0001
0000
0010
0000
0100
0000
1000
0000
,
1001
0000
0000
1000
0001
0000
0000
0001
1000
0000
0001
0000
0100
0000
0010
0000
,
0110
0000
0000
0100
1000
0000
0000
1000
0010
0000
1000
0000
0100
0000
1000
0000
,
0110
0000
0000
0010
0001
0000
0000
0001
0100
0000
0001
0000
0010
0000
0001
0000
,
0110
0000
0000
0100
0001
0000
0000
0001
0010
0000
0001
0000
0100
0000
0001
0000
,
0110
0000
0000
0010
1000
0000
0000
1000
0100
0000
1000
0000
0010
0000
1000
0000
,
0100
0001
0202
0303
0010
1000
2020
3030
,
0100
0001
0010
1000
0100
0010
0001
0000
,
0100
1000
2200
3300
0010
0001
0022
0033
,
0100
1000
0010
0001
0010
0100
1000
0000
,
0100
0001
0202
0303
1000
0100
2200
3300
,
0001
0100
1000
0100
0001
1000
0010
0100
,
0010
1000
2020
3030
0001
0010
0022
0033
,
1000
0010
0001
0010
1000
0001
0100
0010
,
2000
0000
0000
0000
0200
0000
0000
0000
3322
MM00
0000
0000
0033
00MM
0000
0000
,
0002
0000
0000
0000
0200
0000
0000
0000
1313
MMMM
2020
0000
3030
M0M0
0000
0000
,
0002
0000
0000
0000
0020
0000
0000
0000
2233
00MM
0000
0000
3300
MM00
0000
0000
,
2000
0000
0000
0000
0020
0000
0000
0000
3131
MMMM
0202
0000
0303
0M0M
0000
0000
,
1000
0000
0100
0000
0001
0000
0010
0000
0220
0000
0000
0000
0330
0MM0
0000
0000
,
0001
0000
0100
0000
1000
0000
0010
0000
0220
0000
1001
0000
0330
0MM0
0000
0000
,
1000
0000
0010
0000
0001
0000
0100
0000
2002
0000
0000
0000
3003
M00M
0000
0000
,
0001
0000
0010
0000
1000
0000
0100
0000
2002
0000
0110
0000
3003
M00M
0000
0000
,
2000
0000
0001
0000
0010
0000
0100
0000
0001
0000
0010
0000
0100
0000
3010
0001
,
0200
0000
1000
0000
0001
0000
0320
0000
2030
0000
3200
0000
0301
0010
0100
1000
,
0002
0000
0100
0000
0010
0000
1000
0000
0100
0000
1000
0000
0010
0000
0103
1000
,
0020
0000
0001
0000
1000
0000
0230
0000
0302
0000
0023
0000
1030
0001
0100
0010
,
2000
0000
0100
0000
0001
0000
0010
0000
0100
0000
0001
0000
0010
0000
3100
0010
,
0002
0000
1000
0000
0010
0000
0203
0000
2300
0000
3020
0000
0031
0100
1000
0001
,
0020
0000
0001
0000
0100
0000
1000
0000
0001
0000
0100
0000
1000
0000
0031
1000
,
0200
0000
0010
0000
1000
0000
0302
0000
2003
0000
3020
0000
0130
0001
1000
0100
,
0010
0001
0022
0033
0100
1000
2200
3300
,
0010
0001
0100
1000
0001
0100
0010
0000
,
0010
1000
2020
3030
0100
0001
0202
0303
,
0010
1000
0100
0001
1000
0010
0100
0000
,
1000
0100
2200
3300
0001
0100
0202
0303
,
1000
0100
0001
0100
1000
0010
0001
0100
,
0001
0010
0022
0033
1000
0010
2020
3030
,
0001
0010
1000
0010
0001
0100
1000
0010
,
1000
0000
0000
1000
0100
0000
0000
0100
0010
0000
0001
0000
0010
0000
0100
0000
,
1000
0000
0000
1000
0001
0000
0000
0001
0100
0000
0010
0000
1000
0000
0001
0000
,
0001
0000
0000
0001
0010
0000
0000
0010
0100
0000
1000
0000
0100
0000
0010
0000
,
0001
0000
0000
0001
1000
0000
0000
1000
0001
0000
0100
0000
0010
0000
1000
0000
,
1000
0000
0000
1000
0100
0000
0000
0100
1000
0000
0010
0000
1000
0000
0100
0000
,
0001
0000
0000
0001
0010
0000
0000
0010
0001
0000
0100
0000
0001
0000
0010
0000
,
1000
0000
0000
1000
0100
0000
0000
0100
0001
0000
0010
0000
1000
0000
0100
0000
,
0001
0000
0000
0001
0100
0000
0000
0100
1000
0000
0010
0000
0001
0000
0100
0000
,
2000
3200
0320
0032
,
2003
3002
0203
0320
,
0032
0023
0230
2300
,
3002
2003
3020
0230
,
2300
3020
2030
3200
,
0302
0023
0032
0203
,
2300
3020
0032
0203
,
0302
0023
2030
3200
,
0020
0000
0000
0000
0000
0000
0000
0000
0330
0MM0
0000
0000
0000
0000
0000
0000
;

//---------------dance-single - ----------------
#NOTES:
     dance-single:
     :
     Challenge:
     11:
     0.843,1.000,0.966,1.000,0.581,473.000,133.000,196.000,188.000,41.000:
0000
0000
0000
0000
,
0000
0000
0000
0000
,
0000
0000
0000
0000
,
0000
0000
0000
0000
,
2002
0000
3003
0100
0220
0000
0330
1000
2002
3003
2200
3300
2002
3003
0202
0303
,
0220
0000
0330
0001
2002
0000
3003
0010
0220
0330
0022
0033
0220
0330
2020
3030
,
2002
0000
3003
0010
0220
0000
0330
0001
2002
3003
2020
3030
2002
3003
0022
0033
,
0220
0000
0330
1000
2002
0000
3003
0100
0220
0330
0202
0303
0220
0330
2200
3300
,
0002
0000
0000
0010
0200
0000
0000
1000
0313
0000
1000
0000
0001
0000
0100
0000
,
2000
0000
0000
0100
0020
0000
0000
0001
3130
0000
0001
0000
1000
0000
0010
0000
,
0200
0000
0000
0001
2000
0000
0000
0010
3301
0000
0010
0000
0100
0000
1000
0000
,
0020
0000
0000
1000
0002
0000
0000
0100
1033
0000
0100
0000
0010
0000
0001
0000
,
1000
0100
0001
0000
2002
0000
3113
0000
0001
0100
1000
0000
0220
0000
1331
0000
,
1000
0100
0001
0000
0001
0100
1000
0000
2100
3000
2002
3003
0102
0003
2002
3003
,
0001
0010
1000
0000
0220
0000
1331
0000
1000
0010
0001
0000
2002
0000
3113
0000
,
0001
0010
1000
0000
1000
0010
0001
0000
0012
0003
2002
3003
2010
3000
2002
3003
,
0100
1000
0010
0000
2200
0000
3311
0000
0100
0001
0010
0000
0202
0000
1313
0000
,
0100
1000
0010
0000
0100
0001
0010
0000
0201
0300
0220
0330
1020
0030
0220
0330
,
0010
0001
0100
0000
0022
0000
1133
0000
0010
1000
0100
0000
2020
0000
3131
0000
,
0010
0001
0100
0000
0010
1000
0100
0000
1200
0300
0220
0330
0021
0030
0220
0330
,
MMMM
MMMM
2222
3333
,
MMMM
0000
MMMM
0000
2200
0022
3333
0000
,
MMMM
MMMM
2222
3333
,
MMMM
0000
MMMM
0000
0202
2020
3333
0000
,
MMMM
MMMM
2222
3333
,
MMMM
0000
MMMM
0000
0022
2200
3333
0000
,
MMMM
MMMM
2222
3333
,
MMMM
0000
MMMM
0000
2020
0202
3333
0000
,
MMMM
1001
MMMM
0110
MMMM
1100
MMMM
0011
,
MMMM
0101
MMMM
1010
MMMM
0110
MMMM
1001
,
M1MM
1010
MMM1
0110
1MMM
0101
MM1M
1100
,
MMM1
1010
M1MM
0011
1MMM
0101
MM1M
1100
,
1000
0000
0100
0000
1000
0000
0100
0000
0000
0000
0000
0000
1100
0000
0000
0000
0000
0000
0100
0000
0000
0001
0000
0000
0010
0000
0000
0200
0000
0000
2000
0000
0000
0000
0000
0000
3300
0000
0000
1001
0000
0000
1001
0000
0000
M00M
0000
0000
,
0001
0000
0100
0000
0001
0000
0100
0000
0000
0000
0000
0000
0101
0000
0000
0000
0000
0000
0010
0000
0000
1000
0000
0000
0100
0000
0000
0020
0000
0000
0002
0000
0000
0000
0000
0000
0033
0000
0000
1001
0000
0000
1001
0000
0000
M00M
0000
0000
,
1000
0000
0010
0000
1000
0000
0010
0000
0000
0000
0000
0000
1010
0000
0000
0000
0000
0000
1000
0000
0000
0001
0000
0000
0100
0000
0000
0020
0000
0000
2000
0000
0000
0000
0000
0000
3030
0000
0000
0110
0000
0000
0110
0000
0000
0MM0
0000
0000
,
0001
0000
0010
0000
0001
0000
0010
0000
0000
0000
0000
0000
0011
0000
0000
0000
0000
0000
0001
0000
0000
1000
0000
0000
0010
0000
0000
0200
0000
0000
0002
0000
0000
0000
0000
0000
0303
0000
0000
0110
0000
0000
0110
0000
0000
0MM0
0000
0000
,
1000
0001
1000
1000
0001
1000
0001
0001
1000
0001
1000
1000
0001
1000
0001
0001
,
0100
0010
0100
0100
0010
0100
0010
0010
0100
0010
0100
0100
0010
0100
0010
0010
,
1000
0001
1000
1000
0001
1000
0001
0001
0100
0010
0100
0100
0010
0100
0010
0010
,
1000
0001
1000
1000
0010
0100
0010
0010
0001
1000
0001
0001
0100
0010
0100
0100
,
1000
0100
1000
1000
0100
1000
0100
0100
0001
0100
0001
0001
0100
0001
0100
0100
,
1000
0010
1000
1000
0010
1000
0010
0010
0001
0010
0001
0001
0010
0001
0010
0010
,
1000
0100
1000
1000
0100
0001
0100
0100
0001
0010
0001
0001
0010
1000
0010
0010
,
0001
0010
0001
0001
0100
0001
0100
0100
1000
0100
1000
1000
0010
1000
0010
0010
,
1001
M1MM
1010
MMM1
0110
1MMM
0101
MM1M
,
1100
0MM1
1010
M1MM
0011
1MMM
0101
MM1M
,
2001
0001
0001
000M
0010
00M0
0010
00M0
0100
0100
3100
MM00
1100
MM00
1100
MM00
,
1002
1000
1000
0000
M100
0M00
0100
0000
0010
0010
0013
00MM
0011
00MM
0011
00MM
,
1000
0100
1000
0100
1000
0000
0000
0000
2200
0000
3300
0000
2200
0000
3300
0000
0001
0100
0001
0100
0001
0000
0000
0000
0202
0000
0303
0000
0202
0000
0303
0000
,
1000
0010
1000
0010
1000
0000
0000
0000
2020
0000
3030
0000
2020
0000
3030
0000
0001
0010
0001
0010
0001
0000
0000
0000
0022
0000
0033
0000
0022
0000
0033
0000
,
0210
0010
0010
00M0
0001
000M
0001
0000
1000
1000
1300
MM00
1100
MM00
1100
MM00
,
0120
0100
0100
0M00
1000
M000
1000
0000
0001
0001
0031
00MM
0011
00MM
0011
00MM
,
2000
0000
0200
0000
0020
0000
0002
3333
,
0002
0000
0020
0000
0200
0000
2000
3333
,
2000
0000
0020
0000
0200
0000
0002
3333
,
0002
0000
0200
0000
0020
0000
2000
3333
,
2000
0000
0002
0000
0200
0000
0020
3333
,
0002
0000
2000
0000
0020
0000
0200
3333
,
2200
0000
0022
3333
2020
0000
0202
3333
,
0022
0000
2200
3333
0202
0000
2020
3333
,
1111
MMMM
0000
0000
0000
0000
0000
0000
;
