#TITLE:Bass Cannon;
#SUBTITLE:;
#ARTIST:Flux Pavilion;
#TITLETRANSLIT:;
#SUBTITLETRANSLIT:;
#ARTISTTRANSLIT:;
#CREDIT:;
#BANNER:../Wubstream - ban.png;
#BACKGROUND:../Wubstream - bg.png;
#LYRICSPATH:;
#CDTITLE:;
#MUSIC:Bass Cannon.ogg;
#OFFSET:0.010;
#SAMPLESTART:18.318;
#SAMPLELENGTH:12.000;
#SELECTABLE:YES;
#DISPLAYBPM:144.000;
#BPMS:0.000=144.000;
#STOPS:;
#BGCHANGES:;
// cache tags:
#FIRSTBEAT:16.000;
#LASTBEAT:336.500;
#SONGFILENAME:Songs/Wubstream/Bass Cannon - [Aoreo]/Bass Cannon.sm;
#HASMUSIC:1;
#HASBANNER:1;
#MUSICLENGTH:140.833;
// end cache tags

//---------------dance-single - J. Nero----------------
#NOTES:
     dance-single:
     J. Nero:
     Challenge:
     17:
     1.000,1.000,0.000,0.107,1.000,1451.000,0.000,15.000,0.000,0.000:
0000
0000
0000
0000
,
0000
0000
0000
0000
,
0000
0000
0000
0000
,
0000
0000
0000
0000
,
1000
0000
0001
0000
0100
0001
0000
0000
1000
0000
0001
0000
0100
0001
0000
1000
,
0001
0000
1000
0000
0001
0010
0000
0000
0001
0000
1000
0000
0001
0010
0000
0001
,
1000
0000
0001
0000
0100
0001
0000
0000
1000
0000
0001
0000
0100
0001
0000
1000
,
0001
0000
1000
0000
0001
0010
0000
0000
0001
0000
1000
0000
0001
0010
0000
0001
,
1000
0100
0010
0100
1000
0001
0010
0100
1000
0001
0100
0001
1000
0010
0100
0010
,
1000
0100
0010
0001
1000
0001
0100
0010
0100
0001
0010
0100
1000
0010
0100
0001
,
1000
0010
0100
0001
0010
0100
1000
0001
,
1000
0000
0000
0000
,
0002
0000
0000
0000
0000
0000
1003
0100
1000
0010
0100
0001
0010
0100
1000
0001
0100
0010
0100
0001
1000
0100
0010
0001
,
0100
0001
0010
0100
1000
0010
1000
0100
0010
0001
1000
0001
0100
0010
0100
0001
0010
0100
1000
0010
1000
0100
0010
0001
,
0100
0001
1000
0100
0010
0100
1000
0010
1000
0001
0100
0001
0010
0100
1000
0010
1000
0001
0010
0100
1000
0001
0100
0010
,
1000
0100
0010
0001
1000
0001
0100
0010
0100
0001
0010
0100
1000
0001
0100
0001
,
2000
0000
0000
3200
0000
0000
0310
0001
1000
0001
0100
0010
0100
0001
0010
0100
1000
0001
0100
0010
0100
0001
1000
0100
,
0010
0001
1000
0010
1000
0100
0010
0001
1000
0001
0100
0010
0100
0001
0010
0100
1000
0001
0100
0001
1000
0100
0010
0100
,
1000
0010
1000
0001
0100
0001
0010
0100
1000
0001
0100
0010
0100
0001
1000
0010
0100
0010
1000
0100
0010
0001
1000
0010
,
1000
0100
0010
0001
0100
0001
1000
0001
0010
0100
1000
0001
0100
0010
0100
0001
,
2000
0000
0000
0000
0000
0000
3001
0100
0001
0010
0100
1000
0010
1000
0001
0010
0100
1000
0010
1000
0001
0100
0001
0010
,
0100
1000
0010
1000
0001
0100
0001
0010
0100
1000
0001
0100
0001
1000
0100
1000
0010
0100
0010
1000
0001
0010
0100
1000
,
0010
0100
0010
1000
0001
0100
0001
0010
0100
1000
0001
0100
0001
0010
0100
1000
0010
0100
0010
1000
0100
0010
0001
1000
,
0001
1000
0100
1000
0001
1000
0010
0100
0001
0010
0100
1000
0001
0100
0001
1000
,
0002
0000
0000
2003
0000
0000
3010
0100
0010
1000
0100
0010
0001
1000
0001
0010
0100
1000
0010
1000
0001
0010
0100
1000
,
0010
1000
0001
0100
0001
0010
0100
1000
0010
0100
0010
1000
0100
0010
0001
1000
0100
1000
0010
0100
0001
1000
0001
0010
,
0100
1000
0010
0100
0010
1000
0001
1000
0100
0010
0001
1000
0010
0100
0010
1000
0001
0010
0100
1000
0010
0100
0010
1000
,
0001
0000
0000
0000
,
1000
0001
0100
0001
1000
0010
0100
0010
1000
0001
0100
0001
1000
0100
0010
0001
1000
0001
0100
0001
1000
0100
0010
0100
,
1000
0001
1000
0010
0100
0010
1000
0001
0100
0001
1000
0001
0100
0010
1000
0010
0100
0001
1000
0100
1000
0001
0010
0100
,
1000
0001
0100
0001
1000
0010
0100
0010
1000
0001
0100
0001
0100
0010
1000
0001
1000
0100
0010
0001
1000
0100
1000
0001
,
0100
0010
0100
0001
1000
0001
0010
0100
1000
0001
0100
0001
1000
0100
1000
0100
0010
0001
1000
0001
0100
0010
0100
0001
,
2000
0000
0000
3000
0000
0000
0001
0100
0001
1000
0010
1000
0001
0100
0001
1000
0100
0010
0100
1000
0001
0100
0001
1000
,
0001
0010
0100
1000
0001
0100
0010
0100
0001
1000
0100
1000
0100
0010
0001
1000
0001
0100
0010
0100
0001
1000
0001
0100
,
0010
0100
0001
1000
0100
0010
0001
1000
0100
1000
0001
0100
0010
0100
0001
1000
0001
0010
0100
1000
0001
0100
0010
0100
,
0001
0000
1000
0000
0100
0000
1000
0000
0001
0000
1000
0000
0010
0000
0100
0000
0010
0000
1000
0000
0001
0000
0100
0000
0001
0000
0000
0000
0000
0000
0000
0000
0000
0000
0000
0000
1000
0000
0000
0100
0000
0000
0010
0000
0000
0001
0000
0000
,
1000
0000
0000
0000
0000
0000
0001
0100
0001
1000
0010
0100
0010
1000
0001
1000
0100
0010
0001
1000
0100
1000
0001
1000
,
0010
0100
0010
1000
0001
0100
0001
0100
0010
1000
0001
0100
0001
1000
0100
1000
0001
0010
0100
1000
0001
0100
0001
1000
,
0001
0100
0010
0100
0001
1000
0100
0010
0100
1000
0001
0100
0001
0100
0010
1000
0010
0100
0001
1000
0100
0010
0001
1000
,
0100
1000
0001
1000
0010
0100
0010
1000
0001
0010
0100
1000
0001
0100
0010
0100
0001
1000
0001
0010
0100
1000
0001
0100
,
0001
0000
0000
0000
0000
0000
1000
0100
1000
0001
0100
0001
1000
0100
0010
0001
1000
0001
0100
0010
0100
0001
1000
0001
,
0100
0010
0100
0001
1000
0100
0010
0001
1000
0100
1000
0001
0100
0001
1000
0001
0100
0010
0100
0001
1000
0100
1000
0100
,
0010
0001
1000
0001
0100
0010
0100
0010
1000
0001
0100
0001
1000
0100
0010
0001
1000
0001
0100
0010
0100
0001
1000
0001
,
0100
0100
0001
0001
0010
0010
0100
0100
,
2000
0000
0000
0000
0000
0000
3001
0100
0001
0010
0100
1000
0010
1000
0001
0010
0100
1000
0010
0100
0010
1000
0100
0010
,
0001
0100
0001
1000
0100
0010
0100
1000
0010
0100
0010
1000
0001
0010
0100
1000
0010
1000
0001
0100
0001
0010
0100
1000
,
0010
0100
0010
1000
0100
0010
0001
1000
0100
1000
0010
0100
0010
1000
0100
0010
0001
0100
0001
1000
0100
1000
0010
0100
,
0001
1000
0001
0100
0001
0010
0100
1000
0010
0100
0010
1000
0100
0010
0001
1000
,
0002
0000
0000
2003
0000
0000
3100
1000
0010
0100
0001
0010
0100
1000
0010
0100
0001
1000
0100
0010
0001
0100
0001
1000
,
0100
0010
0100
1000
0010
0100
0010
1000
0001
0010
0100
1000
0010
0100
0010
1000
0100
0010
0001
0100
0001
0010
0100
1000
,
0010
0100
0010
1000
0001
0010
0100
1000
0010
1000
0001
0100
0001
0010
0100
0010
0001
1000
0010
0100
0010
1000
0100
0010
,
0001
1000
0001
0100
0001
0010
0100
1000
0001
1000
0100
1000
0010
0100
0001
1000
,
0002
0000
0000
0000
0000
0000
1003
0100
1000
0010
0100
0001
0010
0100
1000
0001
0100
0001
0010
0100
1000
0010
0100
0010
,
1000
0100
0010
0001
1000
0100
1000
0010
0100
0010
1000
0001
0010
0100
1000
0010
0100
0010
1000
0100
0010
0001
1000
0001
,
0010
0100
1000
0010
0100
0010
1000
0001
0010
0100
1000
0010
1000
0001
0100
0001
0010
0100
1000
0010
0100
0001
1000
0100
,
1000
0010
1000
0100
1000
0001
0010
0100
1000
0001
0100
0001
0010
0100
1000
0001
,
2000
0000
0000
3020
0000
0000
0130
0001
0010
0100
1000
0010
0100
0010
1000
0100
0010
0001
1000
0001
0100
0010
0100
0001
,
0010
0100
1000
0010
1000
0100
0010
0001
1000
0100
0010
0100
1000
0010
0100
0010
1000
0100
0010
0001
0100
0001
0010
0100
,
1000
0010
0100
0010
1000
0001
0010
0100
1000
0010
0100
0010
1000
0001
0100
0001
0010
0100
1000
0001
0100
0010
0100
0001
,
1000
0000
0001
0000
0100
0001
0000
0000
1000
0000
0001
0000
0100
0001
0000
1000
,
0001
0000
0000
0000
0000
0000
1000
0010
1000
0010
0100
0001
0010
0100
1000
0001
0100
0001
1000
0010
1000
0010
0100
0001
,
0010
0100
1000
0001
0100
0001
1000
0100
0010
0100
1000
0010
0100
0010
1000
0001
0100
0001
1000
0100
0010
0100
1000
0010
,
0100
0010
1000
0001
0100
0001
1000
0010
0100
0010
1000
0100
0010
0001
0100
0010
0100
0001
1000
0001
0100
0001
1000
0010
,
1000
0100
0010
0001
1000
0001
0100
0010
0100
0001
0010
0100
1000
0001
1000
0010
,
0100
0000
0000
0000
0000
0000
0001
0100
0001
1000
0010
1000
0100
0010
0001
1000
0100
1000
0001
0100
0001
1000
0010
1000
,
0100
0010
0001
1000
0001
0100
0010
1000
0001
0100
0001
0010
0100
1000
0001
0100
0001
1000
0010
1000
0001
0100
0001
0010
,
0100
1000
0001
0100
0010
0100
0001
1000
0100
0010
0001
0100
0010
1000
0100
0010
0001
1000
0001
0100
0010
0100
0001
1000
,
0001
0100
0001
1000
0001
0010
0100
1000
0001
0100
0010
0100
0001
1000
0100
0010
,
0001
0000
0000
0000
0000
0000
1000
0010
1000
0010
0100
0001
0010
0100
1000
0001
0100
0001
1000
0010
1000
0010
0100
0001
,
0010
0100
1000
0001
0100
0001
1000
0100
0010
0100
1000
0010
0100
0010
1000
0001
0100
0001
1000
0100
0010
0100
1000
0010
,
0100
0010
1000
0001
0100
0001
1000
0010
0100
0010
1000
0100
0010
0001
0100
0010
0100
0001
1000
0001
0100
0001
1000
0010
,
1000
0100
1000
0010
1000
0001
0010
0100
1000
0001
0100
0001
0010
0100
1000
0001
,
0100
0000
0000
0000
0000
0000
0001
0100
0001
1000
0010
1000
0100
0010
0001
1000
0100
1000
0001
0100
0001
1000
0010
1000
,
0100
0010
0001
1000
0001
0100
0010
1000
0001
0100
0001
0010
0100
1000
0001
0100
0001
1000
0010
1000
0001
0100
0001
0010
,
0100
1000
0001
0100
0010
0100
0001
1000
0100
0010
0001
0100
0010
1000
0100
0010
0001
1000
0001
0100
0010
0100
0001
1000
,
0002
0000
0000
0000
,
1003
0000
0100
1000
0000
0010
0100
0000
0001
0000
0010
0001
0000
0100
0010
0000
,
1000
0000
0100
1000
0000
0010
0100
0000
0001
0000
0010
0001
0000
0100
0010
0000
,
1000
0000
0100
1000
0000
0010
0100
0000
0001
0000
0010
0001
0000
0100
0010
0000
,
1000
0000
0100
1000
0000
0010
0100
0000
0001
0000
0010
0001
0000
0100
0010
0000
,
1000
0000
0000
0100
0000
0000
0100
0000
1000
0000
0000
0100
0000
0000
0100
0000
,
1000
0000
0000
0100
0000
0000
0100
0000
1000
0000
0000
0100
0000
0000
0100
0000
,
1000
0000
0000
0100
0000
0000
0100
0000
1000
0000
0000
0100
0000
0000
0100
0000
,
1000
0000
0000
0100
0000
0000
0100
0000
1000
0000
0000
0100
0000
0000
0100
0000
,
2000
3000
0000
0000
0000
0000
0000
0000
;

//---------------dance-single - J. Nero----------------
#NOTES:
     dance-single:
     J. Nero:
     Hard:
     16:
     1.000,1.000,0.142,0.107,1.000,1255.000,20.000,15.000,0.000,0.000:
0000
0000
0000
0000
,
0000
0000
0000
0000
,
0000
0000
0000
0000
,
0000
0000
0000
0000
,
1000
0000
0001
0000
0100
0001
0000
0000
1000
0000
0001
0000
0100
0001
0000
1000
,
0001
0000
1000
0000
0001
0010
0000
0000
0001
0000
1000
0000
0001
0010
0000
0001
,
1000
0000
0001
0000
0100
0001
0000
0000
1000
0000
0001
0000
0100
0001
0000
1000
,
0001
0000
1000
0000
0001
0010
0000
0000
0001
0000
1000
0000
0001
0010
0000
0001
,
1000
0100
0010
0100
1000
0001
0010
0100
1000
0001
0100
0001
1000
0010
0100
0010
,
1000
0100
0010
0001
1000
0001
0100
0010
0100
0001
0010
0100
1000
0010
0100
0001
,
1000
0010
0100
0001
0010
0100
1000
0001
,
1000
0000
0000
0000
,
0002
0000
0000
0000
0000
0000
1003
0100
1000
0010
0100
0001
0010
0100
1000
0001
0100
0010
0100
0001
1000
0100
0010
0001
,
0100
0001
0010
0100
1000
0010
1000
0100
0010
0001
1000
0001
0100
0010
0100
0001
0010
0100
1000
0010
1000
0100
0010
0001
,
0100
0001
1000
0100
0010
0100
1000
0010
1000
0001
0100
0001
0010
0100
1000
0010
1000
0001
0010
0100
1000
0001
0100
0010
,
1000
0100
0010
0001
1000
0001
0100
0010
0100
0001
0010
0100
1000
0001
0100
0001
,
2000
0000
0000
3200
0000
0000
0310
0001
1000
0001
0100
0010
0100
0001
0010
0100
1000
0001
0100
0010
0100
0001
1000
0100
,
0010
0001
1000
0010
1000
0100
0010
0001
1000
0001
0100
0010
0100
0001
0010
0100
1000
0001
0100
0001
1000
0100
0010
0100
,
1000
0010
1000
0001
0100
0001
0010
0100
1000
0001
0100
0010
0100
0001
1000
0010
0100
0010
1000
0100
0010
0001
1000
0010
,
1000
0100
0010
0001
0100
0001
1000
0001
0010
0100
1000
0001
0100
0010
0100
0001
,
2000
0000
0000
0000
0000
0000
3001
0100
0001
0010
0100
1000
0010
1000
0001
0010
0100
1000
0010
1000
0001
0100
0001
0010
,
0100
1000
0010
1000
0001
0100
0001
0010
0100
1000
0001
0100
0001
1000
0100
1000
0010
0100
0010
1000
0001
0010
0100
1000
,
0010
0100
0010
1000
0001
0100
0001
0010
0100
1000
0001
0100
0001
0010
0100
1000
0010
0100
0010
1000
0100
0010
0001
1000
,
0001
1000
0100
1000
0001
1000
0010
0100
0001
0010
0100
1000
0001
0100
0001
1000
,
0002
0000
0000
2003
0000
0000
3010
0100
0010
1000
0100
0010
0001
1000
0001
0010
0100
1000
0010
1000
0001
0010
0100
1000
,
0010
1000
0001
0100
0001
0010
0100
1000
0010
0100
0010
1000
0100
0010
0001
1000
0100
1000
0010
0100
0001
1000
0001
0010
,
0100
1000
0010
0100
0010
1000
0001
1000
0100
0010
0001
1000
0010
0100
0010
1000
0001
0010
0100
1000
0010
0100
0010
1000
,
0001
0000
0000
0000
,
1000
0001
0100
0001
1000
0010
0100
0010
1000
0001
0100
0001
1000
0100
0010
0001
1000
0001
0100
0001
1000
0100
0010
0100
,
1000
0001
1000
0010
0100
0010
1000
0001
0100
0001
1000
0001
0100
0010
1000
0010
0100
0001
1000
0100
1000
0001
0010
0100
,
1000
0001
0100
0001
1000
0010
0100
0010
1000
0001
0100
0001
0100
0010
1000
0001
1000
0100
0010
0001
1000
0100
1000
0001
,
1000
0010
0100
0001
0100
0010
1000
0001
0100
0001
1000
0100
0010
0001
1000
0100
1000
0001
0100
0010
1000
0001
0100
0001
,
2000
0000
0000
3000
0000
0000
0001
0100
0001
1000
0010
1000
0001
0100
0001
1000
0100
0010
0100
1000
0001
0100
0001
1000
,
0001
0010
0100
1000
0001
0100
0010
0100
0001
1000
0100
1000
0100
0010
0001
1000
0001
0100
0010
0100
0001
1000
0001
0100
,
0010
0100
0001
1000
0100
0010
0001
1000
0100
1000
0001
0100
0010
0100
0001
1000
0001
0010
0100
1000
0001
0100
0010
0100
,
0001
0000
1000
0000
0001
0000
1000
0000
0010
0000
0100
0000
0010
0000
1000
0000
0001
0000
0010
0000
0001
0000
1000
0000
0001
0000
0000
0000
0000
0000
0000
0000
0000
0000
0000
0000
1000
0000
0000
0100
0000
0000
0010
0000
0000
0001
0000
0000
,
1000
0000
0000
0000
0000
0000
0001
0100
0001
1000
0010
0100
0010
1000
0001
1000
0100
0010
0001
1000
0100
1000
0001
1000
,
0010
0100
0010
1000
0001
0100
0001
0100
0010
1000
0001
0100
0001
1000
0100
1000
0001
0010
0100
1000
0001
0100
0001
1000
,
0001
0100
0010
0100
0001
1000
0100
0010
0100
1000
0001
0100
0001
0100
0010
1000
0010
0100
0001
1000
0100
0010
0001
1000
,
0001
0100
0001
1000
0010
0100
0010
1000
0001
0100
0001
1000
0100
1000
0001
0010
0100
0010
0001
1000
0100
0010
0001
1000
,
0001
0000
0000
0000
0000
0000
1000
0100
1000
0001
0100
0001
1000
0100
0010
0001
1000
0001
0100
0010
0100
0001
1000
0001
,
0100
0010
0100
0001
1000
0100
0010
0001
1000
0100
1000
0001
0100
0001
1000
0001
0100
0010
0100
0001
1000
0100
1000
0001
,
0100
0010
0100
0001
1000
0001
0100
0010
0100
0001
1000
0100
0010
0100
1000
0001
0100
0001
1000
0100
0010
0001
1000
0001
,
0100
0100
0001
0001
0010
0010
0100
0100
,
2000
0000
0000
0000
0000
0000
3001
0100
0001
0010
0100
1000
0010
1000
0001
0010
0100
1000
0010
0100
0010
1000
0100
0010
,
0001
0100
0001
1000
0100
0010
0100
1000
0010
0100
0010
1000
0001
0010
0100
1000
0010
1000
0001
0100
0001
0010
0100
1000
,
0010
0100
0010
1000
0100
0010
0001
1000
0100
1000
0010
0100
0010
1000
0100
0010
0001
0100
0001
1000
0100
1000
0010
0100
,
0001
1000
0001
0100
0001
0010
0100
1000
0010
0100
0010
1000
0100
0010
0001
1000
,
0002
0000
0000
2003
0000
0000
3100
1000
0010
0100
0001
0010
0100
1000
0010
0100
0001
1000
0100
0010
0001
0100
0001
1000
,
0100
0010
0100
1000
0010
0100
0010
1000
0001
0010
0100
1000
0010
0100
0010
1000
0100
0010
0001
0100
0001
0010
0100
1000
,
0010
0100
0010
1000
0001
0010
0100
1000
0010
1000
0001
0100
0001
0010
0100
0010
0001
1000
0010
0100
0010
1000
0100
0010
,
0001
1000
0001
0100
0001
0010
0100
1000
0001
1000
0100
1000
0010
0100
0001
1000
,
0002
0000
0000
0000
0000
0000
1003
0100
1000
0010
0100
0001
0010
0100
1000
0001
0100
0001
0010
0100
1000
0010
0100
0010
,
1000
0100
0010
0001
1000
0100
1000
0010
0100
0010
1000
0001
0010
0100
1000
0010
0100
0010
1000
0100
0010
0001
1000
0001
,
0010
0100
1000
0010
0100
0010
1000
0001
0010
0100
1000
0010
1000
0001
0100
0001
0010
0100
1000
0010
0100
0001
1000
0100
,
1000
0010
1000
0100
1000
0001
0010
0100
1000
0001
0100
0001
0010
0100
1000
0001
,
2000
0000
0000
3020
0000
0000
0130
0001
0010
0100
1000
0010
0100
0010
1000
0100
0010
0001
1000
0001
0100
0010
0100
0001
,
0010
0100
1000
0010
1000
0100
0010
0001
1000
0100
0010
0100
1000
0010
0100
0010
1000
0100
0010
0001
0100
0001
0010
0100
,
1000
0010
0100
0010
1000
0001
0010
0100
1000
0010
0100
0010
1000
0001
0100
0001
0010
0100
1000
0001
0100
0010
0100
0001
,
1000
0000
0001
0000
0100
0001
0000
0000
1000
0000
0001
0000
0100
0001
0000
1000
,
0001
0000
1000
0001
0101
0000
0100
0010
,
1010
0000
1000
0100
0110
0000
0010
0001
,
1001
0000
1000
0010
0110
0000
0100
0001
,
1000
0100
0010
0001
1000
0001
0100
0010
0100
0001
0010
0100
1000
0001
1000
0010
,
0100
0000
0001
1000
1100
0000
0100
1000
,
1001
0000
0001
0100
0110
0000
0010
1000
,
1100
0000
0100
0010
0011
0000
0001
1000
,
0001
0100
0001
1000
0001
0010
0100
1000
0001
0100
0010
0100
0001
1000
0100
0010
,
0001
0000
1000
0001
0101
0000
0100
0010
,
1010
0000
1000
0100
0110
0000
0010
0001
,
1001
0000
1000
0010
0110
0000
0100
0001
,
1000
0100
1000
0010
1000
0001
0010
0100
1000
0001
0100
0001
0010
0100
1000
0001
,
0100
0000
0001
1000
1100
0000
0100
1000
,
1010
0000
0010
0100
0101
0000
0001
0010
,
0110
0000
0100
1000
1010
0000
0010
0100
,
0002
0000
0000
0000
,
1003
0000
0100
1000
0000
0010
0100
0000
0001
0000
0010
0001
0000
0100
0010
0000
,
1000
0000
0100
1000
0000
0010
0100
0000
0001
0000
0010
0001
0000
0100
0010
0000
,
1000
0000
0100
1000
0000
0010
0100
0000
0001
0000
0010
0001
0000
0100
0010
0000
,
1000
0000
0100
1000
0000
0010
0100
0000
0001
0000
0010
0001
0000
0100
0010
0000
,
1000
0000
0000
0100
0000
0000
0100
0000
1000
0000
0000
0100
0000
0000
0100
0000
,
1000
0000
0000
0100
0000
0000
0100
0000
1000
0000
0000
0100
0000
0000
0100
0000
,
1000
0000
0000
0100
0000
0000
0100
0000
1000
0000
0000
0100
0000
0000
0100
0000
,
1000
0000
0000
0100
0000
0000
0100
0000
1000
0000
0000
0100
0000
0000
0100
0000
,
2000
3000
0000
0000
0000
0000
0000
0000
;

//---------------dance-single - J. Nero----------------
#NOTES:
     dance-single:
     J. Nero:
     Easy:
     14:
     1.000,1.000,0.142,0.107,1.000,1111.000,20.000,15.000,0.000,0.000:
0000
0000
0000
0000
,
0000
0000
0000
0000
,
0000
0000
0000
0000
,
0000
0000
0000
0000
,
1000
0000
0001
0000
0100
0001
0000
0000
1000
0000
0001
0000
0100
0001
0000
1000
,
0001
0000
1000
0000
0001
0010
0000
0000
0001
0000
1000
0000
0001
0010
0000
0001
,
1000
0000
0001
0000
0100
0001
0000
0000
1000
0000
0001
0000
0100
0001
0000
1000
,
0001
0000
1000
0000
0001
0010
0000
0000
0001
0000
1000
0000
0001
0010
0000
0001
,
1000
0100
0010
0100
1000
0001
0010
0100
1000
0001
0100
0001
1000
0010
0100
0010
,
1000
0100
0010
0001
1000
0001
0100
0010
0100
0001
0010
0100
1000
0010
0100
0001
,
1000
0010
0100
0001
0010
0100
1000
0001
,
1000
0000
0000
0000
,
0002
0000
0000
0000
0000
0000
1003
0100
1000
0010
0100
0001
0010
0100
1000
0001
0100
0010
0100
0001
1000
0100
0010
0001
,
0100
0001
0010
0100
1000
0010
1000
0100
0010
0001
1000
0001
0100
0010
0100
0001
0010
0100
1000
0010
1000
0100
0010
0001
,
0100
0001
1000
0100
0010
0100
1000
0010
1000
0001
0100
0001
0010
0100
1000
0010
1000
0001
0010
0100
1000
0001
0100
0010
,
1000
0100
0010
0001
1000
0001
0100
0010
0100
0001
0010
0100
1000
0001
0100
0001
,
2000
0000
0000
3200
0000
0000
0310
0001
1000
0001
0100
0010
0100
0001
0010
0100
1000
0001
0100
0010
0100
0001
1000
0100
,
0010
0001
1000
0010
1000
0100
0010
0001
1000
0001
0100
0010
0100
0001
0010
0100
1000
0001
0100
0001
1000
0100
0010
0100
,
1000
0010
1000
0001
0100
0001
0010
0100
1000
0001
0100
0010
0100
0001
1000
0010
0100
0010
1000
0100
0010
0001
1000
0010
,
1000
0100
0010
0001
0100
0001
1000
0001
0010
0100
1000
0001
0100
0010
0100
0001
,
2000
0000
0000
0000
0000
0000
3001
0100
0001
0010
0100
1000
0010
1000
0001
0010
0100
1000
0010
1000
0001
0100
0001
0010
,
0100
1000
0010
1000
0001
0100
0001
0010
0100
1000
0001
0100
0001
1000
0100
1000
0010
0100
0010
1000
0001
0010
0100
1000
,
0010
0100
0010
1000
0001
0100
0001
0010
0100
1000
0001
0100
0001
0010
0100
1000
0010
0100
0010
1000
0100
0010
0001
1000
,
0001
1000
0100
1000
0001
1000
0010
0100
0001
0010
0100
1000
0001
0100
0001
1000
,
0002
0000
0000
2003
0000
0000
3010
0100
0010
1000
0100
0010
0001
1000
0001
0010
0100
1000
0010
1000
0001
0010
0100
1000
,
0010
1000
0001
0100
0001
0010
0100
1000
0010
0100
0010
1000
0100
0010
0001
1000
0100
1000
0010
0100
0001
1000
0001
0010
,
0100
1000
0010
0100
0010
1000
0001
1000
0100
0010
0001
1000
0010
0100
0010
1000
0001
0010
0100
1000
0010
0100
0010
1000
,
0001
0000
0000
0000
,
1000
0100
0010
0100
1000
0010
0100
0010
1000
0001
0010
0100
1000
0001
0100
0001
,
1000
0010
0100
0010
1000
0100
0010
0001
1000
0001
0100
0010
0100
0001
1000
0001
,
0010
0100
1000
0001
0100
0010
0100
0001
1000
0100
0010
0001
1000
0010
0100
0010
,
1000
0001
0100
0000
0001
1000
0001
0000
,
2000
0000
3000
0000
0001
0100
0001
0010
0100
1000
0010
0100
0010
1000
0100
0010
,
0001
1000
0001
0100
0001
1000
0100
0010
0100
1000
0010
0100
0010
1000
0001
0100
,
0001
0010
0100
1000
0001
0100
0001
1000
0100
0010
0001
1000
0010
0100
0010
1000
,
0001
0000
1000
0000
0100
0000
0000
0000
0010
0000
0001
0000
1000
0100
0010
0001
,
1000
0000
0000
0000
0001
0100
0001
1000
0100
0010
0100
1000
0010
0100
0001
1000
,
0001
0010
0100
1000
0001
0100
0010
0100
0001
1000
0100
1000
0001
1000
0010
0100
,
0010
1000
0001
0010
0100
1000
0001
0100
0010
0100
0001
0010
0100
1000
0001
0100
,
0001
0100
0001
0000
0010
0100
1000
0000
,
0001
0000
0000
0000
1000
0100
0010
0001
1000
0001
0100
0010
0100
0001
0010
0100
,
1000
0001
0100
0010
0100
0001
1000
0100
0010
0100
1000
0010
0100
0001
1000
0001
,
0100
0000
0001
1000
0100
0000
1000
0001
,
0100
0100
0001
0001
0010
0010
0100
0100
,
2000
0000
0000
0000
0000
0000
3001
0100
0001
0010
0100
1000
0010
1000
0001
0010
0100
1000
0010
0100
0010
1000
0100
0010
,
0001
0100
0001
1000
0100
0010
0100
1000
0010
0100
0010
1000
0001
0010
0100
1000
0010
1000
0001
0100
0001
0010
0100
1000
,
0010
0100
0010
1000
0100
0010
0001
1000
0100
1000
0010
0100
0010
1000
0100
0010
0001
0100
0001
1000
0100
1000
0010
0100
,
0001
1000
0001
0100
0001
0010
0100
1000
0010
0100
0010
1000
0100
0010
0001
1000
,
0002
0000
0000
2003
0000
0000
3100
1000
0010
0100
0001
0010
0100
1000
0010
0100
0001
1000
0100
0010
0001
0100
0001
1000
,
0100
0010
0100
1000
0010
0100
0010
1000
0001
0010
0100
1000
0010
0100
0010
1000
0100
0010
0001
0100
0001
0010
0100
1000
,
0010
0100
0010
1000
0001
0010
0100
1000
0010
1000
0001
0100
0001
0010
0100
0010
0001
1000
0010
0100
0010
1000
0100
0010
,
0001
1000
0001
0100
0001
0010
0100
1000
0001
1000
0100
1000
0010
0100
0001
1000
,
0002
0000
0000
0000
0000
0000
1003
0100
1000
0010
0100
0001
0010
0100
1000
0001
0100
0001
0010
0100
1000
0010
0100
0010
,
1000
0100
0010
0001
1000
0100
1000
0010
0100
0010
1000
0001
0010
0100
1000
0010
0100
0010
1000
0100
0010
0001
1000
0001
,
0010
0100
1000
0010
0100
0010
1000
0001
0010
0100
1000
0010
1000
0001
0100
0001
0010
0100
1000
0010
0100
0001
1000
0100
,
1000
0010
1000
0100
1000
0001
0010
0100
1000
0001
0100
0001
0010
0100
1000
0001
,
2000
0000
0000
3020
0000
0000
0130
0001
0010
0100
1000
0010
0100
0010
1000
0100
0010
0001
1000
0001
0100
0010
0100
0001
,
0010
0100
1000
0010
1000
0100
0010
0001
1000
0100
0010
0100
1000
0010
0100
0010
1000
0100
0010
0001
0100
0001
0010
0100
,
1000
0010
0100
0010
1000
0001
0010
0100
1000
0010
0100
0010
1000
0001
0100
0001
0010
0100
1000
0001
0100
0010
0100
0001
,
1000
0000
0001
0000
0100
0001
0000
0000
1000
0000
0001
0000
0100
0001
0000
1000
,
0001
0000
1000
0001
0101
0000
0100
0010
,
1010
0000
1000
0100
0110
0000
0010
0001
,
1001
0000
1000
0010
0110
0000
0100
0001
,
1000
0100
0010
0001
1000
0001
0100
0010
0100
0001
0010
0100
1000
0001
1000
0010
,
0100
0000
0001
1000
1100
0000
0100
1000
,
1001
0000
0001
0100
0110
0000
0010
1000
,
1100
0000
0100
0010
0011
0000
0001
1000
,
0001
0100
0001
1000
0001
0010
0100
1000
0001
0100
0010
0100
0001
1000
0100
0010
,
0001
0000
1000
0001
0101
0000
0100
0010
,
1010
0000
1000
0100
0110
0000
0010
0001
,
1001
0000
1000
0010
0110
0000
0100
0001
,
1000
0100
1000
0010
1000
0001
0010
0100
1000
0001
0100
0001
0010
0100
1000
0001
,
0100
0000
0001
1000
1100
0000
0100
1000
,
1010
0000
0010
0100
0101
0000
0001
0010
,
0110
0000
0100
1000
1010
0000
0010
0100
,
0002
0000
0000
0000
,
1003
0000
0100
1000
0000
0010
0100
0000
0001
0000
0010
0001
0000
0100
0010
0000
,
1000
0000
0100
1000
0000
0010
0100
0000
0001
0000
0010
0001
0000
0100
0010
0000
,
1000
0000
0100
1000
0000
0010
0100
0000
0001
0000
0010
0001
0000
0100
0010
0000
,
1000
0000
0100
1000
0000
0010
0100
0000
0001
0000
0010
0001
0000
0100
0010
0000
,
1000
0000
0000
0100
0000
0000
0100
0000
1000
0000
0000
0100
0000
0000
0100
0000
,
1000
0000
0000
0100
0000
0000
0100
0000
1000
0000
0000
0100
0000
0000
0100
0000
,
1000
0000
0000
0100
0000
0000
0100
0000
1000
0000
0000
0100
0000
0000
0100
0000
,
1000
0000
0000
0100
0000
0000
0100
0000
1000
0000
0000
0100
0000
0000
0100
0000
,
2000
3000
0000
0000
0000
0000
0000
0000
;

//---------------dance-single - J. Nero----------------
#NOTES:
     dance-single:
     J. Nero:
     Medium:
     15:
     1.000,1.000,0.142,0.107,1.000,1173.000,20.000,15.000,0.000,0.000:
0000
0000
0000
0000
,
0000
0000
0000
0000
,
0000
0000
0000
0000
,
0000
0000
0000
0000
,
1000
0000
0001
0000
0100
0001
0000
0000
1000
0000
0001
0000
0100
0001
0000
1000
,
0001
0000
1000
0000
0001
0010
0000
0000
0001
0000
1000
0000
0001
0010
0000
0001
,
1000
0000
0001
0000
0100
0001
0000
0000
1000
0000
0001
0000
0100
0001
0000
1000
,
0001
0000
1000
0000
0001
0010
0000
0000
0001
0000
1000
0000
0001
0010
0000
0001
,
1000
0100
0010
0100
1000
0001
0010
0100
1000
0001
0100
0001
1000
0010
0100
0010
,
1000
0100
0010
0001
1000
0001
0100
0010
0100
0001
0010
0100
1000
0010
0100
0001
,
1000
0010
0100
0001
0010
0100
1000
0001
,
1000
0000
0000
0000
,
0002
0000
0000
0000
0000
0000
1003
0100
1000
0010
0100
0001
0010
0100
1000
0001
0100
0010
0100
0001
1000
0100
0010
0001
,
0100
0001
0010
0100
1000
0010
1000
0100
0010
0001
1000
0001
0100
0010
0100
0001
0010
0100
1000
0010
1000
0100
0010
0001
,
0100
0001
1000
0100
0010
0100
1000
0010
1000
0001
0100
0001
0010
0100
1000
0010
1000
0001
0010
0100
1000
0001
0100
0010
,
1000
0100
0010
0001
1000
0001
0100
0010
0100
0001
0010
0100
1000
0001
0100
0001
,
2000
0000
0000
3200
0000
0000
0310
0001
1000
0001
0100
0010
0100
0001
0010
0100
1000
0001
0100
0010
0100
0001
1000
0100
,
0010
0001
1000
0010
1000
0100
0010
0001
1000
0001
0100
0010
0100
0001
0010
0100
1000
0001
0100
0001
1000
0100
0010
0100
,
1000
0010
1000
0001
0100
0001
0010
0100
1000
0001
0100
0010
0100
0001
1000
0010
0100
0010
1000
0100
0010
0001
1000
0010
,
1000
0100
0010
0001
0100
0001
1000
0001
0010
0100
1000
0001
0100
0010
0100
0001
,
2000
0000
0000
0000
0000
0000
3001
0100
0001
0010
0100
1000
0010
1000
0001
0010
0100
1000
0010
1000
0001
0100
0001
0010
,
0100
1000
0010
1000
0001
0100
0001
0010
0100
1000
0001
0100
0001
1000
0100
1000
0010
0100
0010
1000
0001
0010
0100
1000
,
0010
0100
0010
1000
0001
0100
0001
0010
0100
1000
0001
0100
0001
0010
0100
1000
0010
0100
0010
1000
0100
0010
0001
1000
,
0001
1000
0100
1000
0001
1000
0010
0100
0001
0010
0100
1000
0001
0100
0001
1000
,
0002
0000
0000
2003
0000
0000
3010
0100
0010
1000
0100
0010
0001
1000
0001
0010
0100
1000
0010
1000
0001
0010
0100
1000
,
0010
1000
0001
0100
0001
0010
0100
1000
0010
0100
0010
1000
0100
0010
0001
1000
0100
1000
0010
0100
0001
1000
0001
0010
,
0100
1000
0010
0100
0010
1000
0001
1000
0100
0010
0001
1000
0010
0100
0010
1000
0001
0010
0100
1000
0010
0100
0010
1000
,
0001
0000
0000
0000
,
1000
0100
0010
0100
1000
0010
0100
0010
1000
0001
0010
0100
1000
0001
0100
0001
,
1000
0010
0100
0010
1000
0100
0010
0001
1000
0001
0100
0010
0100
0001
1000
0001
,
0010
0100
1000
0001
0100
0010
0100
0001
1000
0100
0010
0001
1000
0010
0100
0010
,
1000
0001
0100
0001
1000
0100
0010
0001
1000
0001
0100
0010
0100
0001
1000
0100
0010
0001
1000
0001
0100
0010
0100
0001
,
2000
0000
3000
0000
0001
0100
0001
0010
0100
1000
0010
0100
0010
1000
0100
0010
,
0001
1000
0001
0100
0001
1000
0100
0010
0100
1000
0010
0100
0010
1000
0001
0100
,
0001
0010
0100
1000
0001
0100
0001
1000
0100
0010
0001
1000
0010
0100
0010
1000
,
0001
0000
0100
0000
0001
0000
1000
0000
0100
0000
0010
0000
0001
0000
1000
0000
0001
0000
0100
0000
0010
0000
1000
0000
0001
0000
0000
0000
0000
0000
0000
0000
0000
0000
0000
0000
1000
0000
0000
0100
0000
0000
0010
0000
0000
0001
0000
0000
,
1000
0000
0000
0000
0001
0100
0001
1000
0100
0010
0100
1000
0010
0100
0001
1000
,
0001
0010
0100
1000
0001
0100
0010
0100
0001
1000
0100
1000
0001
1000
0010
0100
,
0010
1000
0001
0010
0100
1000
0001
0100
0010
0100
0001
0010
0100
1000
0001
0100
,
0001
1000
0001
0100
0010
0100
0001
1000
0001
0100
0001
1000
0010
0100
0010
1000
0001
0010
0100
1000
0001
0100
0001
1000
,
0001
0000
0000
0000
1000
0100
0010
0001
1000
0001
0100
0010
0100
0001
0010
0100
,
1000
0001
0100
0010
0100
0001
1000
0100
0010
0100
1000
0010
0100
0001
1000
0001
,
0100
0010
0100
0001
1000
0001
0010
0100
1000
0001
0100
0010
0100
0001
1000
0100
0010
0001
1000
0001
0100
0010
1000
0001
,
0100
0100
0001
0001
0010
0010
0100
0100
,
2000
0000
0000
0000
0000
0000
3001
0100
0001
0010
0100
1000
0010
1000
0001
0010
0100
1000
0010
0100
0010
1000
0100
0010
,
0001
0100
0001
1000
0100
0010
0100
1000
0010
0100
0010
1000
0001
0010
0100
1000
0010
1000
0001
0100
0001
0010
0100
1000
,
0010
0100
0010
1000
0100
0010
0001
1000
0100
1000
0010
0100
0010
1000
0100
0010
0001
0100
0001
1000
0100
1000
0010
0100
,
0001
1000
0001
0100
0001
0010
0100
1000
0010
0100
0010
1000
0100
0010
0001
1000
,
0002
0000
0000
2003
0000
0000
3100
1000
0010
0100
0001
0010
0100
1000
0010
0100
0001
1000
0100
0010
0001
0100
0001
1000
,
0100
0010
0100
1000
0010
0100
0010
1000
0001
0010
0100
1000
0010
0100
0010
1000
0100
0010
0001
0100
0001
0010
0100
1000
,
0010
0100
0010
1000
0001
0010
0100
1000
0010
1000
0001
0100
0001
0010
0100
0010
0001
1000
0010
0100
0010
1000
0100
0010
,
0001
1000
0001
0100
0001
0010
0100
1000
0001
1000
0100
1000
0010
0100
0001
1000
,
0002
0000
0000
0000
0000
0000
1003
0100
1000
0010
0100
0001
0010
0100
1000
0001
0100
0001
0010
0100
1000
0010
0100
0010
,
1000
0100
0010
0001
1000
0100
1000
0010
0100
0010
1000
0001
0010
0100
1000
0010
0100
0010
1000
0100
0010
0001
1000
0001
,
0010
0100
1000
0010
0100
0010
1000
0001
0010
0100
1000
0010
1000
0001
0100
0001
0010
0100
1000
0010
0100
0001
1000
0100
,
1000
0010
1000
0100
1000
0001
0010
0100
1000
0001
0100
0001
0010
0100
1000
0001
,
2000
0000
0000
3020
0000
0000
0130
0001
0010
0100
1000
0010
0100
0010
1000
0100
0010
0001
1000
0001
0100
0010
0100
0001
,
0010
0100
1000
0010
1000
0100
0010
0001
1000
0100
0010
0100
1000
0010
0100
0010
1000
0100
0010
0001
0100
0001
0010
0100
,
1000
0010
0100
0010
1000
0001
0010
0100
1000
0010
0100
0010
1000
0001
0100
0001
0010
0100
1000
0001
0100
0010
0100
0001
,
1000
0000
0001
0000
0100
0001
0000
0000
1000
0000
0001
0000
0100
0001
0000
1000
,
0001
0000
1000
0001
0101
0000
0100
0010
,
1010
0000
1000
0100
0110
0000
0010
0001
,
1001
0000
1000
0010
0110
0000
0100
0001
,
1000
0100
0010
0001
1000
0001
0100
0010
0100
0001
0010
0100
1000
0001
1000
0010
,
0100
0000
0001
1000
1100
0000
0100
1000
,
1001
0000
0001
0100
0110
0000
0010
1000
,
1100
0000
0100
0010
0011
0000
0001
1000
,
0001
0100
0001
1000
0001
0010
0100
1000
0001
0100
0010
0100
0001
1000
0100
0010
,
0001
0000
1000
0001
0101
0000
0100
0010
,
1010
0000
1000
0100
0110
0000
0010
0001
,
1001
0000
1000
0010
0110
0000
0100
0001
,
1000
0100
1000
0010
1000
0001
0010
0100
1000
0001
0100
0001
0010
0100
1000
0001
,
0100
0000
0001
1000
1100
0000
0100
1000
,
1010
0000
0010
0100
0101
0000
0001
0010
,
0110
0000
0100
1000
1010
0000
0010
0100
,
0002
0000
0000
0000
,
1003
0000
0100
1000
0000
0010
0100
0000
0001
0000
0010
0001
0000
0100
0010
0000
,
1000
0000
0100
1000
0000
0010
0100
0000
0001
0000
0010
0001
0000
0100
0010
0000
,
1000
0000
0100
1000
0000
0010
0100
0000
0001
0000
0010
0001
0000
0100
0010
0000
,
1000
0000
0100
1000
0000
0010
0100
0000
0001
0000
0010
0001
0000
0100
0010
0000
,
1000
0000
0000
0100
0000
0000
0100
0000
1000
0000
0000
0100
0000
0000
0100
0000
,
1000
0000
0000
0100
0000
0000
0100
0000
1000
0000
0000
0100
0000
0000
0100
0000
,
1000
0000
0000
0100
0000
0000
0100
0000
1000
0000
0000
0100
0000
0000
0100
0000
,
1000
0000
0000
0100
0000
0000
0100
0000
1000
0000
0000
0100
0000
0000
0100
0000
,
2000
3000
0000
0000
0000
0000
0000
0000
;
