#TITLE:snow storm;
#SUBTITLE:;
#ARTIST:DJ Taka;
#TITLETRANSLIT:;
#SUBTITLETRANSLIT:;
#ARTISTTRANSLIT:;
#CREDIT:!auraelogo_new.png;
#BANNER:snowstormbn.png;
#BACKGROUND:snowstormbg.png;
#LYRICSPATH:;
#CDTITLE:!auraelogo_new.png;
#MUSIC:snow storm.mp3;
#OFFSET:-0.588;
#SAMPLESTART:15.406;
#SAMPLELENGTH:13.240;
#SELECTABLE:YES;
#DISPLAYBPM:145.000:72.000;
#BPMS:0.000=145.000,156.000=145.000,222.000=145.000;
#STOPS:;
#BGCHANGES:;
// cache tags:
#FIRSTBEAT:20.000;
#LASTBEAT:312.000;
#SONGFILENAME:Songs/toune 2/snow storm/snow storm.sm;
#HASMUSIC:1;
#HASBANNER:0;
#MUSICLENGTH:134.191;
// end cache tags

//---------------dance-single - ----------------
#NOTES:
     dance-single:
     :
     Challenge:
     11:
     0.850,0.959,0.238,0.022,0.902,763.000,32.000,3.000,0.000,0.000:
0000
0000
0000
0000
,
0000
0000
0000
0000
,
0000
0000
0000
0000
,
0000
0000
0000
0000
,
0000
0000
0000
0000
,
1000
0100
1000
0001
0010
0001
0010
0100
,
1000
0000
0100
0000
1000
0000
0010
0000
0100
0000
1000
0001
0100
0000
0001
0000
,
0010
0000
0100
0000
0001
0000
1000
0000
0001
0000
1000
0000
0100
0000
1000
0001
,
1000
0000
1000
0100
1000
0000
0001
0010
0001
0000
1000
0001
1000
0000
0001
1000
,
0100
0010
0001
0010
0100
0000
1000
0000
0100
0000
1000
0000
1001
0000
0110
0000
,
1000
0100
0010
0100
1000
0000
0100
0000
0001
0000
1000
0000
0110
0000
1100
1000
,
0001
1000
0100
0010
0001
0000
1000
0000
0001
0000
1000
0000
1100
0000
0100
0010
,
0100
0000
1000
0100
1000
0000
0001
0010
0001
0000
1000
0100
1100
0000
0110
0000
,
0100
1000
0100
0001
1000
0001
0100
0001
,
0100
0000
1000
0000
0100
0000
0001
0000
0010
0000
0001
0010
0001
0100
0010
1000
,
0100
0000
1000
0100
1000
0000
0010
1000
0100
0000
0010
0001
0100
0000
1000
0001
,
0010
0000
0001
1000
0100
0000
0001
1000
0001
0000
1000
0000
0110
0000
1100
0000
,
1000
0000
0000
0000
0010
0001
0010
0000
1000
0000
0010
0000
0100
0000
1000
0000
,
0001
0000
0000
0000
1000
0000
0001
0000
1000
0100
1000
0010
0100
0000
0000
0010
,
0001
0000
1000
0001
1000
0001
0001
0000
,
0100
0000
0001
0000
1000
0000
0100
0000
0001
1000
0001
0100
0001
0000
1000
0000
,
0100
0000
1000
0000
0001
0000
1000
0000
0010
0000
1000
0000
0100
0000
1000
0100
,
0010
0100
1000
0001
0010
0100
1000
0000
0110
0000
1001
0000
0110
0000
1000
0000
,
0100
0000
0010
0000
0001
0000
1000
0000
0100
0000
0010
0000
1000
0000
0001
0100
,
0001
0000
1000
0001
1000
0000
1000
0001
0100
0000
1000
0100
0010
0000
0001
0000
,
1001
0001
1000
0100
0010
0001
0001
0001
,
0010
0000
0100
0000
1000
0000
0100
0000
0010
0000
1000
0000
1000
0000
0100
1000
,
0001
0000
0100
0000
0001
0000
0001
0010
0001
0000
0001
0000
1000
0000
0100
0010
,
0001
0000
0001
0010
0100
0000
1000
0001
1000
0000
0100
0010
0001
0000
1000
0000
,
1001
0100
0010
0001
1000
0100
0001
0010
,
0001
0000
1000
0000
0100
0000
0010
0000
1000
0100
0010
0001
1000
0000
0001
0000
,
1000
0100
1000
0001
0100
0001
1000
0100
,
1000
0000
0001
0000
1000
0000
0100
0000
1000
0100
0010
0001
0010
0100
1000
0000
,
2002
0000
0000
0000
,
0000
0000
0000
0000
,
0000
0000
0000
0000
,
3003
0000
0000
0000
,
1001
0000
0010
0100
,
1100
0100
0001
0100
0100
0001
1000
0001
,
1001
1000
0100
0010
1001
0010
1000
0001
,
0100
0000
0000
0000
0000
0000
1000
0100
1000
0000
0000
0000
0001
0000
0000
0000
,
1000
0100
0010
0001
0010
0100
1000
0100
0010
0001
0010
0100
1000
0100
0010
0001
,
0010
0100
1000
0100
0010
0001
0010
0100
1000
0100
0010
0001
0010
0100
1000
0100
,
0010
0001
0010
0100
1000
0100
0010
0001
0010
0100
1000
0100
0010
0001
0000
0000
,
1001
0100
0100
1001
,
1000
0000
0001
1000
0000
0001
1000
0100
0010
0001
0010
0000
1000
0000
0001
0000
,
1000
0000
0001
0010
0000
0100
0010
0001
0010
0100
1000
0000
0001
0000
1000
0000
,
0100
0000
0001
0010
0000
0100
1000
0100
0010
0001
0010
0001
0100
0010
0100
0001
,
1000
0000
0001
0000
1000
0100
1000
0010
0100
0001
0010
0100
1000
0100
0010
0000
,
0011
0000
0100
0000
1000
0001
1000
0000
1000
0000
0001
0000
0010
0100
1000
0100
,
0010
0001
0010
0000
0001
0000
1000
0000
0100
0000
1000
0000
0001
0000
0001
0000
,
1000
0100
0010
0000
0001
0000
1000
0000
0100
0000
1000
0000
0001
0000
0001
0000
,
1000
0100
0010
0001
0010
0100
1000
0001
1000
0100
1000
0000
1001
0000
0000
0000
,
1100
0000
0100
0010
0001
0000
1000
0000
0001
0010
0100
1000
0100
0000
1000
0000
,
1000
0001
1000
0100
0010
0000
0001
0000
1000
0100
0010
0100
1000
0000
0100
0000
,
1000
0001
1000
0000
1000
0100
1000
0000
0001
0010
0001
0000
1000
0100
1000
0000
,
0001
1000
0001
0010
0100
0010
0001
0010
0100
1000
0100
0010
0100
0000
0100
0000
,
1100
0000
0001
0000
1000
0000
0100
0000
1000
0100
1000
0100
0010
0000
0001
0000
,
0010
0000
0100
0000
1000
0000
0100
0000
0001
0010
0001
0010
0100
0000
1000
0100
,
1000
0100
0010
0001
0010
0100
0010
0100
0010
0001
0010
0100
0010
0001
0010
0100
,
1000
0100
1000
0001
0010
0001
0010
1000
0001
1000
0100
0010
0100
0010
0100
2000
,
0000
0000
0000
0000
0000
0000
0000
0000
0000
0000
0000
3000
0000
0000
0000
0000
,
0001
0000
1000
0100
0000
0001
0100
0001
0010
0100
1000
0100
1000
0000
0100
0000
,
1000
0000
0001
0010
0000
1000
0100
1000
0100
0010
0001
0010
0001
0000
0010
0000
,
1000
0001
1000
0100
0010
0100
1000
0001
1000
0100
0010
0001
0010
0100
1000
0001
,
0010
0100
1000
0100
0010
0100
1000
0100
1000
0100
0010
0001
0010
0100
1000
0001
,
1000
0001
0100
0001
1000
0001
0100
0001
0010
0001
1000
0001
0100
0001
1000
0001
,
1000
0001
0100
0001
0100
0001
0010
0100
1000
0001
1000
0010
1000
0100
1000
0001
,
1000
0001
0010
0100
0010
0001
1000
0100
0010
0001
1000
0100
0010
0001
0010
0100
,
1000
0001
1000
0100
0010
0001
0010
0100
0010
0001
1000
0100
1000
0100
0010
0000
,
1001
0000
0100
0010
0100
0000
0001
0000
1000
0100
1000
0100
0010
0000
0100
0000
,
1001
0000
1000
0001
1000
0000
0010
0000
1000
0001
1000
0010
1000
0000
1000
0000
,
1000
0100
1000
0010
1000
0100
1000
0100
1000
0010
1000
0010
1000
0001
1000
0001
,
1000
0100
0010
0001
0010
0100
1000
0100
0010
0001
0010
0001
0010
0001
1000
0000
,
1001
0000
0010
0000
1100
0000
0001
0000
1000
0100
1000
0100
0010
0000
0001
0000
,
1001
0000
1000
0000
0110
0000
0001
0000
0001
0010
0100
1000
0001
0010
0100
1000
,
0001
1000
0100
1000
0100
1000
0001
0010
0100
1000
0100
1000
0001
0010
0001
1000
,
0100
1000
0100
0010
0001
0010
0100
1000
0100
1000
0001
0010
0001
0010
0100
0000
,
1001
0000
0000
0000
;
