#TITLE:DDR EXTREME Nonstop Megamix;
#SUBTITLE:;
#ARTIST:Various artists;
#TITLETRANSLIT:;
#SUBTITLETRANSLIT:;
#ARTISTTRANSLIT:;
#CREDIT:;
#BANNER:ddrextreme.png;
#BACKGROUND:ddrexmm-bg.png;
#LYRICSPATH:;
#CDTITLE:../CDTitleBRAEDEN.png;
#MUSIC:DDR EXTREME Nonstop Megamix.ogg;
#OFFSET:-3.510;
#SAMPLESTART:38.790;
#SAMPLELENGTH:12.000;
#SELECTABLE:YES;
#BPMS:0.000=170.070,199.000=170.110,200.000=174.030,216.000=174.090,220.000=174.010,443.875=140.010,444.000=173.990,490.000=177.770,492.000=169.940,622.000=168.500,622.500=120.000,623.000=60.000,623.250=30.000,623.375=167.500,626.000=165.980,753.000=120.000,753.500=60.000,753.750=30.000,754.000=165.500,756.000=166.960,948.000=164.300,952.000=156.000,1178.000=158.260,1180.000=155.520,1184.000=154.520,1304.000=154.340,1308.000=154.120,1320.500=174.100,1321.000=202.620,1321.500=237.580,1324.000=150.000,1580.000=144.740,1584.000=147.920,1748.000=147.200,1776.000=147.300,1972.000=145.000,1976.000=145.300,1980.000=145.040,2199.500=143.400,2216.000=143.500,2396.000=145.000,2560.000=152.400,2564.000=138.060,2667.000=138.040,2768.000=136.020,2944.000=130.500,2948.000=128.740,3140.000=129.600,3148.000=134.020,3292.000=133.980,3359.500=140.740,3360.000=93.600,3444.000=100.000,3444.250=105.000,3444.500=110.000,3444.750=115.000,3445.250=119.999,3445.750=129.999,3446.250=140.000,3446.750=150.000,3447.250=159.999,3447.750=174.999,3448.250=184.999,3448.750=194.999,3449.250=224.999,3452.000=245.000,3455.000=231.000,3457.500=200.000,3460.000=195.000,3756.000=271.000,3760.000=135.000,3806.000=134.999,3810.000=135.000,3838.000=134.999,3842.000=135.000,3853.000=134.999,3857.000=135.000,3893.500=270.000,3894.500=75.000,3894.750=100.000,3895.000=125.000,3895.500=170.000,3896.000=190.000,3896.250=210.000,3896.500=230.000,3897.000=270.000,3897.500=290.000,3898.000=300.000,3898.500=145.000,3988.500=280.000,3989.500=270.000,3990.500=250.000,3991.000=234.000,3991.500=192.000,3992.000=164.000,3992.500=153.000,3996.000=152.000,4232.000=155.000,4235.875=130.320,4236.000=152.980,4480.000=157.700,4484.000=155.000,4696.000=162.000,4704.000=169.000,4968.000=177.600,4976.000=177.000,5256.000=200.000,5286.000=201.500,5288.000=200.000,5316.000=201.000,5320.000=200.000,5496.000=55.320,5504.000=170.060,5736.000=341.000,5744.000=166.499,5776.000=167.100,5778.000=166.499,5904.000=666.014,5911.000=83.280,5919.875=100.500,5920.000=166.500,5980.250=333.000,5980.750=200.000,5983.250=153.000,6214.750=75.000,6215.500=37.500,6215.750=153.000;
#STOPS:623.375=0.960
,754.000=0.800
,1244.000=0.400
,3358.000=0.220
,3359.500=1.560
,3899.000=0.207
,3992.500=0.196
,5911.000=0.820
,5983.250=0.440
,6215.750=2.840
;
#BGCHANGES:;
// cache tags:
#FIRSTBEAT:0.000;
#LASTBEAT:6213.000;
#SONGFILENAME:Songs/Index Fusion/DDR Extreme Nonstop Megamix - [Braeden]/ddrexmm.sm;
#HASMUSIC:1;
#HASBANNER:1;
#MUSICLENGTH:1437.408;
// end cache tags

//---------------dance-single - ----------------
#NOTES:
     dance-single:
     :
     Challenge:
     17:
     1.000,1.000,0.301,0.127,1.000,15638.000,432.000,183.000,0.000,0.000:
1000
0000
0001
0000
0100
0010
0000
0100
0010
0000
1000
0000
0001
1000
0000
0001
,
1000
0000
0010
0000
1000
0010
0000
1000
0010
0000
0100
0000
0001
0010
0000
0001
,
0010
0000
0100
0000
1000
0001
0000
1000
0001
0000
0100
0000
0010
1000
0000
0010
,
1000
0000
0100
0000
0010
0001
0000
0010
0001
0000
0010
0000
0100
0000
1000
0000
,
1001
0000
0001
0000
0100
0010
0000
0010
1000
0000
0001
0000
0100
0000
0010
0000
,
1000
0000
0100
0000
0010
0001
0000
0001
0010
0000
0100
0000
1000
0001
1000
0000
,
0001
0000
0100
0000
0010
1000
0000
1000
0010
0000
0100
0000
0001
0100
0001
0000
,
1000
0000
0010
0000
0100
0000
0001
0100
0000
0010
1000
0010
1000
0000
0001
0000
,
1001
0000
1000
0000
0100
0000
0010
0001
0000
0001
0010
0000
0100
1000
0100
1000
,
0100
0000
0010
0000
0001
0000
0100
0010
0000
1000
0100
0000
0010
0001
0010
0001
,
1000
0000
0010
0000
0100
0000
0001
0100
0000
0100
0001
0000
1000
0000
0010
0000
,
0100
0001
0100
0010
1000
0100
0010
0001
0010
0100
1000
0001
0100
0010
1000
0100
,
0010
0001
0010
0100
1000
0001
0100
0010
1000
0100
0010
0001
0010
0100
1000
0001
,
0100
0010
1000
0100
0010
0001
0010
0100
1000
0001
0100
0010
1000
0100
0010
0001
,
0010
0100
1000
0001
0100
0010
1000
0100
0010
0001
0010
0100
1000
0001
0100
0010
,
1000
0010
0100
0001
1000
0100
0010
0001
,
0100
0000
0010
0000
1000
0000
0100
0000
0010
0001
0100
0010
1000
0100
0010
0001
,
0010
0100
1000
0001
0100
0010
1000
0100
0010
0001
0010
0100
1000
0001
0100
0010
,
1000
0100
0010
0001
0010
0100
1000
0001
0100
0010
1000
0100
0010
0001
0010
0100
,
1000
0000
0001
0100
0001
0000
0100
0000
0010
1000
0010
0000
1000
0000
0001
0000
,
1001
0001
0010
0100
1000
0010
0100
0001
,
0010
0001
0010
0100
1000
0001
0100
0010
1000
0100
0010
0001
0010
0100
1000
0001
,
0100
0010
1000
0100
0010
0001
0010
0100
1000
0001
0100
0010
1000
0001
0010
0100
,
1000
0001
1000
0001
0100
0010
0100
0010
1000
0001
1000
0010
1000
0100
1000
0001
,
0010
0001
0100
0001
1000
0001
0100
0010
1000
0100
0010
0001
0010
0100
1000
0001
,
0100
0010
1000
0100
0010
0001
0010
0100
1000
0001
0100
0010
1000
0100
0010
0001
,
2000
3000
2000
3000
2000
3000
0001
1000
,
0000
0010
0100
0001
0100
0010
1000
0100
,
0010
0001
0010
0100
1000
0001
0100
0010
1000
0100
0010
0001
0010
0100
1000
0001
,
0100
0010
1000
0100
0010
0001
0010
0100
1000
0001
0100
0010
1000
0100
0010
0001
,
0010
0100
1000
0001
0100
0010
1000
0100
0010
0001
0010
0100
1000
0001
0100
0010
,
1000
0100
0010
0001
0010
0100
1000
0001
0100
0010
1000
0100
0010
0001
0010
0100
,
1000
0001
0100
0010
1000
0100
0010
0001
1000
0100
0010
0001
1000
0010
0100
0001
,
1000
0100
0010
0001
0010
0100
1000
0001
0100
0010
1000
0100
0010
0001
0010
0100
,
1000
0001
0100
0010
1000
0100
0010
0001
0010
0100
1000
0001
0100
0010
1000
0100
,
0010
0001
0010
0100
1000
0001
0100
0010
1000
0100
0010
0001
0010
0100
1000
0001
,
1000
0000
0100
0000
0010
0001
0010
0001
0010
0000
0100
0000
1000
0001
1000
0001
,
1000
0000
0010
0000
0100
0001
0100
0001
0100
0000
0010
0000
1000
0010
1000
0010
,
1000
0000
0001
0000
0100
0010
0100
0010
0100
0000
0001
0000
1000
0001
1000
0001
,
1000
0000
0010
0000
0100
0001
0100
0001
0100
0000
0010
0000
1000
0001
1000
0001
,
1000
0000
0010
0000
0100
0001
0100
0001
1000
0000
0010
0000
0100
0001
0100
0001
,
1000
0000
0010
0000
1000
0100
0010
0001
0010
0000
0100
0000
1000
0001
0100
0010
,
1000
0000
0001
0000
0010
0100
1000
0001
0100
0000
0010
0000
1000
0100
0010
0001
,
1000
0000
0010
0000
1000
0000
0000
0000
1000
0000
0001
0100
0001
0000
1000
0010
,
1000
0100
0010
0001
0010
0100
1000
0001
0100
0010
1000
0010
0100
0001
1000
0100
,
0010
0001
0010
0100
1000
0001
0100
0010
1000
0100
0010
0001
0010
0100
1000
0001
,
0100
0010
1000
0100
0010
0001
0010
0100
1000
0001
0100
0010
1000
0100
0010
0001
,
1000
0100
0010
0001
0010
0100
1000
0001
0100
0010
1000
0100
0010
0000
0000
0000
0000
0000
0010
0000
0000
0000
0000
0000
,
0001
0010
0100
1000
0100
0010
0001
0010
0100
1000
0001
0100
0010
0000
0000
0000
0000
0000
0010
0000
0000
0000
0000
0000
,
1000
0100
0010
0001
0010
0100
1000
0001
0100
0010
1000
0100
0010
0001
0010
0100
1000
0001
1000
0100
0010
0001
0010
0100
,
1000
0000
0010
0000
0100
0000
0001
0000
0100
0000
0010
1000
0010
1000
0010
0000
,
0100
0001
0100
0010
1000
0100
0010
0001
0010
0100
1000
0001
0100
0010
1000
0100
,
0010
0001
0010
0100
1000
0001
0100
0010
1000
0100
0010
0001
0010
0100
1000
0001
,
0100
0010
1000
0100
0010
0001
0010
0100
1000
0001
0100
0010
1000
0100
0010
0001
,
1000
1000
0010
0010
0100
0100
0001
0001
,
1000
1000
0010
0010
0100
0100
0001
0101
,
0000
0000
0010
0000
1000
0010
0000
0010
,
0000
0000
0010
0000
1000
0010
0000
0010
,
0000
0010
1000
0010
1000
0010
1000
0001
,
1000
0100
0010
0001
0010
0100
1000
0001
0100
0010
1000
0100
0010
0001
0010
0100
,
1000
0001
0100
0010
1000
0100
0010
0001
0010
0100
1000
0001
0100
0010
1000
0100
,
0010
0001
0010
0100
1000
0001
0100
0010
1000
0100
0010
0001
0010
0100
1000
0001
,
0100
0010
1000
0100
0010
0001
0010
0100
1000
0001
0100
0010
1000
0100
0010
0001
,
0010
0100
1000
0001
0100
0010
1000
0100
0010
0001
0010
0100
1000
0001
0100
0010
,
1000
0100
0010
0001
0010
0100
1000
0001
0100
0010
1000
0100
0010
0001
0010
0100
,
1000
0001
0100
0010
1000
0100
0010
0001
0010
0100
1000
0001
0100
0010
1000
0100
,
0010
0001
0010
0100
1000
0001
0100
0010
1000
0100
0010
0001
0010
0100
1000
0001
,
1000
0010
0100
0001
1000
0100
0010
0001
0010
0100
1000
0001
0100
0010
1000
0100
,
0010
0001
0010
0100
1000
0001
0100
0010
1000
0100
0010
0001
1000
0010
1000
0010
,
0100
0001
0100
0010
1000
0100
0010
0001
0010
0100
1000
0001
0100
0010
1000
0001
,
0010
0100
1000
0001
0100
0010
1000
0100
0010
0001
0010
0100
1000
0001
0100
0010
,
1000
0100
0010
0001
0010
0100
1000
0001
0100
0010
0100
0001
0010
0100
1000
0001
,
0100
0010
1000
0100
0010
0001
0100
0010
1000
0001
0010
0100
1000
0100
0010
0001
,
0100
0010
1000
0001
0010
0100
1000
0001
0100
0010
1000
0100
0010
0001
0010
0100
,
1000
0001
0100
0010
1000
0100
0010
0001
0010
0100
1000
0001
0100
0010
1000
0100
,
0010
0001
0010
0100
1000
0001
0100
0010
1000
0001
0010
0100
1000
0001
0100
0010
,
1000
0100
0010
0001
0100
0010
1000
0001
0010
0100
1000
0001
0100
0010
1000
0100
,
0010
0001
0010
0100
1000
0001
0100
0010
1000
0100
0010
0001
0010
0100
1000
0001
,
0100
0010
1000
0100
0010
0001
0010
0100
1000
0001
0100
0010
1000
0100
0010
0001
,
0010
0100
1000
0001
0100
0010
1000
0100
0010
0001
0010
0100
1000
0001
0100
0010
,
1000
0100
0010
0001
0010
0100
1000
0001
0100
0010
1000
0100
0010
0001
0010
0100
,
1000
0001
0100
0010
1000
0100
0010
0001
0010
0100
1000
0001
0100
0010
1000
0100
,
0010
0001
0010
0100
1000
0001
0100
0010
1000
0100
0010
0001
0010
0100
1000
0001
,
0100
0010
1000
0100
0010
0001
0010
0100
1000
0001
0100
0010
1000
0100
0010
0001
,
0010
0100
1000
0001
0100
0010
1000
0100
0010
0001
0010
0100
1000
0001
0100
0010
,
1000
0100
0010
0001
0010
0100
1000
0001
0100
0010
1000
0100
0010
0001
0010
0100
,
1000
0001
0100
0010
1000
0100
0010
0001
0010
0100
1000
0001
0100
0010
1000
0100
,
0010
0001
0010
0100
1000
0001
0100
0010
1000
0001
0010
0100
1000
0001
0100
0010
,
1000
0100
0010
0001
0010
0100
1000
0001
0100
0010
1000
0100
0010
0001
0010
0100
,
1000
0001
0100
0010
1000
0001
0010
0001
1000
0001
0010
0001
1000
0001
0100
0001
,
1000
0001
0100
0001
1000
0100
0010
0001
0010
0100
1000
0001
0100
0010
1000
0001
,
0100
0010
1000
0100
0010
0001
0010
0100
1000
0001
0100
0010
1000
0100
0010
0001
,
0010
0100
1000
0001
0100
0010
1000
0100
0010
0001
0010
0100
1000
0001
0100
0010
,
1000
0010
0100
0001
0100
0010
1000
0001
0100
0010
1000
0100
0010
0001
0010
0100
,
1000
0001
0010
0001
1000
0100
0010
0001
0010
0100
1000
0001
0100
0010
1000
0100
,
0010
0001
0010
0100
1000
0001
0100
0010
1000
0001
0010
0100
1000
0001
0100
0010
,
1000
0001
0010
0001
0010
0100
1000
0001
0100
0010
1000
0100
0010
0001
0010
0100
,
1000
0001
0100
0010
1000
0001
0010
0100
1000
0100
0010
0001
1000
0001
0100
0001
,
0010
0001
0100
0001
1000
0100
0010
0001
0010
0100
1000
0001
0100
0010
1000
0001
,
1000
0100
0010
0001
0010
0100
1000
0001
0100
0010
1000
0001
0010
0100
1000
0001
,
0100
0010
1000
0100
0010
0001
0010
0100
1000
0001
0100
0010
1000
0100
0010
0001
,
0010
0100
1000
0001
0100
0010
1000
0100
0010
0001
0010
0100
1000
0001
0100
0010
,
1000
0100
0010
0001
1000
0010
1000
0001
0010
0001
1000
0010
1000
0001
0100
0001
,
0100
0010
1000
0100
0010
0001
0010
0100
1000
0001
0100
0010
1000
0100
0010
0001
,
0010
0100
1000
0001
0100
0010
1000
0100
0010
0001
0010
0100
1000
0001
0100
0010
,
1000
0100
0010
0001
0010
0100
1000
0001
0100
0010
1000
0100
0010
0000
1001
0000
,
0000
0001
0100
0010
1000
0100
0010
0001
,
1000
0100
0010
0001
0010
0100
1000
0001
0100
0010
1000
0001
0100
0010
1000
0100
,
0010
0001
0010
0100
1000
0001
0100
0010
1000
0100
0010
0001
0010
0100
1000
0001
,
0100
0010
1000
0100
0010
0001
0010
0100
1000
0001
0100
0010
1000
0100
0010
0001
,
0100
0010
1000
0001
0010
0100
1000
0001
0100
0010
1000
0100
0010
0001
0010
0100
,
1000
0001
0100
0010
1000
0100
0010
0001
0010
0100
1000
0001
0100
0010
1000
0100
,
0010
0001
0010
0100
1000
0001
0100
0010
1000
0100
0010
0001
0010
0100
1000
0001
,
0100
0010
1000
0100
0010
0001
0010
0100
1000
0001
0100
0010
1000
0010
0100
0001
,
1000
0100
0010
0001
0100
0010
1000
0001
0100
0010
1000
0100
0010
0001
0010
0001
,
1000
0100
0010
0001
1000
0010
0100
0001
1000
0100
0010
0001
1000
0010
0100
0001
,
1000
0100
0010
0001
1000
0010
0100
0001
0010
0001
0010
0100
1000
0001
0100
0010
,
1000
0100
0010
0001
1000
0010
0100
0001
1000
0100
0010
0001
1000
0010
0100
0001
,
1000
0100
0010
0001
1000
0010
0100
0001
0100
0010
1000
0100
0010
0000
0000
0000
,
0001
0100
0010
1000
,
0010
0100
0001
0010
,
0001
1000
0001
1000
0001
1000
0001
1000
,
0010
0100
0010
0100
0000
0000
0000
0000
,
1001
0000
0000
0000
1001
0000
0000
0000
1001
0000
0000
0000
0001
1000
0001
0000
,
1000
0000
0100
0000
0010
0000
0001
1000
0001
0000
0100
0000
0010
0000
1000
0000
,
0100
0000
0010
0000
0001
0000
0100
0000
0010
0000
1000
0000
0010
0000
1000
0001
,
1000
0001
0100
0010
1000
0100
0010
0000
,
0001
0100
0010
1000
0000
0020
0000
0000
,
1030
0010
0000
0000
0000
0010
1000
0100
,
0010
0001
0100
0010
1000
0100
0010
0001
,
0010
0100
1000
0001
0100
0010
1000
0100
,
1000
0000
0000
1000
0000
0000
0001
0100
0001
0000
1000
0000
0001
0000
0010
0100
,
0010
0000
0100
1000
0000
0000
0001
1000
0001
0000
1000
0100
1000
0000
0001
0000
,
0100
0000
0010
1000
0000
0000
0001
0000
0100
0000
0010
1000
0000
0000
0001
1000
,
0001
0000
0000
1000
0100
0010
0001
0100
0010
0000
1000
0001
0000
0000
0010
0000
,
1001
0001
0100
0010
1000
0200
0000
0000
,
0310
0001
0100
0010
1000
0200
0000
0000
,
0310
0001
0010
0002
0000
2003
0000
0000
,
3001
0000
0100
0010
0100
0000
0001
0000
0100
0000
0010
0000
1010
0000
0000
0000
,
1000
0000
0010
0000
0100
0000
0001
0100
,
0000
0010
0000
0000
0000
1000
0001
0100
,
0010
0000
1000
0001
0000
0000
0000
0000
,
0000
0000
0000
0000
,
1000
0001
1000
0001
0000
0200
0000
0000
,
0000
0310
0000
0000
0000
1000
0001
0100
,
0010
0000
1000
0001
0000
0000
1000
0000
0000
0000
0000
0000
0000
0000
0000
0000
,
0000
0000
0000
0000
,
1001
0000
1001
0000
1001
0000
0001
0100
,
0010
0000
1000
0000
0100
0000
0010
0001
0010
0000
0100
0000
1000
0000
0001
0000
,
0100
0010
1000
0100
0010
0001
0100
0010
,
1000
0000
0100
0000
0010
0000
0001
0000
1000
0000
0001
1000
0001
0000
1000
0000
,
0100
0010
0001
0100
0010
1000
0100
0010
,
0001
0000
0100
0000
0010
1000
0001
0100
,
0010
1000
0001
1000
0010
1000
0100
0010
,
0001
0000
0010
0000
0100
0000
1000
0000
0001
1000
0001
1000
0010
0100
0010
0100
,
0001
0000
0000
0000
,
1000
0100
1000
0000
0001
0010
0001
0000
1000
0001
1000
0000
0001
0100
0001
0000
,
1000
0010
1000
0000
0001
1000
0001
0000
0100
0001
0100
0000
0010
1000
0010
0000
,
0100
0001
0100
0000
0001
0010
0001
0000
1000
0001
1000
0000
0001
0100
0001
0000
,
1000
0010
1000
0000
0001
0100
0001
0000
1000
0001
1000
0000
0001
0100
0001
0000
,
1000
0010
1000
0000
0001
0010
0100
0000
1000
0100
0010
0000
0001
0100
0010
0000
,
1000
0100
0010
0001
0010
0100
1000
0001
0100
0010
1000
0100
0010
0001
0010
0100
,
1000
0001
0100
0010
1000
0100
0010
0001
0010
0100
1000
0001
0100
0010
1000
0100
,
0020
0000
0032
0000
0203
0000
0310
1000
,
0001
0100
0001
0000
1000
0010
1000
0000
0001
0100
0001
0000
1000
0001
1000
0000
,
0001
0100
0001
0000
0200
0000
0000
0000
0320
0000
0000
0000
2030
0000
3000
0000
,
2001
0000
3020
0000
0230
0000
0301
0010
,
0011
0000
0001
0000
1000
0001
1000
0000
0001
0100
0010
0000
1000
0001
1000
0000
,
1001
0000
0100
0000
0010
0000
1000
0000
0000
0000
0001
0000
0100
0010
0100
0000
,
0010
1000
0010
1010
0000
1000
0001
0100
,
0010
1000
0001
0100
0010
1000
0100
0010
0001
0010
0100
1000
0001
0100
0010
1000
,
0100
0010
0001
0010
0100
1000
0001
0100
0010
1000
0100
0010
0001
0010
0100
1000
,
0001
0100
0010
1000
0100
0010
0001
0010
0100
1000
0001
0100
0010
1000
0100
0010
,
0001
0010
0100
1000
0001
0100
0010
1000
0100
0010
0001
0010
0100
1000
0001
0100
,
0010
1000
0100
0010
0001
0010
0100
1000
0001
0100
0010
1000
0100
0010
0001
1000
,
0001
0100
0010
2000
0000
3100
0010
0001
,
1000
0100
0010
0002
0000
1003
0100
0010
,
0011
0001
1000
0001
0000
0100
0010
1000
,
0001
0100
0010
2000
0000
3001
0100
0010
,
1000
0100
0010
0001
0010
0100
1000
0001
0100
0010
1000
0100
0010
0001
0010
0100
,
1000
0001
0100
0010
1000
0100
0010
0001
0010
0100
1000
0001
0100
0010
1000
0100
,
0010
0001
0010
0100
1000
0001
0100
0010
1000
0100
0010
0001
0010
0100
1000
0001
,
0100
0010
1000
0100
0010
0001
0010
0001
1000
0010
0100
0001
1000
0100
0010
0001
,
0010
0100
1000
0001
0100
0010
1000
0100
0010
0001
0010
0001
1000
0010
0100
0001
,
0100
0010
0100
0010
1000
0100
0010
0001
0010
0100
1000
0001
0100
0010
1000
0100
,
0010
0001
0010
0100
1000
0001
0100
0010
1000
0100
0010
0001
0010
0100
1000
0001
,
1000
0010
1000
0010
0100
0001
0100
0001
,
2002
0000
0000
3003
,
1001
0000
0000
0000
,
1000
0100
0010
0001
,
0010
0100
1000
0001
,
0100
0010
1000
0100
,
0010
0001
0100
0010
,
1000
0100
0010
0001
0010
0100
1000
0001
0100
0010
1000
0100
0010
0001
0010
0100
,
1000
0001
0100
0010
1000
0100
0010
0001
0010
0100
1000
0001
0100
0010
0100
0001
,
0010
0100
1000
0001
0100
0010
1000
0100
0010
0001
0010
0100
1000
0001
0100
0010
,
0100
0001
0010
0100
1000
0001
0100
0010
1000
0100
0010
0001
0010
0100
1000
0001
,
0100
0010
1000
0100
0010
0001
0010
0100
1000
0001
0100
0010
1000
0100
0010
0001
,
0010
0100
1000
0001
0100
0010
1000
0100
0010
0001
0010
0100
1000
0001
0000
0010
,
1000
0100
0010
0001
0010
0100
1000
0001
0100
0010
1000
0100
0010
0001
0010
0100
,
1000
0001
0100
0010
1000
0100
0010
0001
0010
0100
1000
0001
0010
0100
0010
0001
,
0100
0010
1000
0010
0100
0001
0010
0100
1000
0001
0100
0010
1000
0100
0010
0001
,
1000
0100
0010
0001
1000
0010
0100
0001
1000
0100
0010
0001
1000
0010
0100
0001
,
1000
0100
0010
0001
1000
0010
0100
0001
1000
0100
0010
0001
1000
0010
0100
0001
,
0010
0001
0010
0100
1000
0001
0100
0010
1000
0100
0010
0001
0100
0010
1000
0001
,
2000
0000
0000
0000
3100
0000
0000
0010
0000
0000
0001
0000
0100
0000
0010
0000
,
1000
0001
1000
0000
0010
1000
0000
0000
0000
0000
0010
0000
1000
0000
0100
0000
,
0010
0001
0100
0010
1000
0100
0010
0001
0010
0100
1000
0001
0100
0010
1000
0100
,
0010
0001
0010
0100
1000
0001
0100
0010
1000
0100
0010
0001
0010
0100
1000
0001
,
1000
0000
0010
0000
0100
0001
0000
0100
0000
0000
0010
0000
1000
0000
0100
0000
,
0010
0001
0010
0000
0001
1000
0000
0000
0000
0000
0001
0000
0100
0000
0010
0000
,
1000
0100
0010
0001
0010
0100
1000
0001
1000
0010
0100
0001
0010
0100
1000
0001
,
0100
0010
1000
0100
0010
0001
0010
0100
1000
0001
0100
0010
1000
0100
0010
0001
,
1000
0100
1000
0000
0001
0100
0001
0100
0000
0000
0010
0000
1000
0000
0010
0000
,
0100
0001
0100
0000
0010
1000
0010
1000
0000
0000
0001
0000
0100
0000
0010
0000
,
1000
0100
0010
0001
0010
0100
1000
0001
0100
0010
1000
0100
0010
0001
0100
0010
,
1000
0100
0010
0001
1000
0100
0010
0100
1000
0001
0100
0010
1000
0001
0100
0010
,
1000
0000
0100
0000
0010
0001
0000
0100
0000
0000
0010
0000
1000
0000
0100
0000
,
0010
0000
0001
0000
0100
0010
0000
0000
0000
0000
1000
0000
0100
0000
0010
0000
,
0001
0010
0001
0000
0010
0000
0100
0000
1000
0001
1000
0000
0010
0000
0100
0000
,
0001
0100
0001
0000
0100
0000
0010
0000
1000
0010
1000
0000
0010
0000
0100
0000
,
0001
1000
0001
0000
1000
0010
0000
0100
0000
0000
0001
0000
0100
0000
0010
0000
,
1000
0001
1000
0000
0010
0100
0000
0001
0000
0000
0100
0000
0010
0000
1000
0000
,
0100
0010
0001
0000
0010
0100
1000
0000
0001
0100
0001
0000
1000
0010
1000
0000
,
0001
0100
0001
0000
1000
0001
1000
0000
0001
0100
0001
0000
0100
0010
0100
0000
,
0010
0000
1000
0000
0001
0100
0000
0010
0000
0000
1000
0000
0100
0000
0010
0000
,
0001
0000
0100
0000
0010
1000
0000
0001
0000
0000
1000
0000
0100
0000
0010
0000
,
0001
0010
0100
1000
0001
0100
0010
1000
0100
0010
0001
0010
0100
1000
0001
0100
,
0010
1000
0100
0010
0001
0010
0100
1000
0001
0100
0010
1000
0100
0010
0001
1000
,
0002
0000
0203
0000
,
0320
0000
2030
0000
,
3002
0000
0000
0000
,
0000
0000
0000
0000
,
0023
0000
0230
0000
,
2300
0000
0002
3003
,
2002
0000
0000
0000
,
0000
0000
0000
0000
,
3003
0000
0000
0000
,
0000
0000
0000
0000
,
0002
0000
0000
0000
0103
0010
1000
0010
,
0100
0000
0001
0000
1000
0010
1000
0010
,
0100
0001
0000
0000
0000
0000
0000
0000
,
1000
0001
0100
0010
,
1000
0000
0000
0001
0200
0000
0310
0000
,
1010
0000
1000
0000
0000
0001
0000
0100
,
0020
1030
0002
0013
,
0100
1000
0100
1000
0001
0100
0001
0100
,
1000
0000
1001
0000
0100
0001
0100
0001
,
0101
0000
1000
0000
0010
1000
0100
1000
,
1010
0000
0100
0000
0001
0100
0001
0100
,
0101
0000
0000
2000
0000
0000
3001
0000
,
1001
0001
0100
0100
0010
0010
1000
1000
,
0100
0100
0010
0010
0001
0000
1000
0001
,
1001
0010
0100
0001
,
1001
0000
0001
0000
0100
0010
0100
0010
1000
0100
0010
0001
1000
0000
0100
0000
,
0100
1000
0010
0100
0001
0100
0010
1000
,
0100
0010
0001
0010
0001
1000
0010
1000
,
0010
0100
0001
0100
0010
1000
0100
0010
,
0001
1000
0010
1000
0001
0010
0100
1000
,
0001
0100
0010
0100
0001
1000
0100
0010
,
0001
0010
0100
1000
0001
1000
0010
1000
,
0010
0100
0001
0100
0010
1000
0001
0010
,
0100
0010
0001
0010
0100
1000
0001
1000
,
0000
0001
0100
1000
0000
1000
0100
0001
,
0000
0001
0010
1000
0000
1000
0010
0001
,
0000
0001
0100
1000
0000
0100
0001
0010
,
0000
1000
0010
0001
0000
0001
0100
1000
,
0000
1000
0100
0001
0000
0001
0010
1000
,
0000
0010
0001
0100
0000
1000
0100
0001
,
0000
1000
0010
0001
0000
0001
0010
1000
,
0000
1000
0100
0001
0000
0001
0100
1000
,
0000
0000
1000
0000
0010
0000
0001
0000
0000
0000
0010
0000
1000
0001
0000
0001
,
1000
0000
0100
0010
0100
0000
0010
0001
0000
0001
1000
0001
0100
0010
1000
0000
,
0001
1000
0000
0010
0000
0100
0001
0000
0100
0000
0000
0000
0010
0000
0000
0100
,
0001
0000
0010
0000
0100
1000
0001
0000
1000
0100
1000
0000
0001
0100
0001
0100
,
0001
1000
0010
0000
0110
0000
0000
0000
0000
0010
1000
0010
0100
0001
1000
0000
,
1001
0000
0001
0100
0001
0000
1000
0010
0000
0010
1000
0001
0100
0000
0000
0010
,
1000
0000
0001
1000
0001
0000
1000
0100
0000
0010
0001
1000
0000
0010
0100
0001
,
0100
0010
1000
0100
0010
0000
0001
1000
0010
0100
0001
1000
0100
0010
0001
0100
,
0010
0000
0000
0000
1000
0001
1000
0001
,
1001
1000
0100
0010
,
0001
0010
0001
0010
,
0100
1000
0100
0010
,
0110
0001
1000
0010
,
0110
0001
0010
0100
,
1000
0010
0100
0010
,
1000
0001
0010
0100
1000
0100
0010
0001
,
1001
0010
0010
0010
,
1000
0100
1000
0000
0001
0000
0001
0000
,
1000
0100
1000
0000
0001
0000
0100
0000
,
0010
1000
0010
0000
0100
0000
0001
0000
,
0010
0001
0010
0001
0010
0001
0010
0001
,
1000
0001
1000
0001
1000
0000
1000
0001
,
1001
1000
0010
0100
,
0001
0010
0001
0010
0001
1000
0001
1000
,
0100
0010
0000
0001
0000
0100
0000
0001
0010
0000
1000
0000
0010
0000
0100
0000
,
0001
1000
0000
0100
0000
0010
0000
0001
0100
0000
0010
0000
1000
0000
0100
0000
,
0010
0001
0000
0100
0000
0010
0000
1000
0100
0000
0010
0000
0001
0000
0100
0000
,
0010
1000
0000
0001
0000
0100
0000
0010
1000
0000
0100
0000
0010
0000
0001
0000
,
1000
0100
0000
0010
0000
0001
0000
0100
0010
0000
1000
0000
0100
0000
0010
0000
,
0001
0100
0000
0010
0000
1000
0000
0100
0010
0000
0001
0000
0100
0000
0010
0000
,
1000
0100
0000
0010
0000
0001
0000
0100
0010
0000
1000
0000
0100
0000
0010
0000
,
0001
0100
0000
0010
0000
1000
0000
0100
0010
0000
0001
0000
0100
0000
0010
0000
,
1000
0000
0001
0100
0001
0000
0100
0000
0010
0000
1000
0001
0000
0000
1000
0010
,
0100
0001
1000
0000
0010
0000
0100
0001
0100
0000
0010
1000
0000
0000
0001
0000
,
1000
0000
0010
0100
0010
0000
1000
0000
0001
0000
0100
0000
0010
0000
1000
0000
,
0010
0000
0100
0000
0001
0100
0001
1000
0000
0100
1000
0000
0001
0000
1000
0000
,
0010
0000
0000
0100
0010
0000
0000
0000
1000
0000
0001
0000
0100
0000
0010
0000
,
1000
0100
0000
0010
0000
0001
0100
0000
0010
1000
0000
0001
0000
0000
1000
0010
,
1000
0000
0000
0000
0000
0000
0000
0000
1001
0000
1000
0000
0000
0010
0000
0000
,
0100
0000
0000
0001
0000
0000
0100
0000
0010
1000
0100
0010
0001
0100
0010
1000
,
0100
0000
0000
0020
,
0000
0000
0000
0032
,
0000
0000
0000
0203
,
0000
0320
0000
1030
,
0001
0000
0100
0010
0100
0010
0100
0000
,
0001
0000
1000
0000
0100
0000
0010
0001
,
0010
0001
0010
0000
0001
0000
0100
0010
,
0100
0010
0100
0001
1000
0000
0100
0000
,
0010
0000
1000
0000
0010
0000
0100
0001
,
0010
0001
0100
0000
0010
0000
1000
0010
,
0100
0001
0010
0100
1000
0100
0010
0001
,
0100
0010
1000
0010
0100
0001
0010
0100
,
1000
0100
0010
0001
0010
0001
0010
0000
,
0001
0100
0010
1000
0010
0100
0001
0010
,
0000
0200
0000
0000
1300
0000
0001
0000
,
1000
0000
0010
0100
0010
1000
0010
0100
,
0001
0010
0100
1000
0100
0010
0100
0000
,
0010
0000
0000
0000
0001
0000
0000
0000
1000
0000
0000
0000
1001
0000
0000
1001
,
0000
0000
1001
0000
0000
0000
0000
0110
0000
0000
0110
0000
0000
0000
0000
1001
,
0000
1001
0000
0000
0000
0000
0000
0000
,
0110
0000
0000
1000
0010
1000
0001
1000
,
0000
0000
0000
0010
0100
0001
0100
0010
,
0000
0000
0000
1000
0100
1000
0000
0010
,
0000
0100
0001
0000
1000
0000
0001
1000
,
0110
0000
0001
0000
1000
0010
0100
0001
,
0100
0010
1000
0100
1000
0001
1000
0100
,
1000
0100
0010
0001
1000
0010
0100
0001
0010
0100
1000
0010
0100
0001
0010
0100
,
2000
0000
3004
0000
,
1003
0010
0100
0000
0001
0100
0000
0010
1000
0000
0010
1000
0000
0010
0100
0000
,
0001
0100
0001
0000
0100
0010
0000
0010
1000
0000
0010
0100
0000
0001
0100
0000
,
0010
1000
0010
0000
0100
0001
0000
0001
1000
0000
1000
0010
0000
0010
0100
0000
,
0001
0100
0001
0000
0100
0010
0000
1000
0010
0000
0100
0001
0000
0100
0010
0000
,
1000
0001
1000
0000
0010
0100
0000
0001
0010
0000
0100
1000
0000
0001
1000
0000
,
0001
0100
0010
1000
0100
0010
0001
0100
0010
1000
0100
0010
0001
0010
0100
1000
,
0001
0100
0010
1000
0100
0010
0001
0010
0100
1000
0001
0100
0010
1000
0100
0010
,
0001
0010
0100
1000
0001
0100
0010
1000
0100
0010
0001
0010
0100
1000
0001
0100
,
0010
1000
0100
0010
0001
0010
0100
1000
0001
0100
0010
1000
0100
0010
0001
0010
,
0100
1000
0010
0100
0001
0010
0100
1000
0001
0100
0010
1000
0100
0010
0001
0010
,
0100
1000
0001
0100
0010
1000
0100
0010
0001
0010
0100
1000
0001
0100
0010
1000
,
0001
0010
0001
0100
0010
1000
0100
0010
0001
0010
0100
1000
0001
0100
0010
1000
,
0100
0010
0001
0010
0100
1000
0001
0100
0010
1000
0100
0010
0001
0010
0100
1000
,
0001
0100
0010
1000
0100
0010
0001
0010
0100
1000
0001
0100
0010
1000
0100
0010
,
0001
0100
0010
1000
0001
0010
0100
1000
0001
0100
0010
1000
0001
0100
0010
0100
,
0001
0010
0100
1000
0001
0100
0010
1000
0100
0010
0001
0010
0100
1000
0001
0100
,
0010
1000
0100
0010
0001
0010
0100
1000
0001
0100
0010
1000
0100
0010
0001
0010
,
0100
1000
0001
0100
0010
1000
0001
0010
0100
1000
0001
0100
0010
1000
0100
0010
,
0001
0010
0100
1000
0001
0100
0010
1000
0100
0010
0001
0010
0100
1000
0001
0100
,
0010
1000
0100
0010
0001
0010
0100
1000
0001
0100
0010
1000
0100
0010
0001
0010
,
0100
1000
0001
0100
0010
1000
0100
0010
0001
0010
0001
1000
0001
0100
0010
1000
,
0100
0010
0001
0010
0100
0010
0001
0010
0100
1000
0001
0100
0010
1000
0010
0100
,
0001
1000
0100
0010
0001
0010
0100
1000
0001
0100
0010
1000
0100
0010
0001
0100
,
0010
0000
1000
0000
0010
0000
0100
0000
0001
0000
0100
0000
0010
0000
0000
1000
0000
0000
0100
0000
0000
0010
0000
0000
0001
0000
0100
0000
0010
0000
1000
0000
0100
0000
0010
0000
0001
0000
0010
0000
0100
0000
1000
0000
0001
0000
0100
0000
,
0020
0000
0000
0000
,
2030
0000
0000
0000
3001
0100
0000
0001
,
0202
0000
0000
0000
,
0000
0000
0000
0303
,
2002
0000
0000
0000
0000
3003
0010
0000
,
1001
0000
0000
0010
0100
0000
0000
0001
,
0010
0100
1000
0001
0100
0010
1000
0100
0010
0001
0010
0100
1000
0001
0100
0010
,
1000
0000
0000
0100
0000
0000
0010
0000
0000
0001
0000
0000
0010
0000
0000
0100
0000
0000
1000
0000
0000
0001
0000
0000
0100
0000
0010
0000
1000
0000
0100
0000
0010
0000
0001
0000
0010
0000
0100
0000
1000
0000
0001
0000
0100
0000
0010
0000
,
1000
0100
1000
0000
0001
0100
0001
0000
1000
0100
1000
0000
0001
0100
0001
0000
,
1000
0100
0010
0000
0001
0010
0100
0000
1000
0001
1000
0000
0010
1000
0010
0000
,
1000
0100
0010
0001
0010
0100
1000
0001
,
1000
0100
0010
0000
0001
0010
0100
0000
1000
0001
1000
0000
0001
0100
0001
0000
,
1000
0100
0010
0001
0010
0100
1000
0001
0100
0010
1000
0001
0010
0100
1000
0001
,
0100
0010
1000
0100
0010
0001
0010
0100
1000
0001
0100
0010
1000
0100
0010
0001
,
1000
0000
0100
0000
0010
0000
0001
0000
0010
0000
0100
0000
1000
0000
0000
0001
0000
0000
0100
0000
0000
0010
0000
0000
1000
0000
0010
0000
0100
0000
0001
0000
1000
0000
0100
0000
0010
0000
0001
0000
0010
0000
0100
0000
1000
0000
0001
0000
,
0100
0010
1000
0000
0010
0100
0001
0000
0100
0010
1000
0000
0001
0100
0010
0000
,
1000
0100
0010
0001
0010
0100
1000
0001
0100
0010
1000
0100
0010
0001
0010
0100
,
1000
0001
0100
0010
1000
0100
0010
0001
1000
0010
0100
0001
1000
0100
0010
0001
,
0010
0100
1000
0001
0100
0010
1000
0100
0010
0001
0010
0100
1000
0001
0100
0010
,
1000
0100
0010
0001
0010
0100
1000
0001
0100
0010
1000
0100
1000
0001
0010
0100
,
1000
0001
0100
0010
0100
0001
0010
0100
1000
0001
0100
0010
1000
0100
0010
0001
,
1000
0010
0100
0001
1000
0100
0010
0001
1000
0010
0100
0001
1000
0100
0010
0001
,
1000
0100
1000
0100
0010
0001
0100
0010
1000
0001
0010
0100
1000
0001
0010
0100
,
1000
0001
1000
0001
0100
0010
0100
0001
1000
0100
1000
0001
0100
0010
0100
0001
,
1000
0100
1000
0100
0010
0001
0100
0010
1000
0001
0010
0100
1000
0001
1000
0100
,
0010
0001
0010
0001
1000
0010
0100
0001
1000
0100
0010
0001
0010
0100
1000
0001
,
0100
0010
0100
0010
1000
0100
0010
0001
0010
0100
1000
0001
0100
0010
1000
0100
,
0010
0001
0010
0001
1000
0010
0100
0001
1000
0100
0010
0001
0010
0100
1000
0001
,
1000
0100
1000
0100
0010
0001
0100
0010
1000
0001
0010
0100
1000
0001
0100
0010
,
1000
0100
1000
0100
0010
0001
0100
0010
1000
0001
0010
0100
1000
0001
0100
0010
,
1000
0100
0010
0001
0010
0100
1000
0001
0100
0010
1000
0100
0010
0001
0010
0100
,
1000
0001
0100
0010
1000
0001
0100
0010
1000
0001
0100
0010
1000
0001
0100
0010
,
1000
0000
0000
0000
,
1000
0000
0000
0000
0000
0000
0001
0000
0000
0000
0000
0000
1000
0000
0000
0000
0000
0000
1000
0100
0010
0001
0010
0100
,
2000
0000
0000
0000
,
3000
0000
0000
0000
0000
0010
0200
0000
,
0302
0000
0023
0000
,
0130
1000
0001
0100
,
0020
0000
0000
0000
,
2030
0000
0000
3002
,
0000
0000
0023
0000
,
0130
0000
0000
1000
0000
0000
0001
0000
0000
0100
0000
0000
0010
0000
0000
1000
0000
0000
0100
0000
0000
0010
0000
0000
0001
0000
0000
0100
0000
0000
0010
0000
1000
0000
0010
0000
0100
0000
0000
0001
0000
0000
0100
0000
0000
0010
0000
0000
,
1000
0000
0001
0000
0100
0010
0000
0010
0100
0000
0000
0001
0000
1000
0000
0001
,
1000
0000
0001
0000
0100
0010
0000
0010
0100
0000
0000
0001
0000
1000
0000
0010
,
0100
0000
0001
0000
1000
0010
0000
0010
1000
0000
0000
0001
0000
0100
0000
0010
,
1000
0000
0001
0000
0100
0010
0000
0010
1000
0000
1000
0001
0000
0001
1000
0010
,
0100
0000
0001
0000
0100
0010
0000
0010
1000
0000
1000
0100
0000
0100
0010
0001
,
0010
0000
0100
0000
1000
0001
0000
1000
0010
0000
1000
0100
0000
1000
0001
0000
,
0100
0000
0010
0000
1000
0100
0000
0010
0001
0000
1000
0100
0000
0010
0001
0000
,
1000
0001
1000
0000
0001
0100
0000
0010
1000
0000
0001
0010
0000
0100
1000
0001
,
1000
0010
1000
0000
0001
0100
0000
0010
1000
0000
0001
0010
0000
0100
1000
0000
,
0001
0100
0001
0000
1000
0100
0000
0010
0001
0000
0010
0100
0000
1000
0001
0000
,
1000
0100
1000
0000
0001
0100
0000
0010
1000
0000
0001
0010
0000
0100
1000
0000
,
0001
0100
0001
0000
1000
0100
0000
0010
0001
0000
0010
0100
0000
1000
0001
0000
,
1000
0001
1000
0000
0010
0100
0000
0001
0100
0000
0010
1000
0000
0001
0100
0010
,
1000
0010
0100
0000
0001
0010
0000
0100
1000
0000
0001
0100
0000
0010
1000
0100
,
0010
0001
0100
0000
0010
1000
0000
0001
0010
0000
0100
1000
0001
0100
0001
0100
,
0001
1000
0010
0000
0100
0001
0000
0001
0100
0000
0010
1000
0000
1000
0010
0000
,
0200
0000
0000
0302
,
0000
0023
0000
0230
,
0000
2300
0000
3002
,
0000
0203
0000
0320
,
1030
0001
0100
0010
,
1000
0001
1000
0000
0010
0100
0010
0000
,
1000
0100
0010
0001
0100
0010
1000
0000
,
0001
0000
0001
0000
1000
0000
1000
0000
0010
0000
0010
0000
0100
0001
0100
0000
,
0001
0100
0001
0000
1000
0100
0000
0010
0001
0000
0010
0100
0000
1000
0100
0000
,
0010
0001
0010
0000
0100
1000
0000
0001
0100
0000
0010
1000
0000
0100
0010
0000
,
0001
0000
0100
0010
0100
0010
0000
0010
0100
0000
0100
0010
0000
0010
1000
0000
,
1000
0000
0001
0100
0001
0100
0000
0010
1000
0000
0001
0100
0000
0010
1000
0000
,
0001
0100
0001
0000
0100
0010
0000
0100
0001
0000
0100
0010
0000
1000
0100
0000
,
0010
0001
0010
0001
1000
0010
0000
1000
0010
0000
1000
0010
0000
1000
0001
0000
,
0100
0010
0100
0000
0001
0010
0000
0100
1000
0000
0001
0100
0000
0100
0010
0000
,
1000
0000
0000
0010
0000
0000
1000
0000
0000
0010
0000
0000
0100
0000
0000
0001
0000
0000
1000
0000
0000
0100
0000
0000
0010
0000
0001
0000
0010
0000
0100
0000
1000
0000
0001
0000
0100
0000
0010
0000
1000
0000
0100
0000
0010
0000
0001
0000
,
1000
0010
0100
0001
,
0010
0100
1000
0001
,
0100
0100
0010
0010
,
4000
3004
0403
0340
,
1030
0001
0100
0010
,
1000
0100
0010
0001
,
0010
0100
1000
0001
,
1000
0100
0010
0001
0010
0100
1000
0001
0100
0010
1000
0100
0010
0001
0010
0100
1000
0001
0100
0010
1000
0100
0010
0001
,
1000
0100
0010
0001
0010
0100
1000
0001
0100
0010
1000
0100
0010
0001
0010
0100
,
1000
0001
0100
0010
1000
0100
0010
0001
0010
0100
1000
0001
1000
0000
0000
0000
,
0001
0010
0100
1000
0001
0100
0010
1000
0100
0010
0001
0010
0100
1000
0001
0100
,
0010
1000
0100
0010
0001
0010
0100
1000
0001
0100
0010
1000
0001
0000
0000
0000
,
1000
0100
0010
0000
0011
0000
0000
0000
0001
0100
0010
0000
1010
0000
0000
0000
,
1000
0001
1000
0000
1001
0000
0000
0000
0010
0100
0010
0000
0110
0000
0000
0000
,
1000
0100
1000
0000
1100
0000
0000
0000
0010
0001
0010
0000
0011
0000
0000
0000
,
0001
0000
0000
1000
0000
0000
0001
0000
0000
0000
0000
0000
1001
0000
0000
0000
0000
0000
0000
0000
0000
0000
0000
0000
1000
0000
0000
0001
0000
0000
1000
0000
0000
0000
0000
0000
0001
0000
1000
0000
0100
0000
1000
0000
0100
0000
0010
0000
,
0001
0000
0010
0000
0100
1000
0000
0100
0010
0100
1000
0000
0001
0100
0000
0010
,
1000
0100
1000
0000
0001
0010
0000
0100
1000
0001
0100
0000
0010
1000
0000
0010
,
0100
0001
1000
0000
0100
0010
0000
0001
0010
0100
1000
0000
0001
0100
0000
0010
,
1000
0100
1000
0001
0100
0010
0000
1000
0100
0010
0001
0010
0100
1000
0000
0001
,
0100
0010
1000
0000
0001
0010
0000
0100
1000
0001
1000
0000
0010
0100
0000
0001
,
0010
0100
1000
0000
0001
0100
0000
0010
1000
0001
1000
0000
0001
0100
0000
0010
,
1000
0000
0000
0010
0000
0000
1000
0000
0000
0000
0000
0000
0001
0000
0000
0100
0000
0000
0000
0000
0000
0010
0000
0000
1000
0000
0000
0100
0000
0000
1000
0000
0000
0000
0000
0000
0001
0000
0100
0000
0010
0000
1000
0000
0100
0000
0010
0000
,
0001
1000
0010
0100
,
0001
0100
0001
0000
0100
0000
0010
0000
1000
0001
1000
0000
0010
0000
0100
0000
,
0001
0010
0001
0000
1000
0000
0001
0000
1000
0010
1000
0000
0001
0000
0100
0000
,
0010
1000
0010
0000
0100
0000
0001
0000
1000
0001
1000
0000
0001
0000
0100
0000
,
0010
1000
0010
0000
0100
0000
0001
0000
1000
0001
1000
0000
0001
0000
0010
0000
,
0100
1000
0100
0000
0010
0000
0001
0000
1000
0001
1000
0000
0010
0000
0100
0000
,
0001
0010
0001
0000
0100
0000
0010
0000
1000
0001
1000
0000
0010
0000
0100
0000
,
0001
0010
0100
0000
0110
0000
0000
0000
0100
1000
0001
0000
1001
0000
0000
0000
,
0001
0000
0000
0100
0000
0000
0010
0000
0000
0000
0000
0000
1010
0000
0000
0000
0000
0000
0000
0000
0000
0000
0000
0000
1000
0000
0000
0100
0000
0000
0010
0000
0000
0001
0000
0000
1000
0000
0100
0000
0010
0000
0100
0000
1000
0000
0001
0000
,
0200
0000
0000
0320
0000
0000
2030
0000
0000
0000
3001
0000
0100
0000
0010
0000
,
2000
0000
0000
3020
0000
0000
0230
0000
0000
0000
0301
0000
0010
0000
0100
0000
,
2000
0000
0000
3002
0000
0000
0203
0000
0000
0000
0310
0000
1000
0001
1000
0000
,
0001
0000
0000
0010
0000
0000
0100
0000
0000
1000
0000
0000
0001
0000
0000
0100
0000
0000
0010
0000
0000
1000
0000
0000
0100
0000
0000
0010
0000
0000
0001
0000
0100
0000
0010
0000
1000
0000
0100
0000
0010
0000
0100
0000
1000
0000
0001
0000
,
0020
0000
0000
0230
0000
0000
2300
0000
0000
0000
3001
0000
0100
0000
0010
0000
,
2000
0000
0000
0002
3000
0000
0203
0000
0000
0000
0301
0000
0010
0000
0100
0000
,
2000
3002
0203
0320
,
1030
0100
0010
0001
0010
0100
1000
0001
0100
0010
1000
0100
0010
0001
0010
0100
,
2000
0000
0000
0000
,
0000
0000
0000
0000
0000
0000
0000
0000
3010
0000
0000
1000
0000
0000
0001
0000
,
0020
0000
0000
0000
0000
0000
0130
0000
1000
0000
0000
0010
0000
0000
0100
0000
,
0010
0000
0000
1000
0000
0000
0010
0000
0100
0000
0000
0001
0000
0000
0010
0000
,
0100
0000
1010
0000
1000
0000
1001
0001
,
0100
0000
0000
0000
1010
0000
0000
0000
0010
0000
0000
1000
0000
0000
0001
0000
,
0100
1010
1000
1001
,
0001
0000
0000
0000
0000
0000
0010
0000
0000
0100
0000
0000
1000
0000
0000
0100
0000
0000
1000
0001
0100
0010
1000
0100
,
0010
0001
0010
0100
1000
0001
0100
0010
1000
0100
0010
0001
0010
0100
1000
0001
,
0100
0010
1000
0100
0010
0001
0010
0100
1000
0001
0100
0010
1000
0100
0010
0001
,
0010
0100
1000
0001
0100
0010
1000
0100
0010
0001
0010
0100
1000
0001
0100
0010
,
1000
0100
0010
0001
0010
0100
1000
0001
0100
0010
1000
0100
0010
0001
0010
0100
,
1000
0001
0100
0010
1000
0100
1000
0001
0010
0100
1000
0001
0100
0010
1000
0100
,
0010
0001
0010
0001
1000
0010
0100
0010
1000
0100
1000
0100
0010
0001
0100
0010
,
0100
0001
0010
0100
1000
0001
1000
0001
1000
0010
1000
0010
0100
0001
0100
0001
,
1000
0100
0010
0001
0010
0100
1000
0001
0100
0010
1000
0100
0010
0001
0010
0100
1000
0001
0010
0001
1000
0010
0100
0001
,
1000
0000
0000
0000
,
0000
0000
0000
0000
,
1000
0001
0000
0100
0000
0000
0000
0020
,
0000
1030
0001
0000
0100
0000
0010
0000
,
1000
0001
0000
0010
0000
0100
0020
0000
,
0000
0000
0000
0000
1030
0000
0001
0000
0100
0000
0000
0000
0010
0000
1000
0001
,
1000
0010
0000
2000
0000
0000
0000
3004
,
0000
0013
0100
0000
1000
0001
0100
0010
,
1000
0001
0000
0010
0000
0100
4000
0000
,
3001
0000
0000
0000
0100
0000
0000
0000
0010
0000
0000
0000
0000
0000
0000
0000
1000
0000
0000
0000
0001
1000
0001
1000
0001
0000
0100
0000
0010
0000
1000
0000
,
0002
0000
0203
0000
,
0320
0000
0000
0000
0030
1000
0001
0100
,
0010
0000
1000
0000
0001
0100
0001
0000
0100
0000
0010
0000
1000
0001
1000
0000
,
0010
0000
0100
0000
0001
0010
0001
0000
1000
0000
0001
0000
0100
0010
0100
0000
,
0001
0000
0010
0000
0100
1000
0100
0000
0010
0000
0001
0000
1000
0001
1000
0000
,
0010
0000
0100
0000
0001
0010
0001
0000
1000
0000
0010
0000
0100
0001
1000
0000
,
0020
0000
0000
0000
0130
0000
0001
1000
0001
0000
0100
0000
0010
0000
1000
0010
,
1000
0000
0001
0000
0010
0000
0001
1000
0001
0000
0010
0000
0100
0000
1000
0000
,
0001
0000
1001
0000
1000
0000
0010
0100
,
0101
0000
0000
0001
0100
0000
0010
0000
2000
0000
0000
3010
0100
0000
0001
0000
,
0100
0000
0000
0010
1000
0010
1000
0000
0001
0000
0000
0100
0010
1000
0001
0000
,
1000
0000
0000
0100
0010
0001
0010
0000
0100
0000
1000
0000
0001
0000
0100
0000
,
0010
0000
0000
0010
1000
0000
0001
1000
0001
0000
0000
0001
1000
0000
0010
1000
,
0010
0000
1000
0000
0001
0010
0100
1000
0001
0100
0010
1000
0100
0010
0001
0010
,
0100
0000
1000
0100
0010
0000
0001
0000
0010
0000
0100
1000
0001
0000
0100
0000
,
0010
0000
1000
0001
0100
0000
0010
0000
1000
0000
0001
0000
0100
0000
0010
0000
,
1000
0100
0010
0001
0010
0100
1000
0001
0100
0010
1000
0100
0010
0001
0010
0100
,
1000
0000
0000
0001
0000
0000
0100
0000
0010
0000
0000
0000
1000
0000
0001
0000
,
1000
0100
1000
0200
0000
1000
2300
0000
,
0000
0000
0010
0000
0020
0000
0000
0000
3030
0000
0000
0000
0000
0000
0010
0100
,
0110
0000
0000
0000
0000
0000
0000
0000
0000
0001
0000
0000
1000
0000
0000
0010
0000
0000
0100
0001
0100
0010
1000
0100
,
0010
0000
0000
0001
0000
0000
0010
0000
0000
0100
0000
0000
1000
0000
0000
0001
0000
0000
0010
0100
1000
0001
0100
0010
,
1000
0100
0010
0001
0010
0100
1000
0001
0100
0010
1000
0100
0010
0001
0010
0100
,
1000
0001
0100
0010
1000
0100
0010
0001
0010
0100
1000
0001
0100
0010
1000
0100
,
0010
0001
0010
0001
1000
0010
0100
0001
1000
0100
0010
0001
0010
0100
1000
0010
,
1000
0100
0010
0001
0010
0100
1000
0001
0100
0010
1000
0100
0010
0001
0010
0100
1000
0001
0100
0010
1000
0100
0010
0001
,
1000
0000
0000
0010
0000
0000
0100
0000
0000
0000
0000
0001
0000
0000
0010
0000
,
0001
0000
0000
0000
0000
0000
0000
0000
0000
0100
0000
0000
0000
0000
0000
0000
0000
0000
0001
0000
0000
0000
0000
0000
0000
0000
0000
0000
0000
0000
0100
0000
0000
0000
0000
0000
0010
0000
1000
0000
0001
0000
0100
0000
0010
0000
1000
0000
,
0020
0000
0000
0100
0030
0000
0001
0000
1001
0000
0000
0010
0000
0000
0100
0000
,
0010
0000
0000
1000
0000
0000
0001
0000
0010
0000
0000
0000
0001
0000
0000
0000
,
2000
0000
0000
3010
0100
0001
0010
0001
,
0000
0100
0010
0000
0000
0000
1000
0001
,
1000
0000
0000
0010
1000
0000
0010
0000
0100
0000
0001
0000
0010
0000
0002
0000
,
0000
1003
0010
0000
0101
0000
0001
0010
,
0001
0000
1001
0000
1000
0010
0110
0000
,
0001
0010
0011
0000
0010
0100
0110
0000
,
1000
0001
0100
0010
1000
0001
0010
0001
,
1000
0000
0000
0000
0000
0000
0001
0000
0000
0000
0000
0000
0010
0000
0001
0000
0010
0000
0100
0000
1000
0000
0010
0000
1000
0000
0010
0000
0100
0000
0001
0000
1000
0000
0100
0000
0010
0000
0000
0001
0000
0000
0010
0000
0000
0100
0000
0000
,
1000
0000
0001
0000
0100
0000
0010
1000
0010
0000
0100
0000
0001
0000
0100
0010
,
0100
0000
0001
0000
0010
0000
0100
1000
0100
0000
0010
0000
0001
0000
1000
0001
,
1000
0000
0010
0000
0100
0001
0100
0000
0010
0000
1000
0000
0001
1000
0001
0000
,
0100
0000
0010
0000
1000
0100
0010
0001
0010
0100
1000
0001
0100
0010
1000
0100
,
0010
0000
0001
0000
0010
0100
1000
0001
0100
0000
0010
0000
1000
0100
0010
0001
,
0100
0010
1000
0000
0001
0010
0100
1000
0001
0100
0010
0000
1000
0001
1000
0000
,
1001
0000
0010
0000
1000
0100
0010
0001
0010
0100
1000
0001
0100
0010
1000
0000
,
0001
0010
0100
1000
0001
0100
0010
1000
0100
0010
0001
0010
0100
1000
0001
0100
0010
1000
0100
0010
0001
0010
0100
1000
,
0001
0000
0000
0000
0000
0000
0000
1001
,
1001
0000
0000
1000
0000
0010
0100
0000
0001
0100
0000
0100
0001
0000
1000
0000
,
0010
0100
0000
0001
0000
0100
0010
0000
1000
0100
0000
0010
0001
0000
0100
0000
,
0010
0000
0000
1000
0000
0000
0000
0000
0000
0010
0000
0000
0000
0000
0000
0100
0000
0000
0001
0000
0000
0000
0000
0000
0100
0000
0000
0010
0000
0000
0000
0000
0000
0010
0000
0000
1000
0000
0000
0000
0000
0000
0001
0000
1000
0000
0001
0000
,
1000
0010
0000
0100
0000
0001
0100
0000
0010
1000
0000
0010
0100
0000
0001
1000
,
0002
0000
0000
0000
0000
0000
0000
0000
0000
0000
0000
0000
1003
0001
1000
0001
1000
0000
0000
0000
0010
0000
0100
0000
0010
0000
0100
0000
0001
0000
0000
0000
,
1000
0100
0010
0001
0010
0100
1000
0001
1000
0100
0010
0001
0010
0100
1000
0001
,
0100
0010
1000
0100
0010
0001
0010
0100
1000
0001
0100
0010
1000
0100
0010
0001
,
1000
0100
0010
0001
0010
0100
1000
0001
0100
0010
1000
0100
0010
0001
1000
0010
,
1000
0000
0001
0000
1000
0000
0001
0000
0000
0000
0000
0000
0000
0000
0000
0000
0000
0000
0100
0000
0000
0010
0000
0000
0100
0000
0000
0000
0000
0000
0010
0000
0000
0000
0000
0000
1000
0000
0000
0000
0000
0000
0000
0000
0000
0000
0000
0000
,
0001
0100
0010
1000
0100
0010
0001
0010
0100
1000
0001
0100
0010
1000
0100
0010
,
0001
0100
0010
1000
0001
0010
0100
1000
0001
0100
0010
1000
0100
0010
0001
0010
,
0100
0000
0000
1000
0000
0000
0001
0000
0000
0100
0000
0000
0010
0000
0000
1000
0000
0000
0100
0000
0000
0010
0000
0000
0001
0000
0000
0100
0000
0000
0010
0000
0000
1000
0000
0000
0010
0000
0100
0000
0001
0000
1000
0000
0100
0000
0010
0000
,
0001
0100
0000
0010
,
0010
0000
0000
0010
0000
0000
0010
0000
0100
0000
0000
0100
0000
0000
0100
0000
,
0001
0000
0000
0000
0000
0000
0000
0000
0001
0000
0000
0000
0000
0000
0000
0000
1000
0000
0000
0000
0000
0000
0000
0000
0010
0000
0000
0000
1000
0001
1000
0001
,
1000
0000
0000
0000
0010
0000
0000
0000
0100
0000
0000
0010
0000
0000
1000
0000
,
0001
0100
0000
0100
0001
0000
1000
0000
0010
1000
0000
0010
1000
0000
0001
0000
,
0100
0010
0000
0100
0001
0000
1000
0000
0010
0100
0000
0001
1000
0000
0100
0000
,
0010
0001
0000
0100
0010
0000
1000
0000
0100
0010
0000
0001
0010
0000
0100
0000
,
1000
0001
0000
1000
0010
0000
0100
0000
0001
0100
0000
0010
1000
0000
0001
0000
,
1000
0100
0000
0010
0001
0000
0010
0000
0100
1000
0000
0001
0100
0000
0010
0000
,
1000
0100
0000
0010
0001
0000
0100
0000
0010
1000
0000
0001
0010
0000
0100
0000
,
1000
0001
0000
1000
0010
0000
0100
0000
0001
0010
0000
0001
1000
0000
0010
0000
,
0100
0001
0000
0100
0010
0000
1000
0000
0100
0010
0000
0001
0010
0100
1000
0100
,
1000
0001
1000
0000
0001
0100
0000
0100
0001
0000
0001
0100
0000
0100
0010
0000
,
1000
0001
1000
0000
0010
1000
0000
0001
1000
0000
0010
1000
0000
0001
0100
0000
,
0010
0100
0010
0000
1000
0100
0000
0010
0001
0000
0010
0100
0000
1000
0001
0000
,
1000
0100
0010
0000
0001
0010
0000
0100
1000
0000
0001
0010
0000
0100
1000
0000
,
0001
1000
0001
0000
1000
0100
0000
0010
0001
0000
0010
0100
0000
1000
0001
0000
,
0100
0010
0100
0000
0001
0010
0000
0100
1000
0000
0001
0100
0000
0010
1000
0000
,
0001
1000
0001
0000
1000
0100
0000
0010
0001
0000
0010
0100
0000
1000
0001
0000
,
0100
0010
0100
0000
0001
0100
0000
0010
1000
0000
0000
0001
0000
0100
0000
0000
,
0020
0000
0000
0000
,
2030
0000
0000
0000
,
3002
0000
0000
0000
,
0023
0000
0000
0000
,
0230
0000
0000
0000
,
2300
0000
0000
0000
,
3002
0000
0000
0000
,
0103
0010
1000
0001
,
1000
0000
0010
0000
0000
0100
0000
0001
0100
0000
0000
0010
0000
1000
0000
0001
,
0100
0000
0010
0000
1000
0010
0000
0010
1000
0000
0000
0001
0000
0100
0000
0010
,
1000
0000
0100
0000
0010
0001
0000
0010
0100
0000
0000
1000
0000
0001
0000
0100
,
0010
0000
1000
0000
0100
0010
0000
0001
0010
0000
0000
0100
0000
1000
0000
0001
,
0100
0000
0000
0000
0010
1000
0000
0010
1000
0000
0000
0001
0000
0100
0000
0010
,
1000
0000
0001
0000
0100
0010
0000
0010
0100
0000
0000
0001
0000
0010
0000
0100
,
1000
0000
0001
0000
0100
0010
0000
0100
0010
0000
0000
1000
0000
0100
0000
0010
,
0001
0000
0000
0000
1000
0001
0000
0001
1000
0000
0000
0000
0001
0000
1000
0000
,
1001
0000
0000
0000
,
0000
0000
0000
0000
,
2000
0000
0000
3020
0000
0000
0230
0000
,
0000
0000
0000
0000
,
0302
0000
0000
0023
0000
0000
0230
0000
,
0000
0000
0000
1300
,
0001
0000
0000
0100
0000
0000
0010
0000
,
1010
0101
1001
0110
,
2000
0000
0000
3020
0000
0000
0230
0000
,
0301
0000
0000
0000
0000
0000
0000
0000
0000
0000
0000
0000
0000
0000
0000
0000
0000
0000
0000
0000
0000
0000
0000
0000
0000
0000
0000
0000
0000
0000
0000
0000
0000
0000
0000
0000
0000
0000
0000
0000
0000
0000
0000
0000
0000
0000
0000
0000
0010
0000
0000
0000
0000
0000
0000
0000
0000
0000
0000
0000
0000
0000
0000
0000
0000
0000
0000
0000
0000
0000
0000
0000
1000
0000
0000
0000
0000
0000
0001
0000
0000
0000
0000
0000
1000
0000
0000
0000
0000
0000
0001
0000
0000
0000
0000
0000
1000
0000
0000
0000
0000
0000
0000
0000
0010
0000
0000
0000
0000
0000
0000
0000
0100
0000
0000
0000
0000
0000
0000
0000
0001
0000
0000
0000
0000
0000
0000
0000
1000
0000
0000
0000
0000
0000
0000
0000
0100
0000
0000
0000
0000
0000
0000
0000
0010
0000
0000
0000
0000
0000
0000
0000
0001
0000
0000
0000
0000
0000
0000
0000
0010
0000
0000
0000
0000
0000
0000
0000
0100
0000
0000
0000
0000
0000
0000
0000
1000
0000
0000
0000
0000
0000
0000
0000
0001
0000
0000
0000
0000
0000
0000
0000
,
0200
0000
0000
0000
0000
0000
0300
0010
1000
0000
0000
0010
0000
0000
0100
0000
,
0010
0000
0000
1000
0000
0000
0020
0000
0000
0000
0000
0000
0030
0000
0000
0000
,
1000
0000
0000
0000
0000
0000
0001
0000
0100
0000
0000
0010
0000
0000
1000
0000
,
0010
0000
0000
0100
0000
0000
0002
0000
0000
0000
0000
0000
0003
0000
0000
0000
,
2000
0000
0000
0000
0000
0000
3010
0000
0100
0000
0000
0001
0000
0000
0010
0000
,
0100
0000
0000
1000
0000
0000
0100
0000
0000
0000
0000
0000
0000
0000
0000
0000
,
0010
0000
0000
0010
0000
0000
0001
0000
1000
0000
0000
1000
0000
0000
0010
0000
,
0100
0000
0000
0000
0000
0000
0001
1000
0001
1000
0000
0010
1000
0000
0001
0000
,
1001
0000
0000
0000
1000
0000
0010
0000
0100
0000
0000
0100
0000
0000
0100
0000
,
0000
0001
0000
0010
0000
1000
0000
0000
,
0020
0000
1030
0010
0000
0000
0000
0000
,
0200
0000
0000
0000
0301
0000
0010
0000
0100
0000
0000
1000
0000
0000
1000
0000
,
0100
0000
0000
0000
0011
0000
0001
0000
0010
0000
0000
0000
0100
1000
0100
0000
,
0010
0000
0000
0000
0001
0000
0000
0000
0001
0000
0000
0001
0000
0000
0001
0000
,
0001
0000
0000
1000
0000
0000
0010
0000
0100
0000
0000
0001
0000
0000
0010
0000
,
0100
1000
0100
1000
0001
0100
0001
0100
0010
0000
0000
0000
0000
0000
0000
0000
,
2000
0000
0000
0000
0000
0000
0000
3010
,
0100
0000
0001
0010
0000
0100
0000
2000
,
0000
0000
0000
0000
0000
0000
0000
3001
,
0100
0000
0010
1000
0000
0001
0000
0010
,
0200
1300
0001
0100
,
0010
0000
1000
0001
0000
0010
0000
0100
,
0000
0000
0000
0000
0000
0000
0000
1000
,
0001
0000
0000
0000
0000
0000
0100
0000
0000
0010
0000
0000
1000
0100
0010
0001
0010
0100
1000
0000
0000
0000
0000
0000
,
1000
0000
0001
0000
0100
0000
0010
1000
,
0010
0000
0100
0001
0000
0010
0000
0002
,
0000
0000
0000
0000
0000
0003
0001
1000
,
0010
0000
0100
0010
0000
1000
0000
0002
,
0000
0000
0013
0000
0000
0100
1000
0100
,
0010
0000
0001
0100
0000
0010
0000
1000
,
0000
1000
0010
0000
0100
0001
0010
0000
,
0001
1000
0001
1000
0010
0100
0010
0100
,
1001
0000
0000
0000
,
0000
0000
0000
0000
,
1000
0100
1000
0100
1000
0000
0001
0000
0100
0010
0100
0010
0100
0000
0001
0000
,
1000
0100
0000
0100
1000
0000
0001
0000
0100
0000
0010
0000
1000
0000
0100
0000
,
0100
0000
0000
0100
0000
0000
0100
0000
0000
0000
1000
0000
0010
0000
0100
0000
,
0001
0000
0000
0001
0000
0000
0001
0000
0000
0000
0100
0000
0010
0000
0100
0000
,
0001
0000
0000
0001
0000
0000
0001
0000
0000
0000
1000
0000
0100
0000
0010
0000
,
0001
0000
0000
0001
0000
0000
0001
0000
0000
0000
0100
0000
0010
0000
0100
0000
,
0001
0000
0000
0001
0000
0000
0001
0000
0000
0000
1000
0000
0100
0000
1000
0000
,
0001
0000
0000
0001
0000
0000
0001
0000
0000
0000
0100
0000
0000
0000
0100
0000
,
1001
0000
0000
0000
,
1001
0000
0010
0000
0100
0001
0010
0001
,
0100
0000
0010
0000
1000
0010
0100
0001
,
0010
0000
0100
0000
1000
0000
0001
0100
,
0010
0000
1000
0000
0100
0010
0001
0100
,
0010
0000
1001
0000
0010
0100
0010
1000
,
0001
0100
0010
1000
0100
0010
0001
0100
,
1001
0000
0010
0000
1000
0010
0100
0001
,
0010
0000
0000
0100
0000
0000
1000
0000
0000
0100
0000
0000
0010
0000
0000
0100
0000
0000
1000
0010
0100
0001
1000
0100
,
0010
0001
0100
1000
0100
0001
0000
0101
,
0000
0000
0000
1000
0100
0001
0100
1000
,
0010
0100
0001
0010
0001
0010
0000
0011
,
0000
0000
0000
0001
0100
1000
0100
0001
,
0010
1000
0010
0001
0100
0010
0000
1010
,
0000
0000
0000
1000
0001
0100
0010
1000
,
0100
0010
0001
0100
0010
1000
0000
1010
,
1000
0000
0000
0100
0000
0000
0010
0000
0000
0001
0000
0000
0010
0000
0000
0100
0000
0000
1000
0000
0000
0001
0000
0000
0100
0000
0000
0010
0000
0000
1000
0000
0000
0100
0000
0000
0010
0000
0001
0000
0100
0000
0010
0000
1000
0000
0100
0000
,
0010
0001
0000
0100
0000
0010
1000
0010
,
0000
0100
0000
0001
0000
0010
0001
0010
,
0000
0001
0000
0100
0000
0010
1000
0010
,
0000
0100
0000
0001
0000
0010
0001
0100
,
0001
1000
0010
0100
,
0001
0010
0100
1000
,
0001
0100
0010
1000
,
1000
0000
0000
0100
0000
0000
0010
0000
0000
0001
0000
0000
0010
0000
0000
0100
0000
0000
1000
0000
0000
0001
0000
0000
0010
0000
0000
0100
0000
0000
1000
0000
0000
0001
0000
0000
0100
0000
0010
0000
1000
0000
0001
0000
0100
0000
0010
0000
,
1000
0000
0000
0000
0001
0100
0001
1000
,
0001
0010
0001
1000
0001
0010
0000
1001
,
0000
0000
0000
1000
0100
0001
0100
1000
,
0010
0001
0010
1000
0010
0100
0000
0101
,
0000
0000
0000
1000
0100
0001
1000
0100
,
0001
1000
0010
0100
0001
0010
0000
0011
,
0000
0000
0000
0001
0100
0001
1000
0001
,
0010
0100
1000
0100
0010
0100
0000
1100
,
0001
0000
0000
1000
0000
0000
0001
0000
0000
0100
0000
0000
0001
0000
0000
0010
0000
0000
0001
0100
0010
1000
0100
0010
,
0001
0000
0000
0001
0000
0000
0001
0000
0000
0000
0100
0000
0010
0000
1000
0000
,
0010
0000
0000
0010
0000
0000
0010
0000
0000
0000
0100
0000
0001
0000
0100
0000
,
0001
0000
0000
0001
0000
0000
0001
0000
0000
0000
0100
0000
0010
0000
1000
0000
,
0010
0000
0000
0100
0000
0000
0001
0000
0000
0000
0010
0000
0100
0000
1000
0000
,
0100
0000
0000
0010
0000
0000
0001
0000
0000
0000
0100
0000
0010
0000
1000
0000
,
0010
0000
0000
0100
0000
0000
0001
0000
0000
0000
0010
0000
0100
0000
1000
0000
,
0100
0000
0000
0010
0000
0000
0001
0000
0000
0000
0100
0000
0010
0000
1000
0000
,
0010
0000
0100
0000
0001
0000
1000
0000
0100
0000
0010
0000
0001
0000
0010
0000
0100
0000
1000
0000
0001
0000
0100
0000
0010
1000
0001
0100
0010
1000
0100
0010
,
0001
0000
0000
0000
0000
0000
1000
0001
,
0000
0000
0000
0000
,
0100
0000
0000
0000
0000
0000
0010
1000
,
0000
0000
0000
0000
0000
0000
0000
0000
0010
0000
0000
0000
1000
0001
1000
0001
,
1000
0100
0010
0001
0010
0100
1000
0001
0100
0010
1000
0100
0010
0001
0010
0100
,
1000
0001
0100
0010
1000
0100
0010
0001
1000
0010
0100
0001
1000
0100
0010
0001
,
1000
0010
0100
0001
1000
0100
0010
0001
1000
0100
1000
0100
0010
0001
0100
0010
,
1000
0001
0010
0100
1000
0001
0100
0010
1000
0100
0010
0001
0100
0010
1000
0001
,
1000
0100
1000
0001
0100
0010
1000
0010
,
0100
0001
0010
0100
1000
0100
0010
0001
,
0100
0010
1000
0010
0100
0001
0010
0100
,
1000
0001
0100
0001
0010
0001
0100
0001
,
0010
0001
0100
0001
1000
0010
0100
0010
,
1000
0100
0010
0001
0100
0001
1000
0001
,
0010
0010
0100
0100
1000
1000
0001
0001
,
0100
0010
1000
0010
0100
0001
0010
0001
,
0011
0001
0100
0010
1000
0010
0100
0001
,
0010
0100
1000
0100
0010
0001
0100
0010
,
1000
0010
0100
0001
0010
0100
1000
0001
,
0100
0010
1000
0001
0100
0001
0010
0100
,
1000
0000
0000
1000
0000
0000
1000
0000
0001
0000
0000
0001
0000
0000
0001
0000
,
0100
0100
0010
1000
,
0001
0100
0010
1000
0001
0010
0001
1000
,
1001
0000
0010
0100
0110
0000
0001
0010
,
0001
0010
0100
1000
0100
0010
0001
0100
0010
1000
0100
0010
0001
0000
0000
0000
,
0002
0000
0000
0000
0000
0000
0000
0000
0000
0000
0100
0003
0000
0000
0010
0000
,
2000
0000
0000
0020
3030
0000
0000
0100
,
0010
0000
0000
0010
0000
0000
0010
0000
1000
0000
0000
1000
0000
0000
1000
0000
,
0001
0000
0000
0001
0000
0000
0001
0000
0100
0000
0000
0100
0000
0000
0100
0000
,
0020
0000
0000
0000
0000
0000
0000
0000
0000
0030
1000
0000
0010
0000
0000
0000
,
0100
0010
1000
0010
,
1000
0010
0100
0010
,
1000
0001
0010
0001
1000
0001
0100
0001
,
2000
0000
0000
3020
0000
0000
0230
0000
,
0302
0000
0000
0023
0000
0000
0000
0000
,
0230
0000
0000
2300
0000
0000
3002
0000
,
0203
0000
0000
0320
0000
0000
0000
0000
,
2030
0000
0000
3002
0000
0000
0203
0000
,
0302
0000
0000
0203
0000
0000
0320
0000
,
2030
0000
0000
3002
0000
0000
0203
0000
,
0320
0000
0000
2000
0000
0000
0000
3030
,
1001
0010
0100
0001
,
0011
0001
0100
0010
,
2002
0000
0000
3003
,
0000
0000
0000
0000
,
1000
0001
1000
0000
0010
0000
0100
0000
0001
0000
0100
0000
0010
0000
1000
0000
,
0001
0100
0001
0000
0100
0000
0010
1000
0010
0000
0100
0000
0001
0000
0100
0000
,
0001
1000
0001
0000
0100
0000
0010
0000
1000
0000
0001
0000
1000
0000
0001
0000
,
1000
0001
1000
0000
0010
0000
0100
0001
0100
0000
0000
0010
1000
0000
0001
0000
,
1000
0001
1000
0000
0010
0000
0100
0000
0001
0000
0010
0000
0001
0000
0010
0000
,
0001
0010
0001
0000
0010
0000
0001
0000
0100
0000
0010
0000
1000
0000
0010
0000
,
1000
0010
1000
0000
0001
0000
0100
0000
0001
0000
0010
0000
0001
0000
1000
0000
,
0001
1000
0001
1000
0010
0100
0010
0100
0010
1000
0001
1000
0010
0000
0000
0000
,
0100
0010
0010
1000
0010
0100
0001
0010
,
0011
0001
0100
0010
1000
0010
0100
0001
,
0011
0001
0100
0010
1000
0100
0010
0001
,
0011
0000
0000
0001
0000
0000
0100
0000
0000
0010
0100
0001
1000
0000
0000
0010
0000
0000
0000
0000
0000
0100
0000
0000
,
0101
0010
1000
0010
0100
0001
0010
0001
,
0010
0001
0010
0000
0001
0000
0100
0000
0010
0000
1000
0000
0010
0000
1000
0000
,
0010
1000
0010
0000
1000
0000
0001
0000
0100
0000
0001
0000
0010
0000
0001
0000
,
0100
0100
0010
0010
1000
1000
0001
0100
,
0010
0000
1000
0001
0000
0100
0010
0100
,
0010
0000
1000
0001
0000
0010
0100
1000
,
0100
0000
0010
0001
0000
0100
0010
1000
,
0001
0010
0110
1000
,
0001
0100
0010
1000
,
1001
0010
0100
0001
,
1000
0010
0100
0001
0010
0100
1000
0100
,
0010
0010
0010
0010
0001
0001
0001
0100
,
1010
0010
0100
0001
0010
0001
1000
0001
,
1001
0010
0100
0010
1000
0100
0010
0001
,
0011
0001
0100
0010
1000
0010
0100
0001
,
0011
0001
0100
0010
1000
0010
0100
0001
,
0011
0001
1000
0010
0100
0010
1000
0100
,
0010
0010
0001
0001
0100
0100
0010
0010
,
1000
0100
1000
0100
1000
0100
1000
0100
1000
0100
1000
0100
1000
0100
1000
0100
,
1000
0001
1000
0001
1000
0001
1000
0001
1000
0100
0010
0100
1000
0100
0010
0100
,
1000
0010
0100
0010
1000
0001
0010
0100
,
1000
0100
0010
0001
0100
0010
1000
0010
,
0100
0000
0001
0000
0010
0000
0100
0000
1000
0000
0001
0000
0100
0000
0000
0010
,
1000
1000
0001
0010
0001
0000
1001
0000
,
0100
0001
0010
0001
0100
0010
1000
0010
,
0100
0001
0010
0100
1000
0100
0010
0001
,
0100
0001
1000
0010
0100
0010
1000
0100
,
0010
0001
0100
0010
1000
0010
0100
0001
,
0011
0000
0001
0100
0000
0100
0010
1000
,
1010
0000
0010
0100
0000
0100
0001
0010
,
0011
0000
0001
0100
0000
0100
0010
1000
,
1010
0000
0010
0000
0100
0000
0001
0010
,
0011
0000
0001
0100
0010
1000
0010
1000
,
1001
0000
0100
0010
0100
1000
0001
0100
,
0101
0000
0010
1000
0010
1000
0001
0100
,
0101
0000
0010
1000
0001
0100
0001
0010
,
2002
0000
0000
3003
,
1000
0010
0100
0001
0010
0001
1000
0001
,
2002
0000
0000
3003
,
1000
0010
0000
0100
0001
0000
0010
0000
0100
0000
0000
0000
0000
0000
0000
0000
,
1000
0000
0000
0000
1000
0000
0000
0000
1000
0100
0010
0001
0010
0100
1000
0001
,
0100
0000
0000
0000
0010
0000
0000
0000
1000
0100
0010
0001
0010
0100
1000
0001
,
0100
0000
0010
0000
1000
0000
0010
0000
0100
0001
0100
0010
1000
0100
0010
0001
,
0100
0000
0010
0000
1000
0000
0010
0000
0100
0001
0010
0100
1000
0001
0100
0010
,
1000
0100
0010
0001
0010
0100
1000
0001
0100
0010
1000
0100
0010
0001
0010
0100
,
1000
0001
0100
0010
1000
0100
0010
0001
0010
0100
1000
0001
0100
0010
1000
0100
,
0010
0000
0000
0011
0011
0000
0000
1001
,
1000
0010
0000
0100
0001
0000
0101
0000
1001
0000
1000
0100
0010
0001
0010
0100
,
1000
0000
0100
0010
0100
0000
0010
0001
0010
0000
0100
0010
0100
0000
1000
0100
,
1000
0000
0001
0100
0001
0000
1000
0010
1000
0000
0001
0100
0010
1000
0100
0010
,
0001
0000
1000
0001
1000
0000
0010
1000
0010
0000
0100
0001
0100
0000
0001
0010
,
0001
0000
1000
0001
1000
0000
0010
1000
0010
0000
0100
0001
0100
0010
1000
0001
,
1000
0000
0010
0100
0010
0000
1000
0010
1000
0000
0001
0100
0001
0000
0100
0010
,
0100
0000
0010
1000
0010
0000
0100
0001
0100
0000
0010
1000
0100
0010
0001
0100
,
0010
1000
0100
0010
0001
0010
0100
1000
0001
0100
0010
1000
0100
0010
0001
0010
,
0100
1000
0001
0100
0010
1000
0100
0010
0001
0010
0100
1000
0001
0100
0010
1000
,
0001
0000
0010
0001
0010
0000
0001
1000
0001
0000
1000
0010
1000
0000
0001
0100
,
0001
0000
1000
0010
0100
0000
0001
0100
0010
0000
1000
0010
0100
0000
0001
0100
,
0010
0000
1000
0100
0010
0000
0001
0010
0100
0000
1000
0001
1000
0000
0010
0100
,
0001
0000
1000
0100
0010
0000
0001
0010
0100
0000
1000
0100
0010
0001
0100
0010
,
1000
0000
0001
0100
0001
0000
1000
0010
1000
0000
0001
0100
0001
0000
0100
0010
,
0100
0000
0010
1000
0010
0000
0100
0001
0100
0000
0001
0010
0001
0000
1000
0001
,
0100
0000
0010
1000
0010
0000
0100
0001
0100
0000
0010
1000
0010
0000
0100
0001
,
0010
0000
0001
1000
0001
0000
1000
0001
1000
0000
0001
1000
0001
0000
1000
0001
,
1000
0100
0010
0001
0010
0100
1000
0001
0100
0010
1000
0100
0010
0001
0010
0100
,
1000
0001
0100
0010
1000
0100
0010
0001
0100
0010
1000
0001
0010
0100
1000
0100
,
0010
0000
0001
1000
0001
0000
1000
0010
1000
0000
0001
0100
0001
0000
0100
0010
,
0100
0000
0010
1000
0010
0000
0100
0001
0100
0000
0010
1000
0010
0000
1000
0001
,
1000
0000
0001
0100
0001
0000
1000
0010
1000
0000
0001
0100
0001
0000
1000
0001
,
1000
0000
0010
0100
0010
0000
0100
0001
0100
0000
0010
0100
0010
0000
1000
0010
,
1000
0000
0001
1000
0001
0000
1000
0010
1000
0000
0001
0100
0001
0000
1000
0001
,
1000
0000
0010
1000
0010
0000
0100
0001
0100
0000
0010
1000
0010
0000
0100
0000
,
0101
0000
0000
0110
0110
0000
0000
1001
,
1000
0001
0000
0010
0010
0000
0100
0000
1100
0000
0000
0000
0000
0000
0000
0000
,
1001
0000
1001
0000
1001
0000
0001
0100
,
0010
1000
0100
0010
0001
0100
0010
1000
,
1010
0000
1010
0000
1010
0000
1000
0100
,
0010
0001
0100
0010
0100
0000
1001
0000
,
0011
0000
1001
0000
0101
0000
0001
0010
,
0100
1000
0010
0100
0001
0010
0100
1000
,
1001
0000
0110
0000
0011
0000
0100
1000
,
0100
0010
0001
0100
0001
0000
0000
0000
,
1000
0000
0001
0100
0001
0000
1000
0010
1000
0000
0001
0100
0001
0000
0100
0010
,
0100
0000
0010
1000
0010
0000
0100
0001
0100
0000
0010
1000
0001
0000
0100
0010
,
1000
0000
0100
0010
0001
0000
0010
0100
1000
0000
0001
0100
0010
0000
1000
0100
,
0010
0000
0001
0100
0010
0000
1000
0100
0010
0000
0001
0100
0010
1000
0100
0010
,
0001
0000
0100
0010
0100
0000
0001
0100
0001
0000
0100
0010
0100
0000
0010
1000
,
0010
0000
0100
0001
0100
0000
0010
1000
0010
0000
0100
0001
0100
0000
0010
1000
,
0010
0100
0001
1000
0100
0010
0001
0010
0100
1000
0001
0100
0010
1000
0100
0010
,
0001
0010
0100
1000
0001
0100
0010
1000
0100
0010
0001
0010
0100
1000
0001
1000
,
0110
0000
0000
0000
,
0000
0001
1000
0000
1001
0000
0000
0000
0010
0000
0100
0000
0110
0000
0000
0000
,
0001
0000
0010
0000
0011
0000
0000
0000
0001
1000
0001
1000
0010
0100
0010
0100
,
0001
1000
1001
0000
0100
0010
0110
0000
,
0001
0000
0010
0000
0011
0000
0000
0000
0001
0100
0001
0100
0001
0100
0001
0010
,
0001
0100
0001
0010
0001
0000
0100
0000
0010
1000
0010
1000
0010
0000
0100
0000
,
0001
0010
0001
0010
0001
0000
0100
0000
0010
1000
0010
1000
0010
0100
0001
0010
,
0001
1000
0001
1000
0001
0000
0100
0000
0010
1000
0010
1000
0010
0000
0100
0000
,
0001
0010
0001
1000
0100
0010
0001
1000
0001
0100
0001
1000
0100
0010
0100
1000
,
0001
1000
1001
0010
0100
0010
0110
1000
,
0100
0010
0100
0010
0100
1000
0001
0000
0100
0000
0001
0000
0101
0000
0001
0000
,
0100
0001
0000
0100
0001
0000
0000
0000
0001
0000
0100
0000
0101
0000
0000
0000
,
0001
0100
0001
0100
0001
0100
0001
1000
0001
0010
0001
1000
0001
0000
1000
0000
,
1001
1001
0011
0000
0011
0011
1001
0000
,
1000
0000
0001
0100
0001
0000
0010
0100
0010
0000
0100
1000
0000
1000
0000
0000
,
1001
1001
0101
0000
0011
0011
0101
0000
,
0001
0000
1000
0100
1000
0000
0001
0100
0001
0000
0010
0100
0010
0000
0100
1000
,
0100
1100
1001
0000
0101
0101
0011
0000
,
0001
0000
1000
0010
1000
0000
0001
0100
0001
0000
1000
0100
1000
0000
0001
0100
,
0001
1001
0011
0000
0011
1001
0101
0000
,
1000
1000
0202
0000
0000
0000
0303
0000
,
0000
0000
0000
0000
,
0000
0000
0000
0000
,
0000
0000
0000
0000
,
0000
0000
0000
0000
,
0000
0000
0000
0000
,
1000
0100
0010
0001
0010
0011
0011
0001
,
0100
0000
0010
0000
1000
0000
0001
1000
0001
0100
0010
1000
0010
0100
0001
1000
,
0100
0010
0001
0010
0100
1000
0001
0100
0010
1000
0100
0010
0001
0010
0100
1000
,
0001
0100
0010
1000
0100
0010
0001
0010
0100
1000
0001
0100
0010
1000
0100
0010
,
0001
0010
0100
1000
0001
0100
0010
1000
0100
0010
0001
0010
0100
1000
0001
0100
,
0010
1000
0100
0010
0001
0010
0100
1000
0001
0100
0010
1000
0100
0010
0001
1000
,
0001
0000
0010
0000
0010
0000
0100
1000
0100
0000
0010
0000
0001
0000
0100
0000
,
0010
1000
0100
0010
0001
0010
0100
1000
,
0001
0100
0010
1000
0100
0010
0001
0100
,
0010
1000
0010
0100
0001
1000
0100
0010
0001
0000
0100
0000
0010
0000
1000
0000
,
0100
0000
0010
0000
0001
0000
1000
0001
1000
0000
0010
0000
0100
0000
0001
1000
,
0001
0100
0010
1000
0010
1000
2020
3030
,
1001
1000
0100
0010
0100
0110
0010
0110
,
1000
0001
1000
1001
0001
1001
1000
0100
,
0010
0001
1000
1100
0100
1000
0001
0100
,
0010
1000
0001
0000
0100
0000
0010
0000
1000
0000
0100
0000
0010
0000
0001
0000
,
0100
0010
1000
1010
0010
1010
1000
0001
,
1000
0010
0100
1001
0010
0110
0000
0000
,
1001
0001
0100
0010
1000
1100
0011
0001
,
1001
0000
1000
0000
0001
0000
1001
0000
1000
0100
0010
0001
1000
0000
0001
0000
,
0000
0000
1001
0000
1001
0000
1000
0000
0100
0010
0001
0010
0100
0000
1000
0000
,
1100
0010
0001
0011
0001
1001
1001
1000
,
1010
0000
1000
0001
0100
0000
1010
0000
1000
0000
0001
0000
1000
0000
0010
0000
,
0100
0101
0101
0010
1000
1010
0000
0000
,
1001
0100
0010
0110
0000
0000
1100
0010
,
0001
1100
0001
0100
1010
0100
0001
0101
,
0010
1000
1010
0110
0101
1001
0000
0000
,
1001
0001
0100
1010
1000
0100
0010
0001
,
0001
0011
0001
1001
0110
1001
1100
0110
,
0010
0001
0100
1010
0010
1010
0100
0001
,
0100
0100
0100
0101
0010
1000
0010
0100
,
0001
1001
1000
0110
0110
1001
1001
1010
,
0100
0001
0101
0100
0010
1010
0000
0000
,
1001
0000
1000
0000
0100
0000
0010
0001
0010
0000
0100
0000
1000
0001
1000
0000
,
0010
0110
0000
0100
0001
0001
0001
0101
,
0010
1000
1010
0100
0001
0100
0010
1000
,
1100
0000
0010
0000
0001
0000
0100
0010
0100
0000
0010
0000
1000
0000
0000
0000
,
0001
1001
0000
1000
0101
1010
1001
0010
,
0100
0001
1000
0100
0011
1001
0000
0000
,
1001
0000
0001
0000
0100
0000
0010
1000
0010
0000
0100
0000
0101
0000
0000
0000
,
1000
0010
0000
1000
0001
0001
0001
0100
,
0010
0000
1000
0000
0010
0000
0100
0000
0001
0000
0011
0000
0000
0000
0001
1000
,
0001
0100
0010
1010
0000
1000
0001
0000
,
0001
0101
0000
0010
1010
1000
0001
0100
,
0010
1000
1010
1001
0101
1001
0000
0000
,
1000
0100
0010
0001
0010
0100
1000
0001
0100
0010
1000
0100
0010
0001
0010
0100
,
1000
0001
0100
0010
1000
0100
0010
0001
0010
0100
1000
0001
0100
0010
1000
0100
,
0010
0001
1001
0000
1000
0010
0010
0010
,
1010
0100
0001
0100
0000
0010
1010
0100
,
0001
0100
0000
0000
1010
1000
0001
0100
,
0010
1000
1010
1000
0001
0110
0001
1000
,
1001
0000
0000
0000
0001
0000
1000
0000
0001
0000
1000
0001
1000
0000
0000
0000
,
0001
0100
0010
0010
1000
0010
0100
0001
,
1000
0010
0101
0100
0010
1000
1000
0010
,
1001
0000
0000
0001
0001
0001
2000
0000
,
3000
0020
0000
0130
0001
0100
0010
1000
,
0100
0010
0011
1001
1010
0110
0101
1001
,
0110
0010
0100
1001
0000
1000
0100
0010
,
0001
1000
0000
0001
0100
0000
0010
0000
,
0000
1000
0010
0010
0100
0001
0100
0100
,
0100
0010
1000
0010
0000
0100
0100
0100
,
0001
0101
0000
1001
0000
1010
1000
0001
,
0000
1001
0000
0001
0100
1010
0000
1001
,
1000
0001
0100
0010
1000
0000
1010
0000
1000
0000
0001
0000
0101
0000
0100
0000
,
0001
0011
0100
1000
1100
0010
0001
0011
,
0001
1000
1001
0010
0100
0110
0001
1000
,
1001
1000
0010
0110
0100
0001
0011
0001
,
1000
1100
0010
0001
0011
0001
1000
1001
,
0100
0010
0110
0010
0001
0011
0000
0001
,
1001
0010
0100
0001
1000
0100
0010
0001
,
1000
1001
0000
0000
1001
0001
0001
0000
,
0100
0100
0000
0010
0010
0000
1000
1000
,
0000
0001
0100
0010
1000
0010
1000
0001
,
1000
0110
0000
0000
0000
0000
0000
0000
,
0000
0000
0000
0000
,
0000
0000
0000
0000
0000
0000
0000
0000
1000
0100
0010
0001
0010
0100
1000
0001
,
0100
0010
1000
0100
0010
0001
1000
0000
0001
0000
1000
0000
1001
0000
0001
0100
,
0010
1000
0100
0010
0001
0000
1000
0000
0010
0100
0001
1000
0100
0010
0001
1000
,
0010
0100
0001
1000
0001
0000
1001
0000
1001
0000
0010
0000
0100
0000
0001
0000
,
1000
0000
0100
0000
0010
0000
0000
0000
0001
0010
0100
1000
0001
0100
0010
0000
,
1000
0100
0010
0001
0010
0100
1000
0000
0001
0100
0010
1000
0100
0010
0001
0000
,
1000
0000
0000
0000
0000
0000
0010
0000
0000
0000
0000
0000
0110
0000
0000
0000
0000
0000
0100
0000
0000
0000
0000
0000
0001
0000
1000
0000
0001
0000
1000
0000
0000
0000
0000
0000
0001
0000
0000
0100
0000
0000
0010
0000
0000
1000
0000
0000
,
0100
0000
0010
0000
0100
0000
0010
0000
0000
0001
0000
0000
0010
0000
0000
0100
0000
0000
1000
0000
0000
0001
0000
0000
0100
0000
0010
0000
0100
0000
0010
0000
0000
1000
0000
0000
0001
0000
0100
0000
0010
0000
1000
0000
0100
0000
0010
0000
,
0001
0010
0100
1000
0001
0100
0010
0000
0000
1000
0000
0000
0001
0010
0100
1000
0100
0010
0001
0100
0010
1000
0100
0010
,
0001
0000
0000
0000
0000
0000
1000
0000
0000
0000
0000
0000
0000
0000
0000
0000
0000
0000
0001
0000
0000
0100
0000
0000
0010
0000
1000
0000
0100
0000
0010
0000
0001
0000
0010
0000
0100
0000
1000
0000
0001
0000
0100
0000
0010
0000
1000
0000
,
0010
0000
0000
0100
0000
0000
0001
0000
0000
0100
0000
0000
0010
1000
0100
0010
0001
0010
0100
1000
0001
0100
0010
1000
,
0100
0010
0001
0010
0100
1000
0001
0100
0010
1000
0100
0010
0001
0000
0000
0000
0000
0000
1001
0000
0000
0000
0000
0000
,
0000
0000
0000
0010
0000
0000
0000
0000
0000
0010
0000
0000
0000
0000
0000
1000
0000
0000
0000
0000
0000
0010
0000
0000
1000
0000
0100
0000
0010
0000
0001
0000
0010
0000
0100
0000
1000
0000
0001
0000
0100
0000
0010
0000
0000
0000
0000
0000
,
1000
0100
0010
0001
0010
0100
1000
0001
0100
0010
0000
0000
1000
0100
0010
0001
0010
0100
1000
0001
0100
0010
0000
0000
,
1000
0100
0010
0001
0010
0100
1000
0001
0100
0010
0000
0000
1000
0100
0010
0001
0010
0100
1000
0001
0100
0010
0000
0000
,
1000
0000
0100
0000
0010
0000
0001
0000
0010
0000
0100
0000
1000
0000
0001
0000
0100
0000
0010
0000
0000
0000
0000
0000
1000
0000
0000
0000
0000
0000
0001
0000
0000
0100
0000
0000
0000
0000
0000
0100
0000
0000
0001
0000
0000
0000
0000
0000
,
1000
0100
0010
0001
0010
0100
1000
0001
0100
0010
0000
0000
1000
0100
0010
0001
0010
0100
1000
0001
0100
0010
1000
0100
,
0010
0001
0010
0100
1000
0001
0100
0010
1000
0100
0010
0001
0010
0100
1000
0001
0100
0010
1000
0100
0010
0001
0010
0100
,
1000
0001
0100
0010
1000
0100
0010
0001
0010
0100
1000
0001
0100
0010
1000
0100
0010
0001
0010
0100
1000
0001
0100
0010
,
1000
0000
0100
0000
0010
0000
0001
0000
0010
0000
0100
0000
1000
0000
0001
0000
0100
0000
0010
0000
1000
0000
0100
0000
0010
0000
0000
0001
0000
0000
0010
0000
0000
0001
0000
0000
0000
0000
0000
0000
0000
0000
0001
0000
0000
1000
0000
0000
,
0000
1000
0001
1000
0000
0000
0000
0000
1001
0000
0001
0100
0010
1000
0100
0010
,
0001
0010
0100
1000
0001
0100
0010
1000
0100
0010
0001
0010
0100
1000
0001
0100
,
0010
1000
0100
0010
0001
0010
0100
1000
0001
0100
0010
1000
0100
0010
0001
0010
,
0100
1000
0001
0100
0010
1000
0000
0000
1010
0000
0000
0000
1001
0000
0000
0000
,
0101
0000
0000
0000
1001
0001
0100
0010
1000
0100
0010
0001
1000
0010
1000
0001
,
0100
0010
1000
0100
0010
0001
0010
0100
1000
0001
0100
0010
1000
0100
0010
0001
,
0010
0100
1000
0001
0100
0010
1000
0100
0010
0100
1000
0001
0100
0010
1000
0100
,
0010
0001
0010
0100
1000
0001
0100
0010
1000
0100
0010
0001
0010
0100
1000
0001
,
0100
0010
1000
0001
0100
0010
1000
0100
0010
0001
0010
0001
1000
0010
1000
0010
,
0100
0001
0100
0001
0100
0010
0100
0010
1000
0010
1000
0010
0100
0001
0100
0010
,
1000
0100
0010
0001
0010
0100
1000
0001
0100
0010
1000
0100
0010
0001
0010
0100
,
1000
0001
0100
0010
1000
0100
0010
0100
1000
0001
0100
0010
1000
0100
0010
0100
,
1000
0001
0100
0010
1000
0100
0010
0001
0010
0100
1000
0001
0100
0010
1000
0100
,
0010
0001
0100
0010
1000
0000
0000
0000
0000
0000
0000
0000
0000
0000
0000
0000
,
0000
0000
0000
0000
0000
0000
0000
0000
0000
0000
0000
0000
0000
0001
0100
0010
,
1000
0001
0100
0000
0010
1000
0100
1000
0001
0100
0010
0000
1000
0100
1000
0001
,
0100
0010
1000
0000
0001
0000
0100
0000
1010
0000
1001
0000
0001
0100
0010
1000
,
0100
1000
0001
0100
0000
0010
1000
0010
0000
0100
0000
0001
0000
0000
0100
0000
,
1010
0000
0100
0000
0001
0100
0010
1000
0100
0000
0010
0000
0001
0100
0010
1000
,
0100
0010
0001
0000
1000
0001
1000
0000
0001
0000
0100
0000
0010
1000
0100
1000
,
0001
0100
0010
0000
1010
0000
1001
0000
0101
0000
1001
0000
1000
0100
0010
0001
,
0010
0100
1000
0000
0001
0000
0110
0000
0000
1001
0000
0000
1000
0000
0001
0000
,
0100
0000
0000
0010
0000
0000
0000
0000
0000
0010
0000
0000
0000
0000
0000
1000
0000
0000
0000
0000
0000
0001
0000
0000
0000
0000
0000
0000
0000
0000
0000
0000
0000
0000
0000
0000
1000
0000
0100
0000
0010
0000
0001
0000
0010
0000
0100
0000
,
1000
0001
0100
0010
1000
0100
0010
0001
0010
0100
1000
0001
0100
0010
1000
0100
0010
0001
0010
0100
1000
0001
0100
0010
,
1000
0100
0010
0001
0010
0100
1000
0001
0100
0010
1000
0001
0010
0100
1000
0001
0100
0010
1000
0100
0010
0001
0100
0010
,
1000
0001
0010
0001
1000
0010
0100
0001
0100
0010
0100
0001
1000
0100
0010
0100
0010
0100
1000
0001
0100
0010
0100
0001
,
0100
0010
1000
0001
0010
0100
1000
0100
0010
0001
1000
0010
1000
0001
1000
0001
1000
0010
0100
0001
0100
0010
1000
0100
,
0010
0001
0010
0100
1000
0001
0100
0010
1000
0100
0010
0100
1000
0001
0010
0100
1000
0001
0100
0010
1000
0100
0010
0001
,
0010
0100
1000
0001
0100
0010
1000
0100
0010
0001
0010
0100
1000
0001
0100
0010
1000
0100
0010
0001
0010
0100
1000
0001
,
0100
0000
0010
0000
1000
0000
0100
0000
0010
0000
0001
0000
0010
0000
0100
0000
1000
0000
0001
0000
0100
0000
0010
0000
1000
0000
0100
0000
0010
0000
0001
0000
0010
0000
0100
0000
1000
0000
0000
0001
0000
0000
1000
0000
0000
0001
0000
0000
,
0000
0000
1000
0010
0000
0010
1000
0000
0001
0000
1000
0000
0001
0010
0100
1000
,
0001
0100
0010
1000
0100
0010
0001
1000
0100
0000
0010
0000
0001
0000
1000
0000
,
0010
0000
0100
0001
0100
0010
1000
0100
0010
0000
0001
0000
1000
0100
0010
0001
,
0010
0100
1000
0001
0100
0010
1000
0100
0010
0000
0000
0000
0001
0000
0100
0000
,
0010
0000
1000
0000
0010
0000
0100
0000
0000
0000
0000
0000
0001
1000
0001
1000
,
0000
0000
0010
0100
0000
0010
0100
0000
0001
1000
0001
0000
1001
0000
0000
0000
,
0000
0000
0000
0000
,
0000
0000
0000
0000
,
0000
1000
0001
0100
,
0010
0000
0000
0010
0000
0000
0010
0000
0010
0000
0000
0000
1000
0000
0000
0000
,
1001
0000
0010
0000
0010
0100
0001
1000
,
0010
0000
0000
0010
0100
0000
1001
0000
,
1001
0001
0100
0010
1000
0010
0100
0001
,
0010
0001
0100
0001
0010
0001
1000
0010
,
0100
0001
0010
0001
1000
0001
0010
0001
,
1000
0000
0001
0100
0001
0100
0001
0100
0010
0000
0000
0000
1001
0000
0000
0000
,
1000
0100
0010
0001
0010
0100
1000
0001
0100
0010
1000
0100
0010
0001
0010
0100
,
1000
0001
0100
0010
1000
0100
0010
0001
0010
0100
1000
0001
0100
0010
1000
0100
,
0010
0001
0010
0100
1000
0001
0100
0010
1000
0100
0010
0001
0010
0100
1000
0001
,
0100
0010
0100
0001
0010
0100
1000
0001
0100
0010
1000
0100
0010
0001
0010
0100
,
1000
0001
0100
0010
1000
0100
0010
0001
0010
0100
1000
0001
0100
0010
1000
0100
,
0010
0001
0010
0001
1000
0100
0010
0001
0010
0100
1000
0001
0100
0010
1000
0100
,
0010
0001
0010
0001
1000
0010
0100
0001
1000
0100
0010
0001
0010
0100
1000
0001
,
0100
0010
1000
0100
0010
0001
0010
0100
1000
0001
0100
0010
1000
0001
1000
0001
,
1000
0000
0010
0100
0010
0000
1000
0000
0001
1000
0001
0000
1000
0000
0010
0000
,
0100
0001
0100
0000
0010
0000
1000
0000
0001
1000
0001
0000
1000
0100
1000
0100
,
1000
0004
0000
0000
1003
0040
0000
0000
,
0130
0001
0100
0000
0010
1000
0010
0000
1000
0001
1000
0000
0010
1000
0010
0000
,
1000
0000
0000
0001
0000
0000
0100
0000
0010
1000
0010
0000
1000
0000
0001
0000
,
0010
0000
0000
0100
0000
0000
1000
0000
0100
0010
0001
0000
0010
0000
0100
0000
,
1000
0001
1000
0000
0001
0100
0001
0100
0001
0000
1000
0000
0010
0100
0001
0100
,
0010
0000
0000
0000
0000
0000
0000
0000
0000
0000
0000
0000
0000
0000
0000
1000
0001
1000
0001
0000
0000
0000
0000
0000
,
1000
0001
0010
0100
1000
0001
0100
0010
1000
0100
0010
0001
1000
0100
1000
0100
,
0010
0001
0100
0010
1000
0001
0010
0001
1000
0010
1000
0001
0010
0001
1000
0010
,
0100
0001
0010
0100
1000
0001
0100
0010
1000
0100
0010
0001
0010
0100
1000
0001
,
0100
0010
1000
0100
0010
0001
0010
0001
1000
0010
0100
0010
1000
0100
0010
0001
,
1000
0010
0100
0001
1000
0100
0010
0001
1000
0010
0100
0001
1000
0100
0010
0001
,
1000
0010
0100
0001
1000
0100
1000
0001
1000
0010
0100
0001
1000
0100
0010
0001
,
0010
0100
1000
0001
0100
0010
1000
0100
0010
0001
0010
0100
1000
0001
0010
0001
,
4000
0000
0000
3010
0000
0000
0100
0000
0004
0000
0000
0003
1000
0001
1000
0001
,
0100
0010
1000
0000
0001
0000
0100
0000
0010
1000
0001
0000
0100
0000
0010
0000
,
1000
0000
0001
0100
0001
0000
1000
0000
0001
0100
0010
1000
0100
0000
0010
0000
,
0004
0000
0000
0103
0000
0000
0010
0000
1000
0000
0000
0010
0000
0000
0100
0000
,
0001
0000
0000
0010
0000
0000
0000
0000
0000
0001
0000
0000
0010
0000
0000
0000
0000
0000
0000
0000
0000
0000
0000
0000
0001
0000
0000
1000
0000
0000
0001
0000
0010
0000
0100
0000
1000
0000
0000
0000
0000
0000
0001
0000
0000
1000
0000
0000
,
0010
0000
0000
0010
0000
0000
0000
1000
,
1001
0010
0100
0001
,
0011
0000
0001
0100
0001
0000
0100
0000
,
0010
1000
1001
0010
,
0001
1000
0001
0100
0001
0010
0001
1000
,
0001
0010
0001
1000
0001
0010
0001
1000
,
0001
0000
1000
0010
0100
0001
0010
0001
,
1000
0100
0010
0001
0010
0100
1000
0001
0100
0010
1000
0100
0010
0001
0010
0100
1000
0001
0100
0010
1000
0100
0010
0001
,
0010
0000
0000
0100
0010
0000
0000
0000
,
0101
0000
0000
0001
0000
0000
0100
0000
0004
0000
0000
0000
4003
0000
0000
0000
,
3020
0000
0000
0130
0001
0000
1000
0000
,
1001
0000
0010
0000
0100
0001
0010
0001
,
1001
0010
0010
0002
0000
0000
1003
0000
,
0001
0100
0010
1000
,
1001
0000
0000
0000
0110
0000
0000
0000
0011
0000
0000
0000
1001
0000
1000
0001
,
1000
0000
0000
0010
1000
0000
0001
0000
0200
0000
0320
0000
2030
0000
3002
0000
,
1003
0000
0100
0010
0100
0000
1000
0000
0001
1000
0001
0000
1000
0000
0010
0000
,
1000
0000
0000
0001
1000
0000
0001
0000
0010
0100
0010
0000
0100
0000
1000
0000
,
1001
0000
0000
0001
0100
0000
0010
0000
1000
0000
0000
0010
1000
0000
0100
1000
,
0100
0000
0000
0000
0000
0000
0000
0000
0000
0010
0000
0000
0001
0000
0000
0000
0000
0000
1000
0000
0000
0000
0000
0000
0001
0000
0100
0000
0010
0000
1000
0000
0100
0000
0010
0000
0001
0000
0010
0000
0100
0000
1000
0000
0001
0000
0100
0000
,
0010
0000
1000
0000
0001
0100
0001
0010
,
0001
0000
1000
0000
0010
0100
0010
1000
,
0001
0010
0001
1000
0001
0100
0001
1000
,
0001
0000
0000
0100
0000
0000
0000
0000
0000
0100
0000
0000
0010
0000
0000
0000
0000
0000
0010
0000
0000
1000
0000
0000
0000
0000
0000
1000
0000
0000
0001
0000
0000
0000
0000
0000
1000
0000
0100
0000
0010
0000
0001
0000
0010
0000
0100
0000
,
1000
0000
0000
0100
0000
0000
0010
0000
0000
0001
0000
0000
0010
0000
0000
0100
0000
0000
1000
0000
0000
0001
0000
0000
0100
0000
0000
0010
0000
0000
1000
0000
0000
0100
0000
0000
0010
0000
0001
0000
0010
0000
0100
0000
1000
0000
0001
0000
,
0100
0000
0010
1000
0010
0000
0100
0000
0001
0010
0000
0100
1000
0000
0001
0000
,
0100
0010
0000
0010
0100
0000
0001
0000
1000
0100
0000
0010
0001
0000
1000
0000
,
1001
0001
0100
0010
1000
0010
0100
0001
,
0010
0001
0100
0001
1000
0001
1000
1001
,
1001
0010
0100
0010
1000
0001
0010
0001
,
0011
0001
0100
0001
1000
0001
1000
1000
,
1001
0010
0100
0010
1000
0001
0010
0001
,
0010
0100
1000
0010
1000
0010
0100
0001
,
0011
0001
0100
0010
1000
0010
0100
0001
,
0010
0001
0100
0001
1000
0001
0100
0001
,
0011
0001
1000
0001
0100
0001
0010
0001
,
0010
0001
0100
0001
1000
0001
1000
0001
,
1001
0010
0100
0010
1000
0001
0010
0001
,
0011
0001
0100
0010
1000
0010
1000
0010
,
1010
0100
0001
0100
0101
0001
0010
0001
,
1000
0000
0000
0100
0000
0000
0010
0000
0000
0001
0000
0000
0010
0000
0000
0100
0000
0000
1000
0000
0000
0001
0000
0000
0100
0000
0000
0010
0000
0000
1000
0000
0000
0100
0000
0000
0010
0000
0001
0000
0010
0000
0100
0000
1000
0000
0001
0000
,
0100
0010
0000
1000
0000
0001
0000
0100
0000
0010
1000
0010
0100
0001
0100
0010
,
1000
0000
0100
0010
0001
0010
0100
1000
0001
0000
1000
0100
0010
0001
0010
0100
,
1000
0000
0000
0001
0100
0000
0000
0010
1000
0000
0000
0001
0010
0000
0000
0100
,
1000
0001
0100
0010
,
1000
0001
0010
0100
,
1000
0000
0000
0100
0000
0000
0010
0000
0000
0001
0000
0000
0010
0000
0000
0100
0000
0000
1000
0000
0000
0001
0000
0000
0100
0000
0000
0010
0000
0000
1000
0000
0000
0100
0000
0000
0010
0000
0001
0000
0010
0000
0100
0000
1000
0000
0001
0000
,
0100
0000
0010
0000
1000
0000
0100
0000
0010
0100
0000
0010
0100
0000
1000
0000
,
0001
0000
0100
0000
0010
0000
1000
0000
0001
1000
0000
1000
0001
0000
1000
0000
,
0100
0000
0010
0000
0001
0000
0010
0000
0100
1000
0000
1000
0001
0000
0100
0000
,
0010
0000
1000
0000
0100
0000
0010
0000
0001
1000
0000
1000
0001
0000
0100
0000
,
0010
0000
0000
1000
0000
0000
0100
0000
0000
0010
0000
0000
0001
0000
0000
0010
0000
0000
0100
0000
0000
1000
0000
0000
0001
0000
0000
0100
0000
0000
0010
0000
0000
1000
0000
0000
0100
0000
0010
0000
0001
0000
0010
0000
0100
0000
1000
0000
,
0001
0000
0100
0001
0100
0001
0100
0001
0100
0000
0010
0000
1000
0000
0100
0000
,
0010
0001
0010
0100
1000
0001
0100
0010
1000
0100
0010
0001
0010
0100
1000
0001
,
1001
0000
1000
0100
1000
0100
1000
0100
1000
0000
0001
0000
0100
0000
0010
0000
,
1000
0010
0100
0001
1000
0100
0010
0001
0010
0100
1000
0001
0100
0010
1000
0100
,
0011
0000
0100
1000
0100
1000
0100
1000
0100
0010
0001
0100
0010
0000
1000
0000
,
0001
0010
0100
1000
0001
0100
0010
1000
0100
0010
0001
0010
0100
1000
0001
0100
,
1010
0000
0100
0001
0100
0010
1000
0001
0100
0000
0010
0000
1000
0000
0100
0000
,
0010
0000
0001
0000
0100
0000
0010
0000
1000
0010
0000
0010
1000
0100
1000
0001
,
1000
0100
0010
0001
0010
0100
1000
0001
0100
0010
1000
0100
0010
0001
0010
0100
,
1000
0001
0100
0010
1000
0100
0010
0001
0010
0100
1000
0001
0100
0010
1000
0100
,
0010
0001
0010
0100
1000
0001
0100
0010
1000
0100
0010
0001
0010
0100
1000
0001
,
0100
0010
1000
0100
1000
0001
0010
0100
1000
0001
0100
0010
1000
0100
0010
0001
,
1000
0010
0100
0001
1000
0100
0010
0001
1000
0010
0100
0001
1000
0100
0010
0001
,
1000
0000
0000
0000
0001
0010
0100
1000
0100
0010
0001
0100
0010
1000
0100
0010
,
0001
1000
0100
0010
0001
0010
0100
1000
0001
0100
0010
1000
0001
0010
0001
0010
,
0100
1000
0100
1000
0001
0100
0010
1000
0100
0010
0001
0010
0100
1000
0001
0100
,
0010
0000
0000
0000
0000
0000
1000
0001
1000
0000
0100
0000
0010
0000
0001
0000
0010
0000
0100
0000
1000
0000
0001
0000
0100
0000
0010
0000
1000
0000
0100
0000
,
0010
0001
0010
0001
1000
0010
0100
0001
1000
0100
0010
0001
0010
0100
1000
0001
,
0100
0010
0100
0010
1000
0100
0010
0001
0010
0100
1000
0001
0100
0010
1000
0100
,
0010
0000
0000
0001
0000
0000
0010
0000
0000
0100
0000
0000
1000
0000
0000
0001
0000
0000
0100
0000
0000
0010
0000
0000
1000
0000
0100
0000
0010
0000
0001
0000
0010
0000
0100
0000
1000
0000
0001
0000
0100
0000
0010
0000
1000
0000
0100
0000
,
0010
0000
0000
0001
0000
0000
0010
0000
0000
0100
0000
0000
1000
0000
0000
0001
0000
0000
0100
0000
0000
0010
0000
0000
1000
0000
0100
0000
0010
0000
0001
0000
0010
0000
0100
0000
1000
0000
0001
0000
0100
0000
0010
0000
1000
0000
0100
0000
,
0010
0001
0010
0100
1000
0001
0100
0010
1000
0100
0010
0001
0010
0100
1000
0001
,
0100
0000
0000
0010
0000
0000
1000
0000
0000
0100
0000
0000
0010
0000
0000
0001
0000
0000
1000
0000
0000
0010
0000
0000
1000
0000
0010
0000
0100
0000
0001
0000
1000
0000
0100
0000
0010
0000
0001
0000
0010
0000
0100
0000
1000
0000
0001
0000
,
1000
0000
0100
0010
0100
0010
0100
0010
0100
1000
0001
0100
0010
1000
0100
0010
,
0001
0100
1000
0100
0001
0010
1000
0010
,
0001
0000
0100
0010
0100
0010
0100
0010
0100
0000
0001
0000
0010
0000
0100
0000
,
1000
0001
0100
0001
1000
0001
0100
0001
,
1000
0000
0100
1000
0100
1000
0100
1000
0100
0000
1000
0000
0001
0000
0010
0000
,
0001
0100
0001
1000
0001
0100
0001
1000
,
0100
0000
1000
0100
1000
0100
1000
0100
1000
0000
0100
0000
0010
0000
0001
0000
,
1000
0100
0010
0001
0010
0100
1000
0001
0100
0010
1000
0100
0010
0001
0010
0100
,
1000
0000
0010
1000
0010
1000
0001
0100
0010
0000
1000
0000
0100
0000
0010
0000
,
0001
0000
1000
0100
0010
0001
0010
0100
1000
0000
0001
0000
0100
0000
0010
0000
,
1000
0100
0010
0001
0010
0100
1000
0001
0100
0010
1000
0100
0010
0001
1000
0010
,
1000
0000
0000
0000
,
0000
0000
0000
0000
,
0000
0000
0000
0000
,
0000
0000
0000
0000
,
1000
0100
0010
0001
0010
0100
1000
0001
0100
0010
1000
0100
0010
0001
0010
0100
,
1000
0001
0100
0010
1000
0100
0010
0001
0010
0100
1000
0001
0100
0010
1000
0100
,
0010
0001
0010
0001
1000
0100
0010
0001
0010
0100
1000
0001
0100
0010
1000
0100
,
0010
0001
0010
0100
1000
0001
0100
0010
1000
0100
1000
0100
0010
0001
0100
0010
,
1000
0001
0010
0100
1000
0001
0100
0010
1000
0100
1000
0001
1000
0100
1000
0001
,
1000
0100
1000
0010
0100
0010
0100
0001
0100
0010
0100
0001
1000
0100
0010
0001
,
0010
0100
1000
0001
0100
0010
1000
0100
0010
0001
0010
0100
0010
0001
0010
0100
,
1000
0001
0100
0010
1000
0100
0010
0001
0010
0100
1000
0001
0100
0010
1000
0100
,
0010
0001
0010
0100
1000
0001
0100
0010
1000
0100
0010
0001
0010
0100
1000
0001
,
0100
0010
1000
0100
0010
0001
0010
0100
1000
0001
0100
0010
1000
0100
0010
0001
,
0100
0010
1000
0001
0010
0100
1000
0001
0100
0010
1000
0100
0010
0001
0100
0010
,
1000
0001
0010
0100
1000
0001
0100
0010
1000
0100
0010
0001
0010
0100
1000
0001
,
0100
0010
1000
0100
0010
0001
1000
0010
1000
0001
0100
0010
1000
0100
0010
0001
,
0010
0100
1000
0001
0100
0010
1000
0100
1000
0001
0100
0010
1000
0001
0010
0100
,
1000
0001
0100
0010
1000
0100
0010
0001
0010
0100
1000
0100
0010
0001
0010
0100
,
1000
0001
0100
0010
1000
0100
0010
0001
0010
0100
1000
0001
0100
0010
1000
0100
,
1000
0010
0100
0001
1000
0100
0010
0001
1000
0010
0100
0000
0000
0000
0000
0000
,
0010
0100
0001
0100
0010
1000
0100
0010
0001
0010
0100
1000
0001
0100
0010
1000
,
0100
0010
0001
0010
0100
1000
0001
0100
0010
0100
0001
0010
0100
1000
0001
0010
,
0001
1000
0100
0010
0001
1000
0010
0100
0001
1000
0100
1000
0001
0010
0100
1000
,
0001
0100
0010
1000
0001
0010
0100
1000
0001
0010
0100
0010
0001
1000
0010
0100
,
0001
1000
0100
1000
0001
0100
0001
1000
0100
1000
0001
0010
0100
1000
0001
0100
,
0010
1000
0100
0010
0100
1000
0001
0010
0100
1000
0100
0010
0001
1000
0010
0100
,
0001
0010
0001
1000
0100
0010
0001
0010
0100
1000
0001
0100
0010
0100
0001
0100
,
0010
1000
0100
1000
0010
1000
0100
1000
0001
0100
0010
0100
0001
1000
0100
0010
,
0001
0100
0010
1000
0010
0100
0001
0000
,
1000
0010
1000
0010
0100
0001
0010
0000
,
0001
1000
0001
0100
0001
0010
0001
0000
,
1000
0010
0100
0010
1000
0001
1000
0000
,
0001
1000
0001
1000
0001
0000
0000
0000
0000
0000
0000
0000
0000
0000
0000
0000
,
1000
0001
0100
0000
0000
0000
0000
0000
,
0010
1000
0001
0000
0000
0000
0000
0000
,
1000
0100
0010
0001
0010
0100
1000
0001
0100
0010
1000
0100
0010
0001
0010
0100
,
1000
0001
0100
0010
0100
0001
0010
0100
1000
0001
0100
0010
1000
0001
0100
0001
,
1000
0010
1000
0001
0100
0010
1000
0100
0010
0100
1000
0001
0100
0010
1000
0001
,
0010
0001
0010
0001
1000
0100
1000
0100
0010
0001
0100
0010
1000
0001
0100
0010
,
1000
0100
1000
0001
0010
0100
1000
0001
0010
0001
1000
0100
0010
0001
0010
0100
,
0010
0001
0100
0010
1000
0001
0010
0100
1000
0001
0100
0010
1000
0100
0010
0100
,
1000
0001
0010
0100
1000
0001
0010
0001
1000
0100
0010
0001
1000
0010
0100
0001
,
1000
0100
1000
0001
0010
0100
1000
0001
1000
0010
1000
0001
0100
0010
0100
0001
,
0100
0010
1000
0100
1000
0010
1000
0100
1000
0001
0100
0010
0100
0001
0100
0010
,
1000
0100
0010
0001
0010
0100
0010
0001
0100
0010
1000
0001
0100
0010
1000
0100
,
0010
0001
0010
0100
0010
0001
0100
0010
1000
0100
0010
0001
0010
0100
1000
0001
,
0100
0010
1000
0100
0010
0001
0010
0100
1000
0001
1000
0001
0100
0010
0100
0010
,
1000
0100
0010
0001
0010
0100
1000
0001
0100
0010
1000
0100
0010
0001
0010
0001
,
1000
0100
1000
0100
0010
0001
0010
0001
1000
0010
1000
0010
0100
0001
0100
0001
,
1000
0100
0010
0001
0010
0100
1000
0001
0100
0010
1000
0100
0010
0001
0010
0100
,
1000
0001
0100
0010
1000
0100
0010
0001
0010
0100
1000
0001
0100
0010
1000
0100
,
1000
0010
1000
0100
1000
0010
0100
0001
0100
0010
0100
0001
0100
0010
1000
0001
,
1000
0000
0000
0000
0000
0000
0001
1000
0001
0000
0000
0000
0000
0000
1000
0001
,
1000
0000
0010
0100
0001
0000
0001
0000
,
1000
0100
0010
0001
0010
0100
1000
0001
,
0100
0010
1000
0100
0010
0001
0010
0100
1000
0001
0100
0010
1000
0100
0010
0001
,
1000
0100
0010
0001
0010
0100
1000
0001
0100
0010
1000
0100
0010
0001
0010
0100
,
1000
0001
0100
0010
1000
0100
0010
0001
0010
0100
1000
0001
0100
0010
1000
0100
,
0010
0001
0010
0100
1000
0001
0100
0010
1000
0100
0010
0001
1000
0100
0010
0100
,
1000
0001
0010
0100
1000
0001
0100
0010
1000
0100
0010
0100
1000
0001
0010
0100
,
1000
0001
0010
0001
1000
0100
1000
0100
0010
0001
0010
0001
0100
0010
0100
0010
,
1000
0100
1000
0100
0010
0001
0100
0010
1000
0100
0010
0001
0010
0100
1000
0001
,
0100
0010
1000
0100
0010
0001
0010
0100
1000
0001
0100
0010
1000
0100
0010
0001
,
0010
0100
1000
0001
0100
0010
1000
0001
0010
0100
1000
0001
0100
0010
1000
0100
,
0010
0001
0010
0100
1000
0001
0100
0010
1000
0100
0010
0001
0010
0100
1000
0001
,
1000
0100
0010
0001
0010
0100
1000
0001
0100
0010
1000
0100
0010
0001
0010
0100
1000
0001
0100
0010
1000
0100
0010
0001
,
1000
0100
0010
0001
0010
0100
1000
0001
0100
0010
1000
0100
0010
0001
0010
0100
,
1000
0001
0100
0010
1000
0100
1000
0001
0010
0100
1000
0001
0100
0010
0100
0001
,
0100
0010
0100
0001
0100
0010
0100
0001
1000
0100
0010
0001
0010
0100
0010
0001
,
0100
0010
1000
0100
0010
0100
1000
0001
0100
0010
1000
0100
0010
0001
0010
0001
,
1000
0010
0100
0001
1000
0100
1000
0100
0010
0001
0010
0100
0010
0100
1000
0001
,
0100
0010
0100
0010
1000
0100
0010
0001
1000
0010
1000
0100
1000
0001
0100
0010
,
1000
0001
0100
0010
1000
0100
0010
0001
0010
0100
0010
0001
0100
0010
0100
0001
,
0100
0010
1000
0100
0010
0100
1000
0001
0010
0100
1000
0100
0010
0100
1000
0001
,
1000
0100
1000
0001
0100
0001
0010
0001
,
0100
0010
1000
0010
0100
0010
1000
0010
,
0100
0001
0010
0001
1000
0001
0010
0001
,
1000
0001
0100
0001
0010
0001
0100
0001
,
1000
0100
0010
0001
0010
0100
1000
0001
0100
0010
1000
0100
0010
0001
0010
0100
,
1000
0001
0100
0010
1000
0100
0010
0001
0010
0100
1000
0001
0100
0010
1000
0100
,
0010
0001
0010
0100
1000
0001
0100
0010
1000
0100
0010
0001
1000
0010
0100
0001
,
1000
0100
0010
0001
1000
0010
0100
0001
1000
0100
0010
0001
0010
0100
0010
0001
,
1000
0100
0010
0001
0010
0100
1000
0001
0100
0010
1000
0100
0010
0001
0010
0100
,
1000
0001
0100
0010
1000
0001
0100
0010
1000
0001
0100
0010
1000
0001
0100
0010
,
1000
0100
1000
0001
1000
0100
1000
0001
0100
0010
0100
0001
0100
0010
0100
0001
,
1000
0100
0010
0001
0010
0100
0010
0001
1000
0100
0010
0100
1000
0001
0010
0100
,
1000
0001
0010
0100
0010
0100
1000
0001
0100
0010
1000
0100
0010
0001
1000
0010
,
1000
0001
1000
0001
1000
0010
1000
0010
0100
0001
0100
0001
0100
0010
1000
0100
,
0010
0100
1000
0001
0100
0010
1000
0100
0010
0001
0010
0100
1000
0001
0100
0010
,
1000
0100
1000
0001
0010
0100
1000
0100
0010
0100
1000
0001
0100
0010
1000
0100
,
0010
0001
0010
0001
1000
0100
1000
0100
0010
0001
0100
0010
1000
0001
0010
0100
,
1000
0001
0100
0010
1000
0100
0010
0100
1000
0001
0100
0010
0100
0001
0100
0010
,
0100
0001
1000
0100
0010
0100
1000
0001
0010
0100
1000
0001
0010
0100
0010
0001
,
1000
0010
0100
0001
1000
0100
1000
0001
0010
0100
1000
0001
0100
0010
1000
0100
,
0010
0001
0010
0100
0010
0001
0100
0010
1000
0100
1000
0001
0010
0100
1000
0001
,
0010
0100
0010
0001
1000
0010
0100
0001
1000
0100
0010
0001
0010
0100
1000
0001
,
0100
0010
1000
0100
0010
0001
0010
0100
1000
0001
0100
0010
1000
0100
0010
0001
,
2000
3010
0100
0010
0100
0000
0000
0000
,
0001
1000
0001
1000
0010
0100
0010
0100
,
0001
0000
0000
0000
0010
0100
1000
0001
0010
0100
1000
0001
0100
0010
1000
0100
,
0010
0001
0010
0100
1000
0001
0010
0100
1000
0001
0100
0010
1000
0100
0010
0001
,
0010
0100
1000
0001
0100
0010
1000
0100
0010
0100
1000
0001
0100
0010
1000
0001
,
1001
1001
0011
0011
1100
1100
1001
1001
,
1000
0100
0010
0001
0010
0100
0010
0001
1000
0010
0100
0001
1000
0100
0010
0001
,
1000
0100
0010
0100
1000
0001
0010
0001
1000
0100
0010
0001
0010
0001
0100
0010
1000
0001
0100
0010
1000
0100
0010
0001
,
0100
0010
1000
0100
0010
0001
0010
0100
1000
0001
0100
0010
1000
0100
0010
0001
,
0100
0010
1000
0001
0010
0100
1000
0001
0100
0010
1000
0100
0010
0001
0100
0010
,
1000
0001
0100
0010
1000
0100
0010
0001
0010
0100
1000
0001
0100
0010
1000
0100
,
0010
0001
0010
0100
1000
0001
0100
0010
1000
0100
0010
0001
0010
0100
1000
0001
,
0100
0000
0000
0000
0010
1000
0100
1000
0001
1000
0100
1000
0001
1000
0100
1000
,
0001
0100
0010
0100
0001
0010
0100
1000
0100
0010
0100
1000
0010
0100
0001
1000
,
0100
0010
0100
1000
0001
0100
0010
1000
0100
0010
0001
0010
0100
0010
0001
0100
,
0010
1000
0001
0100
0010
1000
0100
0010
0001
0010
0100
0010
0001
0100
0010
1000
,
0001
0000
0000
0000
0000
0000
0000
0000
1000
0100
0010
0001
0010
0100
1000
0001
,
0100
0010
1000
0100
0010
0100
1000
0001
0010
0100
1000
0001
0100
0010
0100
0001
,
0010
0100
0010
0100
1000
0001
0100
0010
1000
0001
0010
0100
1000
0001
0100
0010
,
1000
0100
0010
0001
0010
0100
1000
0001
0100
0010
1000
0100
0010
0001
0010
0100
,
1000
0001
0100
0010
1000
0100
0010
0001
0010
0100
1000
0001
0100
0010
1000
0100
,
1000
0001
0010
0100
1000
0001
0100
0010
1000
0100
0010
0001
0010
0100
1000
0001
,
0100
0010
1000
0100
1000
0001
0100
0010
0100
0001
0010
0100
1000
0001
0100
0010
,
1000
0000
0000
0100
0000
0000
0010
0000
0000
0001
0000
0000
0100
0000
0000
0010
0000
0000
1000
0000
0000
0100
0000
0000
1000
0000
0010
0000
0100
0000
0001
0000
1000
0000
0100
0000
0010
0000
0001
0000
0010
0000
0100
0000
1000
0000
0001
0000
,
1000
0000
1010
0000
0101
0101
0101
0000
,
0011
0011
0011
0011
0000
1001
1001
0000
,
0001
0100
0001
0100
0001
1000
0001
0010
,
0001
1000
1001
0000
0010
0100
0110
0000
,
0001
0010
0011
0000
0001
0100
0101
0000
,
0010
1000
0010
1000
0001
0100
0001
0010
,
0001
1000
0001
0100
0001
0010
0001
1000
,
0000
0000
0000
1001
0000
0010
0100
0010
,
1000
0001
0100
0001
0010
0001
1000
0001
,
0100
0001
0010
0001
1000
0000
0000
0000
,
1001
0000
1000
0010
0110
1000
0010
0100
,
0001
1000
0001
0010
0100
1000
0100
0010
,
0001
1000
0001
0100
0001
1000
0100
0010
,
0100
1000
0001
0010
0100
1000
0100
0010
,
0001
1000
0010
0100
0010
1000
0010
0100
,
0001
0010
0100
1000
0001
0100
0001
1000
,
0001
0010
0001
1000
0001
0010
0100
1000
,
0100
0010
0001
1000
0100
0010
0001
1000
,
0100
0010
0001
1000
0001
0100
0010
1000
,
0001
0100
0001
1000
0001
0010
0001
1000
,
0001
0010
0100
1000
0100
0010
0001
1000
,
0001
0100
0010
1000
0010
0100
0010
1000
,
0001
0010
0100
1000
0100
0010
0001
0100
,
0010
1000
0010
0100
0001
0010
0100
1000
,
0100
0010
0001
1000
0001
1000
0001
1000
,
0000
0001
0100
0001
0100
0000
0101
0000
,
0001
1000
0001
0010
0100
1000
0100
0010
,
0001
0100
0010
1000
0010
0100
0001
0010
,
0100
1000
0001
0100
0010
1000
0001
0010
,
0100
1000
0001
0100
0010
1000
0100
0010
,
0001
1000
0010
0100
0010
1000
0100
0010
,
0001
1000
0010
0100
0010
1000
0100
0010
,
0001
0100
0010
1000
0100
0010
0001
1000
,
0001
0100
0010
0100
0010
0000
1010
0000
,
0010
1000
0010
0100
0001
0010
0100
1000
,
0100
0010
0001
1000
0001
1000
1001
0000
,
1001
0010
0100
1000
0001
0010
0100
0100
,
1000
0001
0010
0100
1000
0100
0010
0000
,
0010
0001
0010
0100
1000
0001
0100
0010
,
1000
0100
0010
0100
1000
0001
0100
0010
,
1000
0100
0010
0100
1000
0001
0010
0100
,
0000
1000
1000
1000
1000
0000
1001
0000
,
0100
1000
0100
1000
0100
1000
0100
1000
,
0001
1000
0001
1000
0001
1000
0001
1000
,
0001
0100
0001
0100
0001
0100
0001
0100
,
0101
1010
1001
1001
,
0001
0010
0100
1000
0100
0010
0001
0100
,
0010
1000
0010
0100
0001
0010
0100
1000
,
0001
0100
0001
0010
0001
0100
0001
0010
,
0001
1000
0001
0010
0001
0000
0000
0000
,
1001
0000
0000
0010
0100
0000
0000
0010
,
0100
0000
0000
0010
0000
0000
0010
0000
0100
0000
0000
0000
0000
0000
0100
0000
,
0001
0000
0000
0000
0000
0000
0001
0000
0000
0000
0000
0000
0001
0000
0000
0000
0000
0000
0001
0000
0000
1000
0100
1000
,
0100
0000
0000
1000
0000
0000
0001
0000
0000
0000
0001
1000
0001
0000
0000
0000
,
1000
0100
1000
0100
0010
0001
0010
0001
,
0100
0010
1000
0010
1000
0010
0100
0001
,
0010
0001
1000
0001
0010
0001
1000
0001
,
0010
0001
1000
0001
0100
0001
1000
0000
,
0001
1000
0001
0100
0001
0010
0100
1000
,
0001
0100
0010
1000
0100
0010
0001
1000
,
0001
0100
0010
1000
0100
0010
0001
0100
,
0001
1000
0010
0100
0010
1000
0100
0010
,
0011
0000
0001
0100
0001
1000
0100
0010
,
0001
1000
0010
0100
0010
1000
0100
0010
,
0001
1000
0010
0000
0001
0010
0100
0000
,
1000
0100
0010
0001
1000
0001
1000
0000
,
1001
0000
0010
0100
0010
1000
0100
0010
,
0001
0100
0010
1000
0010
0100
0001
0010
,
0100
1000
0100
0000
0010
0001
0010
0000
,
0100
1000
0100
1000
0100
1000
0100
0000
,
1100
0000
1001
0000
0110
0110
0110
0000
,
1001
1001
0110
0110
1001
0000
1001
0000
,
1000
0100
0010
0001
0010
0100
1000
0001
0100
0010
1000
0100
0010
0001
0010
0100
,
1000
0001
0100
0010
1000
0100
0010
0001
0010
0100
1000
0001
0100
0010
0100
0001
,
0010
0100
1000
0100
0010
0100
1000
0001
0100
0010
1000
0100
0010
0100
1000
0001
,
0010
0100
1000
0001
0100
0010
1000
0100
0010
0001
0010
0001
1000
0010
0100
0001
,
0100
0010
1000
0100
0010
0001
0010
0001
1000
0010
1000
0001
0100
0010
1000
0100
,
0010
0001
0010
0001
1000
0010
0100
0001
1000
0100
0010
0001
0100
0010
1000
0001
,
0010
0100
1000
0001
0100
0010
1000
0100
0010
0001
0010
0100
1000
0001
0100
0010
,
1000
0000
0010
0000
0100
0000
0110
0000
0100
0000
0001
0000
1000
0001
1000
0001
,
1000
0100
0010
0001
0010
0100
1000
0001
0100
0010
1000
0100
0010
0001
1000
0010
,
1000
0001
0100
0010
1000
0100
0010
0001
0010
0100
1000
0001
0100
0010
0100
0001
,
0010
0100
1000
0001
0100
0010
1000
0100
0010
0001
0010
0100
1000
0001
0100
0010
,
0100
0001
0010
0100
1000
0001
0100
0010
1000
0001
0010
0100
1000
0001
0100
0010
,
1000
0001
0010
0100
1000
0100
0010
0100
1000
0001
0100
0010
1000
0100
0010
0001
,
0010
0100
1000
0001
0100
0010
1000
0100
0010
0100
1000
0001
0100
0010
1000
0001
,
0100
0010
0100
0001
0010
0100
1000
0001
0100
0010
1000
0100
1000
0001
0010
0100
,
1000
0100
0010
0001
0100
0010
1000
0100
0010
0001
0010
0100
1000
0010
0100
0001
,
1000
0100
0010
0001
0010
0100
1000
0100
,
1000
0010
0100
0001
1000
0100
0010
0001
0010
0100
1000
0001
0100
0010
1000
0100
,
0010
0001
0010
0100
1000
0001
0100
0010
,
1000
0100
0010
0001
0010
0100
1000
0001
0100
0010
1000
0010
0100
0001
1000
0100
,
0010
0001
0010
0100
1000
0001
0100
0010
,
1000
0100
0010
0001
0010
0100
1000
0001
0100
0010
1000
0010
0100
0001
0010
0100
,
1000
0001
0010
0100
1000
0001
0100
0010
,
1000
0100
0010
0001
0010
0100
1000
0001
0100
0010
1000
0100
0010
0001
0100
0001
,
0010
0100
1000
0001
0100
0010
1000
0100
0010
0001
1000
0010
0100
0001
1000
0100
,
1000
0001
0010
0100
1000
0001
0100
0010
1000
0100
0010
0001
1000
0010
0100
0001
,
1000
0100
0010
0001
0010
0100
1000
0001
0100
0010
0100
0001
0010
0100
1000
0001
,
0100
0010
1000
0100
0010
0001
0010
0001
1000
0010
0100
0001
0100
0010
1000
0100
,
0010
0001
0010
0001
1000
0010
0100
0001
1000
0100
1000
0100
0010
0001
0100
0010
,
1000
0001
0010
0100
1000
0001
0100
0010
1000
0100
0010
0001
0100
0010
0100
0001
,
0010
0100
1000
0001
0100
0010
1000
0100
0010
0001
0010
0100
1000
0001
0100
0010
,
1000
0100
0010
0001
0100
0010
1000
0001
0010
0100
1000
0001
0100
0010
1000
0100
,
0010
0000
0001
0010
0011
0000
0001
1000
,
1001
0000
0010
0100
0110
0000
0001
0010
,
1100
0000
0001
0010
0001
0010
0001
1000
,
0001
0100
0001
1000
0001
0010
0001
1000
,
0010
0100
0010
1000
0010
0100
0001
0010
,
0100
1000
0100
0010
0001
1000
0001
0100
,
0001
1000
0010
0100
0010
1000
0010
1000
,
0001
1000
0001
1000
0000
0010
0100
0010
,
0000
1000
0001
1000
0001
0000
1001
0000
,
1000
0100
0010
0001
0010
0100
1000
0001
0100
0010
0100
0001
0010
0100
1000
0001
,
0100
0010
1000
0100
0010
0001
0010
0100
1000
0001
0100
0010
1000
0100
0010
0100
,
1000
0001
0100
0010
0100
0010
1000
0100
0010
0001
0010
0100
1000
0100
0010
0100
,
1000
0001
0100
0010
1000
0100
0010
0001
0010
0100
1000
0001
0100
0010
1000
0100
,
0010
0100
1000
0001
0100
0010
1000
0100
0010
0001
0010
0100
1000
0001
0100
0010
,
1000
0010
0100
0001
0010
0100
1000
0100
0010
0100
0010
0001
0010
0100
1000
0010
,
0100
0001
1000
0001
1000
0010
0100
0001
1000
0010
0100
0001
1000
0100
0010
0001
,
0010
0100
1000
0001
0100
0010
1000
0001
0100
0010
1000
0100
0010
0001
0010
0100
,
1000
0010
1000
0010
0100
0001
0100
0010
1000
0100
0010
0001
0010
0100
1000
0001
,
0100
0010
1000
0100
0010
0001
0010
0100
1000
0010
0100
0001
0100
0010
1000
0100
,
0010
0001
0010
0100
1000
0010
0100
0001
0010
0100
1000
0001
0100
0010
1000
0100
,
0010
0001
0100
0010
1000
0001
0100
0010
1000
0001
0010
0100
1000
0001
0100
0010
,
0100
0001
0010
0100
1000
0001
0100
0010
0100
0001
0010
0100
1000
0100
0010
0001
,
0100
0010
0100
0001
0010
0100
1000
0001
0100
0010
1000
0100
0010
0001
0010
0100
,
1000
0001
0100
0010
1000
0100
0010
0001
0010
0100
1000
0001
0100
0010
1000
0100
,
0010
0100
1000
0001
0010
0100
1000
0010
0100
0001
1000
0100
0010
0001
0010
0100
,
1000
0100
0010
0001
0100
0000
0000
0000
0010
1000
0010
0100
0001
0000
0000
0000
,
1000
0100
0010
0001
0100
0010
1000
0100
0010
0000
0000
0000
0000
0000
0000
0000
,
0000
0000
0000
0000
,
0000
0000
0000
0000
,
0000
0000
0000
0000
,
1000
0100
0010
0001
0010
0100
1000
0001
0100
0010
1000
0100
0010
0000
0001
0000
,
1000
0010
0100
0001
1000
0100
0010
0100
1000
0001
0100
0010
0100
0001
0010
0100
,
1000
0001
0010
0100
0010
0001
0100
0010
1000
0100
0010
0001
0100
0010
1000
0001
,
0010
0100
1000
0001
0100
0010
1000
0100
0010
0001
0010
0100
1000
0001
0010
0100
,
1000
0001
0100
0010
1000
0100
0010
0100
1000
0001
0100
0010
1000
0100
0010
0100
,
1000
0001
0100
0010
1000
0100
0010
0100
,
1000
0000
0001
0000
0100
0010
1000
0100
0010
0100
1000
0001
0100
0010
1000
0001
,
0100
0010
1000
0100
0010
0100
1000
0001
0010
0100
1000
0001
0100
0010
1000
0100
0010
0100
1000
0001
0100
0010
1000
0100
,
0010
0001
0010
0100
1000
0001
0100
0010
1000
0100
0010
0001
0010
0100
1000
0001
,
0100
0010
1000
0100
0010
0100
1000
0001
0100
0010
1000
0010
0100
0001
0010
0100
,
0010
0001
1000
0100
0010
0100
1000
0001
0100
0010
1000
0010
0100
0001
1000
0100
,
0010
0100
1000
0001
0100
0010
1000
0010
0100
0001
1000
0100
0010
0001
0010
0100
,
1000
0100
0000
0000
0010
0001
0000
0000
1000
0010
0000
0000
0100
0001
0000
0000
,
1000
0100
0010
0001
0010
0100
1000
0001
0100
0010
1000
0100
0010
0001
0010
0100
,
1000
0001
0100
0010
1000
0100
0010
0100
1000
0001
0100
0010
1000
0100
0010
0001
,
0010
0100
1000
0010
0100
0001
1000
0100
0010
0001
0010
0100
1000
0001
0100
0010
,
1000
0000
0010
0000
0000
0010
0000
0010
,
0000
0010
0000
0010
1000
0001
0100
0001
,
0010
0100
1000
0001
0100
0010
1000
0100
0010
0100
1000
0001
0100
0010
1000
0100
,
0010
0001
0010
0100
1000
0001
0100
0010
1000
0100
0010
0100
1000
0001
0100
0010
,
1000
0100
0010
0100
1000
0001
0100
0010
1000
0100
0010
0001
0010
0100
1000
0001
,
0100
0010
1000
0100
0010
0001
0010
0100
1000
0001
0100
0010
1000
0100
0010
0001
,
2000
0000
0000
3020
0000
0000
0130
0000
0001
0000
0001
0000
0100
0000
0100
0000
,
0010
0000
0000
0010
0000
0000
1000
0000
0001
0000
0000
0010
0100
0000
0000
1000
,
0100
0000
0000
0010
0001
0000
0100
0000
0010
0000
1000
0000
0001
0000
0100
0000
,
0010
1000
0100
0010
0001
0010
0100
1000
,
0001
0100
0020
0000
,
0000
0000
0000
1030
0001
0100
0001
1000
,
0001
0010
0001
1000
0001
0010
0001
1000
,
0001
0100
0010
1000
0001
0010
0100
1000
0001
0100
0010
1000
0100
0010
0001
1000
,
0010
0100
0001
0010
0100
1000
0001
0100
0010
1000
0100
0010
0001
0010
0100
1000
,
0001
0100
0010
1000
0100
0010
0001
0010
0100
1000
0001
0100
0010
1000
0100
0010
,
0100
1000
0001
0100
0010
1000
0100
0010
0001
0000
0000
0000
0000
0000
0000
0000
,
1000
0010
0100
0001
0010
0001
0100
0001
,
0010
0001
0100
0001
1000
1000
1000
1000
,
0010
0100
0010
1000
0010
0100
0001
0010
,
0100
1000
0100
0010
0001
0001
0001
0001
,
0100
0010
1000
0010
0100
0010
1000
0010
,
0100
0001
0010
0100
1000
0100
0000
0000
,
0010
0001
0100
0001
1000
0001
0100
0001
,
0010
0001
0000
1100
0000
0110
0000
0000
,
0001
1000
0001
0100
0001
1000
0001
0010
,
0001
1000
0001
0010
0001
1000
0001
0000
,
1000
0001
0000
0010
1000
0001
0100
0001
,
0010
0100
1000
0100
0010
0001
0100
0000
,
0010
1000
0100
0010
0001
0100
0010
0000
,
1000
0001
0100
0001
0010
0001
1000
0000
,
0010
0100
0010
1000
0001
0000
0100
0010
,
1000
0010
0100
0001
0010
0000
0001
0100
,
0001
1000
0001
0010
0001
0000
1000
0010
,
0100
0010
1000
0010
0100
0010
1000
0000
,
0001
0010
0001
1000
0001
0100
0001
0000
,
1000
0010
0100
0010
1000
0010
0100
0000
,
0001
0010
0100
1000
0100
0010
0100
0000
,
1000
0001
0100
0001
0010
0001
1000
0000
,
0010
0100
0010
1000
0010
0100
0010
0000
,
1000
0100
1000
0100
0010
0100
0010
0000
,
0220
0000
0000
0330
,
0000
0000
0000
0000
,
0000
0000
0000
0000
,
1000
0010
0100
0001
1000
0100
0010
0001
0010
0100
1000
0001
0100
0010
1000
0100
,
0010
0100
1000
0001
0100
0010
1000
0100
0010
0100
1000
0001
0100
0010
1000
0100
,
0010
0100
1000
0001
0100
0010
1000
0100
0010
0100
1000
0001
0100
0010
1000
0100
,
0010
0100
1000
0001
0100
0010
1000
0100
1000
0001
0010
0100
1000
0001
0100
0010
,
1000
0100
0010
0001
0010
0100
1000
0001
1000
0010
0100
0001
1000
0100
0010
0001
,
0010
0100
1000
0001
0100
0010
1000
0100
0010
0001
0010
0100
1000
0001
0100
0010
,
0100
0001
0010
0100
1000
0001
0100
0010
1000
0100
0010
0001
0100
0010
1000
0001
,
0010
0100
1000
0001
0100
0010
1000
0100
0010
0001
0010
0100
1000
0001
0100
0010
,
1000
0010
0100
0001
1000
0010
0100
0001
1000
0100
0010
0001
0010
0100
1000
0001
,
0100
0010
1000
0100
0010
0001
0010
0100
1000
0001
0100
0010
1000
0100
0010
0100
,
1000
0001
0100
0010
1000
0001
0010
0100
1000
0001
0100
0010
1000
0100
0010
0100
,
1000
0001
0100
0010
1000
0100
0010
0100
1000
0001
0100
0010
1000
0010
0100
0010
,
1000
0100
0010
0001
0010
0100
1000
0001
0100
0010
1000
0100
0010
0001
0100
0010
,
1000
0100
0010
0001
0010
0100
1000
0001
0100
0010
1000
0100
0010
0100
1000
0001
,
0100
0010
1000
0100
1000
0001
0010
0100
1000
0100
0010
0001
0100
0010
1000
0001
,
1000
0000
0010
0000
0100
0000
0001
0100
0010
0000
0000
0010
0000
0000
1000
0000
,
0001
0100
0010
1000
0001
0010
0100
1000
0001
0100
0010
1000
0100
0010
0001
0100
,
0010
1000
0001
0010
0100
1000
0001
0100
0010
1000
0001
0010
0100
1000
0001
0100
,
0010
1000
0100
0010
0100
1000
0001
0100
0010
1000
0100
0010
0100
1000
0001
0100
,
0010
1000
0001
0010
0100
1000
0001
0100
0010
1000
0100
0010
0001
0010
0001
0100
,
0010
1000
0001
0010
0100
0010
0001
0100
0010
1000
0100
0010
0001
0010
0100
1000
,
0001
0100
0010
1000
0001
0010
0100
1000
0001
0100
0010
1000
0100
0010
0001
0010
,
0100
1000
0001
0100
0010
1000
0001
0010
0100
1000
0100
0010
0001
0100
0010
1000
,
0001
0010
0100
1000
0001
0100
0010
1000
0100
0010
0100
1000
0010
0100
0010
1000
,
0100
0000
0010
0001
0010
0000
0001
1000
0001
0000
1000
0010
1000
0000
0001
0100
,
0001
0000
1000
0010
1000
0000
0001
0100
0001
0000
1000
0010
0100
0001
1000
0010
,
0100
0000
0001
1000
0001
0000
1000
0010
1000
0000
0001
0100
0010
0000
1000
0100
,
0010
0000
0001
0100
0010
0000
1000
0001
0100
0000
0010
1000
0100
1000
0001
1000
,
0100
0000
0010
0001
0010
0000
0100
1000
0100
0000
0010
0001
0010
0000
0100
1000
,
0001
0000
0100
0010
1000
0000
0100
0010
0001
0000
0100
0010
1000
0001
0100
0010
,
1000
0000
0001
0100
0001
0000
1000
0010
1000
0000
0001
0100
0010
0000
1000
0100
,
0010
0000
0001
0010
0100
0000
1000
0001
0100
0000
0010
1000
0001
0100
0010
1000
,
0010
0000
0100
0001
0100
0000
0010
1000
0010
0000
1000
0100
1000
0000
0001
0010
,
0001
0000
1000
0001
1000
0000
0010
1000
0010
0000
0100
0001
0100
0010
1000
0001
,
0100
0000
0010
1000
0010
0000
0100
0001
0010
0000
0100
1000
0001
0000
0100
0010
,
1000
0000
0001
0100
0010
0000
1000
0100
0010
0000
0001
0100
0010
1000
0001
0100
,
0010
0000
1000
0100
1000
0000
0001
0010
0001
0000
1000
0001
1000
0000
0010
1000
,
0010
0000
1000
0001
1000
0000
0001
0100
0001
0000
0100
0010
0100
0010
0100
0001
,
0100
0000
0010
1000
0010
0000
0100
0001
0100
0000
0010
1000
0010
0000
0100
0001
,
0100
0000
0010
1000
0100
1000
0001
0100
0010
1000
0100
0010
0001
0010
0100
1000
,
0002
0000
0000
0000
,
0000
0000
0003
0000
,
0000
0000
0000
0000
0000
0000
0000
0000
0001
0000
0000
1000
0000
0000
1000
0000
0000
0000
0000
0000
0000
0000
0000
0000
0100
0000
0000
0000
0000
0010
0000
0000
,
1000
0000
0000
1000
0000
0000
1000
0000
0001
0000
0000
0001
0000
0000
0001
0000
0100
0000
0000
0000
0000
0000
0000
0000
0010
0000
0000
0000
0000
0000
1000
0000
,
0001
0000
0000
0000
0000
0000
0000
0000
1000
0100
0010
0001
0010
0100
1000
0001
,
0100
0010
1000
0100
0010
0001
0010
0100
1000
0001
0100
0010
1000
0100
0010
0100
,
1000
0001
0100
0010
1000
0001
0010
0100
1000
0001
0100
0010
1000
0100
0010
0001
,
1000
0010
0100
0001
1000
0100
0010
0001
1000
0010
0100
0001
1000
0100
0010
0001
,
1000
0010
0100
0001
0010
0100
1000
0001
0100
0010
1000
0100
0010
0001
0010
0100
,
1000
0001
0100
0010
1000
0100
0010
0001
0010
0100
1000
0001
0100
0010
1000
0100
,
0010
0001
0010
0100
1000
0100
0010
0001
0010
0100
1000
0001
0100
0010
1000
0100
,
0010
0001
0100
0010
1000
0001
0010
0100
1000
0001
0100
0010
1000
0100
0010
0001
,
0010
0100
1000
0001
0100
0010
1000
0100
0010
0001
0010
0001
1000
0100
0010
0100
,
1000
0001
0100
0010
1000
0100
0010
0001
0010
0100
1000
0001
0100
0010
1000
0100
,
0010
0100
1000
0001
0100
0010
1000
0100
0010
0001
0010
0100
1000
0001
0100
0010
,
1000
0100
0010
0001
0010
0100
1000
0001
0010
0001
1000
0100
0010
0001
0010
0100
,
0010
0100
1000
0001
1000
0001
1000
0001
1000
0000
0000
1010
0000
0000
1010
0000
,
0000
0000
0000
0000
0000
0000
0001
0000
0101
0000
0000
0101
0000
0000
0100
0000
,
0110
0000
0000
1010
0000
0000
1001
0000
0110
0000
0000
0110
0000
0000
0110
0000
,
2002
0000
3003
0000
,
0000
0000
0000
0001
0000
0100
0001
0000
,
0100
0001
0000
1000
0000
0010
1000
0000
,
0010
1000
0000
0001
0000
0100
0001
0000
,
0100
0001
0000
1000
0000
0001
0000
0100
,
0000
0000
0000
0010
0000
1000
0000
0010
,
0000
0100
0000
0001
0010
0001
0000
0100
,
0000
0010
0000
1000
0100
1000
0000
0001
,
0000
0100
0000
0010
1000
0010
0000
0100
,
0000
0001
0000
1001
0000
0010
0000
0100
,
0010
0000
1000
0001
0000
0010
0000
0100
,
1000
0100
0000
0010
0000
0001
0000
0100
,
0010
1000
0000
0010
0000
0100
0000
0001
,
0010
0001
0000
0100
0010
1000
0010
0100
,
0001
0010
0000
0100
1000
0100
0010
0001
,
0100
0010
0000
1000
0010
0100
0010
1000
,
0001
0010
0100
1000
0100
0010
0001
0100
,
0010
1000
0010
0100
0000
0001
0000
0010
,
0100
1000
0100
0010
0001
0100
0010
1000
,
0010
0100
0001
0010
0100
1000
0100
0010
,
0001
0100
0001
1000
0001
0100
0010
1000
,
0010
0100
0001
1001
0000
0000
0000
1000
,
0010
0100
0001
0100
0001
1000
0001
0010
,
0100
1000
0000
0100
0010
0001
0100
0001
,
1000
0010
0100
0010
1000
0100
0010
0001
,
1000
0001
1000
0001
0100
0000
0000
0100
,
0000
0000
0000
1000
0000
0000
1000
0000
,
0000
0000
0000
0001
0000
0000
0001
0000
,
0000
0000
0000
0100
0000
0000
0100
0000
,
0000
0000
0000
0010
1000
0010
0100
0001
,
0010
0100
1000
0100
0010
0001
0100
0001
,
1000
0010
0100
0010
1000
0100
0010
0001
,
0100
0010
1000
0010
0000
0010
0000
0010
,
0000
0010
0000
1000
0010
1000
0010
0100
,
0001
0010
0000
0100
1000
0100
0010
0001
,
0100
0001
0000
1000
0010
0100
0010
1000
,
0100
0010
0000
0001
0100
0001
1000
0010
,
0100
0010
0000
1000
0100
0010
0001
0100
,
0001
1000
0000
0010
0100
0010
1000
0100
,
0010
0001
0000
0100
0100
0010
1000
0010
,
0100
0001
0010
0100
0000
0000
0000
0000
,
0000
0000
0000
0010
0100
0010
1000
0010
,
0100
0001
0000
0010
0100
1000
0100
0010
,
0001
0100
0010
1000
0010
0100
0001
0010
,
0100
1000
0001
0100
0001
0010
0001
0100
,
0010
1000
0010
0100
0000
0101
0010
0100
,
1000
0100
0010
0001
1000
0001
0100
0010
,
1000
0010
0100
0001
0010
0100
1000
0100
,
0010
0001
0100
0001
1000
0001
0010
0100
,
1000
0100
0010
0001
0100
0001
1000
0010
,
0100
0010
1000
0100
0010
0001
0100
0010
,
1000
0010
0100
0001
0010
0100
1000
0001
,
0100
0010
1000
0010
0100
0001
0010
0100
,
1000
0001
0100
0010
0010
1000
0001
0010
,
0100
1000
0001
0010
0100
1000
0001
0100
,
0010
1000
0001
0100
0010
1000
0100
0010
,
0001
0100
0010
1000
0010
0100
0010
1000
,
0001
0000
0010
0000
0100
0000
1000
0100
0000
0010
0001
0000
0001
0010
0000
0100
,
1000
0100
1100
0000
0000
0000
0000
0000
;
