#TITLE:Jibboom;
#SUBTITLE:;
#ARTIST:Steve Vai;
#TITLETRANSLIT:;
#SUBTITLETRANSLIT:;
#ARTISTTRANSLIT:;
#CREDIT:;
#BANNER:Jibboom.png;
#BACKGROUND:Jibboom-bg.png;
#LYRICSPATH:;
#CDTITLE:!ian-cdtitle.png;
#MUSIC:Jibboom.mp3;
#OFFSET:-0.120;
#SAMPLESTART:12.835;
#SAMPLELENGTH:12.000;
#SELECTABLE:YES;
#BPMS:0.000=158.000,388.000=161.000,440.000=164.000;
#STOPS:;
#BGCHANGES:;
// cache tags:
#FIRSTBEAT:4.000;
#LASTBEAT:593.000;
#SONGFILENAME:Songs/Fabulously Fresh Flock of Fantastic Files F5/(MacGyver)Jiboom/Jibboom.sm;
#HASMUSIC:1;
#HASBANNER:1;
#MUSICLENGTH:224.985;
// end cache tags

//---------------dance-single - ----------------
#NOTES:
     dance-single:
     :
     Hard:
     13:
     1.000,1.000,0.996,0.889,1.000,1375.000,224.000,200.000,0.000,4.000:
0000
0000
0000
0000
,
0001
0010
0100
1000
0001
0010
0100
1000
0010
0100
1000
0010
0100
0010
0100
1000
0000
0000
0000
0000
0000
0011
0000
0000
,
0000
0000
1000
0010
0101
0000
0011
0000
,
1000
0100
0010
0001
0010
0100
0010
0100
1000
0010
0100
0001
0010
0100
0010
0100
0000
0000
0000
0000
0000
0011
0000
0000
,
0000
0000
0100
1000
0110
0000
0000
0000
,
1000
0100
0010
0001
0010
0100
1000
0100
0010
0100
0001
0010
0100
1000
0100
0010
0000
0000
0000
0000
0000
1001
0000
0000
,
0000
0000
1000
0100
0011
0000
1010
0000
,
1000
0010
0100
1000
0100
0010
0001
0010
0100
1000
0100
0010
0100
0010
0001
0010
0000
0000
0000
0000
0000
0011
0000
0000
,
0000
0000
0100
1000
0110
0000
0101
0000
,
1000
0001
0010
0100
0010
0001
1000
0100
0010
0001
0010
1000
0100
0001
0010
0100
0000
0000
0000
0000
0000
0011
0000
0000
,
0000
0010
1000
0101
1010
0000
0000
0000
,
1000
0001
1000
0001
0010
0100
0001
1000
0010
0100
1000
0100
0010
0100
0001
0010
0000
0000
0000
0000
0000
1001
0000
0000
,
0000
0100
1000
0011
0101
0000
0011
0101
,
0000
0000
0000
1000
0001
0010
0100
0001
0010
1000
0100
0010
0001
1000
0100
0010
0000
0000
0000
0000
0000
1010
0000
0000
,
0000
0000
1000
0100
0011
0000
2000
0000
,
3000
0000
0000
0001
0010
0100
0010
0100
1000
0100
0010
0001
0010
0100
0010
0100
0000
0000
0000
0000
0000
0101
0000
0000
,
0000
0000
0010
0100
0012
0000
0000
0003
,
0100
0000
0000
0001
0010
0100
1000
0100
0010
0001
0010
0100
0010
0001
0010
0100
0000
0000
0000
0000
0000
1010
0000
0000
,
0000
0000
0100
0011
0110
0000
0000
0000
,
1000
0000
0000
0010
0001
0010
0100
0010
0100
1000
0100
0010
0100
1000
0100
0010
0000
0000
0000
0000
0000
0101
0000
0000
,
0000
0100
1000
0110
1010
0000
0110
1010
,
0000
0000
0000
1000
0100
0010
0001
0100
0010
0001
0010
0100
1000
0100
0010
0001
0000
0000
0000
0000
0000
0110
0000
0000
,
0000
0000
0100
1000
0101
0000
0020
0000
,
0030
0000
0000
0001
0010
0100
1000
0100
0001
0010
0100
1000
0100
0010
0001
0010
0000
0000
0000
0000
0000
0001
0010
0100
,
1000
0100
0010
0001
0010
0100
0010
0100
0010
1000
0100
0010
1001
0000
0000
0000
0000
0000
0000
0000
0000
0000
0000
0000
,
2000
0000
0000
3020
0230
0302
0003
0000
,
0000
0000
0000
0010
0100
1000
0100
0010
0001
0010
0100
1000
0100
0000
0000
0000
0000
0000
0101
0000
0000
0000
0000
0000
,
2000
3200
0320
0230
0300
0012
0000
0003
,
1000
0000
0000
0001
0010
0100
1000
0100
0010
0100
1000
0100
0010
0000
0000
0000
0000
0000
1010
0000
0000
0000
0000
0000
,
2000
0000
0000
3020
0230
0302
0000
0003
,
0010
0000
0000
0010
0100
1000
0100
0010
0100
1000
0100
0001
0010
0000
0000
0000
0000
0000
1010
0000
0000
0000
0000
0000
,
0200
0000
0000
0320
0000
0000
0032
0000
0000
0203
0000
0000
0000
0300
0000
1020
0000
0000
0000
0000
0000
0030
0000
0000
,
0000
0000
0000
1000
0001
0010
0100
1000
0001
0010
0100
0010
0001
0000
0000
0000
0000
0000
0110
0000
0000
0000
0000
0000
,
0200
0000
0000
0302
0023
0032
0000
0003
,
1000
0000
0000
0001
1000
0001
0010
0100
1000
0100
0010
0100
1000
0000
0000
0000
0000
0000
1100
0000
0000
0000
0000
0000
,
2000
3200
0320
0230
0320
0032
0000
0003
,
1000
0000
0000
0000
0000
0000
0010
0000
1000
0000
0001
0000
0010
0000
1000
0000
0100
0000
0010
0000
0001
0000
0010
0000
0100
0000
0000
0000
0000
0000
0000
0000
0000
0000
0000
0000
2002
0000
0000
3003
0000
0000
0000
0000
0000
0000
0000
0000
,
0000
0000
0000
2200
3300
0000
0220
0330
0000
2020
3030
0000
0000
0000
0000
0201
0000
0000
0300
0000
0000
0000
0000
0000
,
0000
0000
0000
1000
0001
0010
0001
0100
0010
0001
0010
0100
1000
0000
0000
0000
0000
0000
0011
0000
0000
0000
0000
0000
,
0200
0302
0000
0000
0000
0023
0000
0000
,
0030
0000
0000
1000
0001
0010
0001
0100
0010
1000
0100
0010
0100
0000
0000
0000
0000
0000
1001
0000
0000
0000
0000
0000
,
0100
0000
0002
0000
0000
0013
0002
0003
0100
0000
0002
0000
0000
0000
0000
0000
,
0103
0000
0000
0010
0100
1000
0010
0001
0010
0100
1000
0100
0010
0000
0000
0000
0000
0000
1010
0000
0000
0000
0000
0000
,
2200
3300
0022
0033
2200
3300
0022
0033
0220
0330
2200
0000
3300
0000
0000
0000
,
1000
0100
0001
0010
0100
1000
0001
0010
0100
1000
0100
0010
1001
0000
0000
0000
0000
0000
0010
0000
0000
0000
0000
0000
,
0110
0002
0000
0023
0230
0302
0000
0000
,
0103
0000
0000
0010
0100
1000
0100
0010
0001
0010
0001
0100
0010
0000
0000
0000
0000
0000
1010
0000
0000
0000
0000
0000
,
0110
0002
0000
0000
0000
0023
0000
0000
,
0130
0000
0000
0010
0001
0010
0100
1000
0100
0010
0100
1000
0100
0000
0000
0000
0000
0000
0200
0000
0000
0000
0000
0000
,
0000
0000
0000
0000
0000
0000
0000
0000
0000
0000
0000
0000
0000
0000
0300
1001
0000
0000
0000
0000
0000
0011
0000
0000
,
0000
0100
0010
0000
0011
0000
0000
0000
0110
0000
0000
0000
1100
0000
0110
0000
,
1010
0000
0101
0000
1010
0000
0100
0000
1000
0000
0022
0033
0000
0000
0022
0033
,
0000
0000
2200
3300
0220
0330
2020
3030
2002
0000
3003
0000
0022
0033
0220
0330
,
2000
0000
3000
0100
1000
0100
0020
0000
0030
0100
1000
0100
0020
0000
0000
0031
,
0100
0001
0020
0000
0000
0130
0010
0100
0020
0000
0000
0000
0230
0000
0320
0000
,
0230
0302
0000
0023
0230
0302
0000
0203
,
0320
0000
0030
0000
0200
0000
0310
0000
1001
0000
0000
0000
0011
0000
0100
0011
,
0000
0100
1010
0000
1000
0110
0000
1001
0000
0000
1001
0000
0000
0000
0020
0000
,
0000
0000
0000
0000
0130
1000
0100
0000
2000
0000
0000
0000
0000
0000
0000
0000
,
0000
0000
0000
0000
3020
0000
0000
0000
0000
0000
0000
0030
0010
0100
0010
0000
,
2000
3200
0320
0000
0230
2300
3200
2300
,
3020
0000
0130
1000
0100
0010
1001
0000
0100
0000
1001
0000
0201
0000
0000
0000
,
0000
0000
0000
0000
0000
0000
0000
0000
0000
0310
0000
0001
0000
0010
0000
0100
0000
1000
0000
0100
0000
0020
0000
0000
,
0230
0000
0000
0000
0000
0000
0000
0000
0000
0000
0000
0000
0000
0000
0000
0320
0000
0000
0031
0000
0010
0000
0100
0000
,
0002
0000
0000
0000
0000
0000
0000
0000
0100
0000
0000
0000
0013
0000
0000
0000
0100
0000
0000
0000
0020
0000
0000
0000
0000
0000
0000
0000
1000
0000
0000
0000
0130
0000
0000
0000
1000
0000
0000
0000
0000
0000
0100
0000
0000
0100
0000
0000
,
0011
0000
0100
0100
1010
0000
0110
0000
0011
0000
1020
0000
0000
0000
0000
0000
,
0000
0000
0000
0130
0000
1000
0000
0100
0000
0010
0000
0001
0000
0010
0000
0100
0000
0001
0000
0010
0000
1000
0000
0100
,
0000
0000
0010
0000
0000
0000
0002
0000
0000
0000
0000
0000
0000
0000
0000
0000
0000
0000
0000
0000
0000
0000
0000
0000
0023
0000
0000
0000
0000
0000
0000
0000
0000
0000
0000
0000
0000
0000
0000
0000
0000
0000
0130
0000
0000
0020
0000
0000
,
0000
0000
0000
0130
1000
0100
0002
0000
0000
0000
0013
0100
1000
0200
0310
0100
,
1000
0000
0000
0100
0000
0000
1000
0000
0000
0000
0100
0000
0000
0000
0010
0000
0000
0000
0100
0000
0000
0000
0000
0000
0010
0000
0000
0000
0000
0000
0200
0000
0000
0000
0000
0000
0000
0000
0000
0000
0000
0000
0000
0000
0000
0000
0000
0000
,
0000
0000
0000
0000
,
0000
0000
0000
0000
0300
0010
0001
0000
0101
0000
1000
0100
0000
0010
0100
0010
,
0000
1000
0100
1000
0000
0100
0010
0000
2002
0000
0000
0000
0000
0000
0000
0000
,
0000
0000
0000
0000
0000
0000
0000
0000
0000
0000
0000
0000
3003
0000
0000
1000
0100
0010
0001
1000
0100
0010
0001
1000
,
0100
0000
0010
0000
0001
0000
0010
0000
0100
0000
1000
0000
0001
0000
0010
0000
0100
0000
1000
0000
0000
0100
0000
0000
0020
0000
0000
0031
0000
0000
0100
0000
0000
0001
0000
0000
0020
0000
0000
0130
0000
0000
0001
0000
0000
0010
0000
0000
,
0200
1300
0010
0001
0020
0130
1000
0100
1000
0100
0010
0001
0020
0130
1000
0100
,
0020
0031
0010
0100
1000
0100
0010
0100
2000
3001
0020
0031
1000
0001
0020
0130
,
0001
1000
0002
0013
0200
1300
0002
0013
0001
0100
1000
0100
0010
0001
0010
0100
,
1000
0100
2000
3001
1000
0010
0200
0301
1000
0001
0200
0310
0100
1000
0100
0010
,
0100
1000
0200
0310
0001
0010
0001
0100
1000
0100
0020
0031
0010
0002
1003
0100
,
1000
0100
0020
0031
0200
0301
0100
0001
0020
0130
2000
3100
0020
0130
2000
3010
,
0001
0100
1001
0000
0000
0010
0201
0000
0000
0000
1300
0100
0010
0001
0010
0100
,
0010
0100
1000
0100
0010
0100
0010
0001
0010
0100
1000
0001
0010
0100
1000
0001
,
0100
0010
0200
0000
0310
0100
0020
0000
0000
0030
1001
0000
0000
0100
0010
0000
,
0000
0010
1100
0000
0011
0000
0100
1000
0110
0000
0110
0000
1000
0100
1001
0000
,
0100
0010
0100
0000
0011
0000
0001
0010
0101
0010
1200
0000
0000
0000
0000
0000
,
0000
0000
0000
0000
0000
0000
0000
0300
1001
0000
0000
0000
0000
0000
0100
0000
,
0100
0010
0000
0000
0100
0010
0100
0000
0020
0000
1030
0001
0010
0100
1000
0020
,
0000
0001
0130
1000
0100
0010
1000
0100
0010
0000
1000
0100
1010
0000
0100
0010
,
0101
0000
0010
0000
0100
0000
0010
0000
1001
0000
0000
0000
0110
0000
0000
0000
0011
0000
0000
0000
1001
0000
0000
0000
0000
0000
0000
0000
1000
0100
0010
0001
,
0010
0000
0000
0000
0000
0000
0000
0000
0100
0000
0010
0000
0001
0000
0000
0000
0000
0000
0000
0000
0000
0010
0100
1000
0000
0000
0000
0000
0000
0000
0000
0000
,
0000
0100
0010
0002
0003
0000
0020
0030
0000
0000
0000
0000
0000
0000
0000
0000
1000
0100
0010
0000
0000
0000
0000
0001
0100
0000
0000
0000
0000
0000
1000
0100
,
0000
0000
0000
0010
1000
0000
0000
0000
0000
0000
0010
0100
0000
0000
0000
1000
0100
0000
0000
0000
0000
0100
0010
0000
0000
0000
0000
0010
0100
0000
0000
0000
,
0100
0010
0000
0000
1000
0200
0000
0000
0000
0000
0000
0000
0000
0000
0000
0000
0300
0000
0000
0000
2002
0000
0000
0000
0000
0000
0000
0000
0000
0000
0000
0000
,
3203
0000
1300
0000
0020
0000
0130
0000
0002
0000
0103
0000
0020
0000
0230
0300
,
0200
0000
0320
0000
0230
0000
2300
0000
3100
0000
1000
0001
1000
0001
1000
0100
,
0010
0100
0010
0100
0010
0001
0010
0001
1010
0000
0000
0000
0000
0000
0000
0000
,
0000
0000
0000
0000
0000
1100
0000
0010
,
0000
0100
1010
0000
1010
0000
0000
0000
0011
0000
0000
0000
0011
0000
0100
0011
,
0000
0000
0011
0000
0100
0010
0101
0000
0000
0000
1001
0000
0000
0000
0110
0000
,
0000
0000
1100
0000
0011
0000
0000
0000
1001
0000
0000
0000
0101
0000
0101
0010
,
1000
0100
0011
0000
0000
0100
1010
0000
0000
0010
0101
0000
0000
0000
1010
0000
,
0000
0000
1100
0000
0011
0000
0000
0000
0000
0101
0000
0000
0101
0000
0101
0010
,
0100
0000
0000
1010
0100
0010
0000
0010
0100
0010
0101
0000
0000
0000
0000
0000
,
1001
0000
0000
0000
1100
0000
0101
0000
0010
0100
1001
0000
0010
0100
1010
0100
,
0010
0100
0010
0100
0010
0100
0010
0100
0010
0100
0010
0100
1001
0000
0000
0000
,
0011
0000
0100
0010
1100
0000
0000
0000
0100
0010
0101
0000
0000
0000
0000
0000
,
0010
0100
0011
0000
2002
3003
0000
0000
2002
3003
0000
0000
1100
0000
0000
0000
,
0011
0000
0100
0010
0101
0000
0101
0000
0000
0000
2002
0000
3003
0000
1000
0100
,
0010
1001
0010
0100
1000
0100
0010
0101
0000
0011
0000
0011
0000
1001
0000
0000
,
0000
1100
0000
0000
0000
0110
0000
0011
0000
0000
0000
1001
0000
0000
0000
0000
,
0011
0000
0011
0100
0000
0000
0101
0000
0010
0100
0011
0000
0000
0000
1001
0000
,
0000
0000
0101
0000
0000
0000
1010
0000
0010
0101
0000
0100
0011
0000
0000
0000
,
0000
0000
0000
0010
0101
0000
0000
0010
1100
0010
0101
0010
0100
0010
0100
1001
,
0000
0000
0000
0000
0010
0100
1000
0010
0100
1000
0010
0100
1000
0100
0011
0000
,
1000
0001
0100
0010
0001
1000
0100
0010
0100
1000
0100
0010
0100
0010
0100
0010
,
0101
0000
0000
0000
1000
0001
1000
0100
0010
0001
0010
0100
0001
0010
0100
0010
,
1001
0000
0000
0000
0010
0100
0000
0000
0010
0100
0010
0001
0010
0100
0010
0001
,
0010
0100
1001
0000
0000
0000
0001
0010
0100
0001
0100
1000
0001
0010
0100
1000
,
0110
0000
0000
0000
1000
0100
0001
0010
0001
0100
1000
0100
0010
0001
0010
0100
,
0010
0000
0000
0001
0000
0000
0100
0000
1000
0000
0100
0000
0010
0000
0001
0000
0010
0000
0100
0000
1000
0000
0100
0000
0010
0000
0001
0000
0010
0000
0001
0000
0100
0000
0010
0000
0100
0000
1000
0000
0001
0000
0010
0000
0001
0000
0010
0000
,
0100
0000
0000
1001
0000
0000
0000
0020
0030
0000
0000
0000
0000
0000
0000
0000
0000
0000
0001
0010
0100
1000
0100
0010
,
0001
0000
0010
0000
0100
0000
1000
0000
0100
0000
0010
0000
0101
0000
0000
0000
0000
0000
0000
0000
0000
0000
0000
0000
0011
0000
0000
0000
0000
0000
0000
0000
0000
0000
0000
0000
0000
0000
0000
0000
0000
0000
0200
0000
0000
0300
0000
0000
,
0020
0000
0000
0030
0000
0000
0002
0000
0000
0000
0000
0000
0000
0000
0000
0000
0000
0000
0003
0000
0000
0000
0000
0000
0000
0000
0000
0000
0000
0000
0100
0000
0000
0000
0000
0000
0001
0000
0010
0000
0001
0000
0100
0000
1000
0000
0100
0000
,
0010
0000
0100
0000
0010
0000
0001
0000
0010
0000
0100
0000
1000
0000
0100
0000
0010
0000
0100
0000
0000
0000
0000
0000
0000
0000
0000
0000
0000
0000
0101
0000
0000
0000
0000
0000
0000
0000
0000
0000
0000
0000
0100
0000
0000
0010
0000
0000
,
0100
0000
0000
0010
0000
0000
0100
0000
0000
1000
0000
0000
0200
0000
0000
0000
0000
0000
0000
0000
0000
0000
0000
0000
0000
0000
0000
0000
0000
0000
0300
0000
0000
0000
0000
0000
0000
0000
0000
0000
0000
0000
0100
0000
0010
0000
0001
0000
,
0010
0100
1000
0100
0010
0001
0010
0100
1000
0100
0000
0000
0000
0000
0000
0102
0000
0000
0000
0000
0000
0000
0000
0000
,
0000
0000
0000
0000
0000
0000
0003
0000
0000
0000
0000
0000
0012
0000
0000
0000
0000
0000
1023
0000
0000
0000
0000
0000
0000
0000
0000
0000
0000
0000
0000
0000
0000
0030
0000
0000
0000
0000
0000
0000
0000
0000
0010
0000
0001
0000
0010
0000
,
0100
0001
0010
0100
0001
0010
0100
1000
0100
0010
0100
1000
0100
0000
0000
0000
0000
0000
0022
0000
0000
0000
0000
0000
,
0033
0101
0010
1020
0000
0030
0201
0010
,
0300
0000
2001
0000
0100
0000
0000
0000
3000
0011
0000
0000
0000
0000
0012
0000
,
0000
0000
0010
0100
1003
0100
0001
0010
0200
0000
0000
0000
0000
0000
0300
0000
,
0100
0000
0000
0010
0001
0010
0100
1000
0100
0001
0010
0001
0100
1000
0100
1001
0000
0000
0000
0000
0000
0011
0000
0000
,
0000
0000
0100
0000
2000
0000
3200
0000
0302
0000
0113
0000
1000
0001
1000
0001
,
1000
0110
0000
0010
0100
0010
0100
1001
0000
0000
0000
0000
1001
0000
0000
0000
,
1010
0000
0020
0000
0230
0302
0000
0000
,
0000
0000
0000
0000
0000
0000
0013
0100
1000
0100
0010
1000
0100
0010
0001
0010
0100
0010
1000
0010
0100
1001
0000
0000
,
0000
0000
0000
0000
1000
0100
0010
0001
0010
0100
0010
0000
1000
0100
0010
0001
0000
0000
0001
0010
0100
0010
0001
0000
,
1000
0100
0010
0001
0000
0000
0100
1000
0100
0010
0001
0010
0001
0010
0100
0010
0001
0010
0100
1000
0100
1001
0000
0000
,
0000
0011
0100
1000
0110
0010
1002
0000
,
0000
0000
0000
0000
0000
0000
0003
0000
0000
0010
0100
0010
0001
0010
0100
1000
0100
0010
0001
0010
0100
0010
0001
0010
,
1001
0000
0011
0000
0110
1010
1100
0102
,
0000
0023
0000
0000
,
1130
0000
0010
1000
0010
0000
0100
0001
0100
0000
0000
0100
0010
0100
0000
0100
,
0010
0100
0000
0001
0010
0001
0000
0100
0010
0100
0000
1000
0100
1000
0000
0100
,
0010
0100
0000
0110
0000
0101
0000
1010
0000
0101
0000
1100
0000
0110
0000
2002
,
0000
3003
0000
0000
0200
0300
0000
0000
,
0000
0000
0000
0200
0000
0000
0000
0000
0000
0300
0000
0000
0000
0000
0000
0000
0000
0000
0000
0000
0000
0000
0000
0000
0100
0000
0010
0000
0001
0000
0010
0000
0100
0000
1000
0000
0100
0000
0010
0000
0001
0000
0010
0000
0100
0000
1000
0000
,
0010
0100
0010
0001
0010
0100
1001
0000
0000
0000
0000
0000
0000
0000
0000
0000
0000
0000
0000
0000
0000
0000
0000
0000
;
