#TITLE:Bellaqueo Intenso;
#SUBTITLE:-DJ Farcko rmx-;
#ARTIST:Guayo & O.G. Black;
#TITLETRANSLIT:;
#SUBTITLETRANSLIT:;
#ARTISTTRANSLIT:;
#CREDIT:;
#BANNER:Bellaqueo Intenso banner.JPG;
#BACKGROUND:;
#LYRICSPATH:;
#CDTITLE:!tizaTitle.png;
#MUSIC:Bellakeo_Intenso_Remix [ BY Dj Flaco]  (www[1].FlowExclusivo.Com).ogg;
#OFFSET:-0.060;
#SAMPLESTART:152.601;
#SAMPLELENGTH:21.000;
#SELECTABLE:YES;
#BPMS:0.000=94.000;
#STOPS:;
#BGCHANGES:;
// cache tags:
#FIRSTBEAT:16.000;
#LASTBEAT:320.000;
#SONGFILENAME:Songs/Reggaeton and more/Bellaqueo Intenso (DJ Farcko)/Pollinosis.sm;
#HASMUSIC:1;
#HASBANNER:1;
#MUSICLENGTH:206.464;
// end cache tags

//---------------dance-single - ----------------
#NOTES:
     dance-single:
     :
     Challenge:
     11:
     0.628,0.697,0.291,0.058,1.000,833.000,60.000,12.000,162.000,5.000:

0000
0000
0000
0000
,
0000
0000
0000
0000
,
0000
0000
0000
0000
,
0000
0000
0000
0000
,
1001
0000
0000
0001
0100
0000
0010
0000
0100
0000
0001
0010
0100
0000
1000
0000
,
1100
0000
0000
1000
0100
0000
0010
0001
0100
0010
0100
0001
0010
0000
0100
0000
,
0110
0000
0000
0100
1000
0000
0001
0000
1001
0000
1000
0010
0100
0000
0001
0000
,
0011
0000
0000
0010
0001
0000
1000
0100
0001
1000
0010
0001
1001
0000
0110
0000
,
1001
0000
0000
0100
0000
0000
0011
0000
0000
1000
0000
0000
0110
0000
0000
0001
0000
0000
1000
0000
0110
0000
0001
0000
,
1001
0000
1000
0000
1010
0000
0010
0000
0110
0000
0100
0000
0001
0010
0100
1000
,
0010
0100
0001
0100
0010
1000
0100
0001
1000
0010
0001
0100
0010
1000
0100
0010
,
0004
0040
0000
0000
0000
0000
0000
0000
0000
0000
0000
0000
0000
0000
0000
0000
0000
0000
0000
0000
0033
0000
0000
0000
0000
0000
0000
0000
0000
0000
0001
0000
,
1000
0001
0000
0000
0000
0000
1000
0100
0010
0001
0010
0100
1000
0100
0010
0001
,
0010
0100
0000
0000
0000
0000
1000
0010
0100
0001
0100
0010
0000
1000
0000
0000
,
0000
0000
0000
0000
0000
0000
1000
0100
0001
0100
1000
0010
0100
0001
0010
1000
,
0010
0001
0000
0000
0000
0000
0001
0100
1000
0001
0010
1000
0000
0001
0000
1000
,
0010
1000
0000
1000
0001
0000
0001
0100
0010
1000
0100
0010
0100
1000
0001
0100
,
0010
1000
0000
0001
1000
0000
0001
0010
0100
1000
0001
1000
0000
0001
0000
0000
,
1001
0000
1000
0001
1000
0000
0001
0100
0010
1000
0100
0010
0100
1000
0001
0100
,
0010
0100
0000
0000
1000
0100
1000
0010
0100
0001
0010
0001
0100
0001
1000
0010
,
0001
0000
0001
0010
1000
0100
0010
0001
1000
0000
0001
0100
0010
1000
0010
0100
,
0001
1000
0001
0000
1000
0100
0010
0100
1000
0001
0010
0100
0010
0001
0000
0000
,
0000
1000
0010
0001
0010
1000
0100
0010
0001
0000
0001
1000
0001
0010
0001
0100
,
0010
1000
0001
0000
1000
0100
0001
1000
0010
0001
0100
1000
0001
0010
1000
0000
,
1001
0010
0000
0000
0001
0100
0010
1000
0100
0000
2000
0000
0002
0000
0010
0000
,
3013
1001
0000
0000
1000
0100
0001
0100
1000
0000
1000
0010
0100
0000
0001
0000
,
1001
0100
0000
0000
0001
0010
0001
0100
0010
0000
2000
0000
0200
0000
0010
0000
,
3301
1100
0000
0000
1000
0010
1000
0010
1000
0000
0100
0001
0100
0000
1000
0000
,
0010
0000
0000
0000
0000
0000
1010
0000
0000
0000
0000
0000
1000
0000
0000
0100
0000
0000
1000
0000
0000
0100
0000
0000
0000
0000
0000
0100
0000
0000
0000
0000
1000
0000
0000
0000
0010
0000
0000
0100
0000
0000
0001
0000
0000
1000
0000
0000
,
0000
0100
0010
0000
0001
0100
0001
0100
0000
0010
1000
0010
0100
0001
0000
0000
,
1001
1000
0100
1000
0010
0100
0001
0010
0000
0100
1000
0010
0100
0001
1000
1001
,
0000
0000
0110
0000
0000
0000
0000
0000
1000
0000
0010
0000
0001
0000
1000
0000
0100
0000
0001
0000
0010
0000
0100
0000
1000
0100
1000
0000
0010
0000
0100
0000
,
0001
0000
1000
0000
0002
0000
0000
2000
0000
3003
1001
0000
0001
1000
0001
1000
,
0100
0000
0010
0000
0002
0000
0000
2000
0000
0000
0000
0000
3003
0000
1000
0001
,
1000
0000
0010
0000
0200
0000
0000
0020
0000
0330
1001
0000
0100
0010
0100
0010
,
0100
0000
0000
0000
0001
0000
0000
0000
0020
0000
0000
0000
0000
0000
0200
0000
0000
0000
0330
0000
1100
0000
0101
0000
0001
0000
0100
0010
1000
0000
0100
0000
,
0010
0000
0000
0001
0000
0000
0000
0000
0000
0000
0000
0000
MMMM
0000
0000
0000
0000
0000
0100
0000
M000
0010
0000
0000
0001
0000
0000
0010
M000
0000
0100
0000
0000
0010
0000
0000
M001
0000
0000
0100
0000
0000
0010
0000
M000
0100
0000
0000
,
0001
0000
0000
0100
M000
0000
0000
0000
0000
0010
0000
0000
1M00
0000
0000
0000
0000
0000
10M0
0000
0000
0100
0000
0000
001M
0000
0000
0100
0000
0000
1000
0000
000M
0010
0000
0000
0000
0000
0000
1010
000M
0000
0000
0000
0000
0000
0000
0000
,
MMMM
0000
0000
0000
0000
0000
1001
0000
00M0
0000
0000
0000
0000
0000
0000
0000
0M00
0000
1000
0000
0000
0010
0000
0000
0M01
0000
0000
0010
0000
0000
1000
0000
0M00
0001
0000
0000
1000
0000
0000
0001
0M00
0000
0010
0000
0000
1000
0000
0000
,
0M10
0001
0000
0M00
00M0
0000
10M0
0100
00M1
0100
10M0
0001
00M0
1000
00M1
1000
,
00M1
1000
00M0
0000
MMMM
0000
1000
0100
M010
0M01
10M0
001M
M100
00M1
1M00
010M
,
M010
0M01
00M0
000M
0000
0000
1000
0010
M001
0M10
100M
01M0
M000
00M1
0100
100M
,
0M10
M000
1MMM
0000
0000
0000
1000
0100
M010
0M10
0M01
10M0
M010
001M
01M0
0M01
,
M010
0M10
000M
000M
0000
0000
M001
1M00
00M1
0M01
10M0
100M
0000
1MM1
0000
M00M
,
0100
0000
0010
0000
M001
0000
0010
0000
0100
0000
100M
0000
0010
0000
0100
0000
M010
0000
0100
0000
0010
0000
M100
0000
0001
0000
0010
0000
010M
1000
0100
1000
,
01M0
0000
1000
0000
0010
0000
M100
0000
0001
0000
0010
0000
M100
0000
000M
0000
1000
0000
0M10
0000
0001
0000
1000
0000
01M0
0000
0001
0000
0010
0100
100M
0100
,
0010
0000
0000
0000
000M
0000
0000
0000
1M00
0000
00M1
0000
1000
0001
1000
0001
1M00
0000
0000
0000
000M
0000
M000
0000
00M1
0000
1000
0000
0M01
1000
0001
1000
,
0001
10M0
0000
000M
1000
01M0
0000
0M00
0011
0010
0M01
1000
10M1
0001
M100
0010
,
1010
0000
0000
000M
1000
0000
0000
0000
0000
0M00
0000
0000
0001
0000
0000
0010
0000
0000
0100
0000
0000
1000
0000
0000
1001
0000
0000
00M0
0000
0000
0001
0000
0000
0000
0000
0000
M100
0000
0000
0000
0000
0000
001M
0000
0000
0000
0000
0000
,
1010
1M00
0000
000M
1000
0100
0010
M001
0100
00M0
1000
0001
0010
0M00
1000
0000
,
1001
0010
0M00
0000
1000
100M
0100
0100
M010
0000
001M
0000
0M01
0000
00M1
0000
,
1001
1M00
0000
000M
1M00
0010
M100
0100
010M
00M0
0001
MMM1
0001
0MM0
1001
0000
,
0110
0000
1001
0000
1000
0001
1000
0001
0000
0001
0100
0000
0010
1000
0010
1000
,
0000
1000
0001
0000
0001
0010
0100
1000
0000
0100
0001
1000
0010
0001
0000
0000
,
1000
0010
0100
0001
1000
0100
0010
0001
0000
0001
0010
0100
1000
0001
1000
0010
,
0000
0100
0000
0000
1000
0100
0010
0100
1000
0010
0000
0100
0001
1000
0010
0100
,
0001
0000
1000
0000
1010
0000
0000
0101
0000
0000
MM00
0000
M000
0M00
00M0
0001
,
1001
0000
1000
0000
0010
0000
0000
1010
0M0M
M0M0
0000
M0M0
0M0M
0000
1000
0100
,
0010
0000
0001
0000
1001
0000
0000
1010
0000
0000
000M
0000
00M0
0M00
M000
0100
,
0010
0000
0001
0000
1001
0000
0000
0110
M000
0M00
100M
01M0
001M
0M01
M010
01M0
,
1000
0001
0000
0000
0000
0000
1000
0010
0100
0010
1000
0100
0010
0001
0010
0100
,
1000
0001
0000
0000
0000
0000
0001
0100
0010
0100
0001
1000
0000
0001
0000
0000
,
0000
0000
0000
0000
0000
0000
1000
0010
0100
0001
0010
0100
0010
0001
0010
0100
,
1000
0100
0000
0000
0000
0000
0010
0001
1000
0010
0100
0001
0000
1001
0000
1000
,
0001
1000
0000
0001
0100
0000
0010
1000
0100
0010
0100
1000
0010
0100
0001
0010
,
0100
1000
0000
0100
0010
0000
0001
0100
0010
0100
0001
0010
0000
0100
0000
1000
,
0000
0100
0000
0010
0000
0001
0010
0100
1000
0010
0100
0001
0010
1000
0001
0100
,
1000
0010
0000
0100
0010
0100
0001
0010
0100
1000
0100
0010
0000
0001
0000
0000
,
1001
0000
1000
0010
0000
0100
0100
0100
0100
0000
0000
0000
0000
0000
0000
0000
,
0000
0000
0000
0000
0000
0000
0000
0000
0000
0000
0000
0000
1000
0000
0000
0000
0000
0000
0110
0000
0000
0001
0000
0000
0000
0000
0000
0000
0000
0000
0000
0000
0000
0000
0000
0000
0000
0000
0000
0000
0000
0000
1000
0000
0000
0000
0100
0000
,
0000
0000
0010
0000
0000
0000
0000
0000
0001
0000
0000
0000
1001
0000
0000
0000
0000
0000
0000
0000
0000
0000
0000
0000
0000
0000
0000
0000
0000
0000
0000
0000
0000
0000
0000
0000
1000
0000
0000
0001
0000
0000
0000
0000
0000
0100
0000
0000
,
0010
0000
0000
0000
0000
0000
0000
0000
0000
0000
0000
0010
0000
0100
0000
0000
0000
0000
0000
0000
0000
0000
0000
0000
,
1011
0000
0000
0000
,
1000
0100
0010
0001
0010
0100
1000
0000
0001
0100
0010
1000
0010
0100
0001
0000
,
1000
0100
0010
0100
1000
0100
0010
0000
0001
0100
0010
0100
0001
0010
0100
0000
,
1000
0000
0010
0000
0001
0000
0010
0000
1000
0000
0100
0000
0010
0000
0000
0000
0001
0000
0100
0000
0010
0000
1000
0000
0100
0010
0001
0000
0010
0000
0100
0000
,
1000
0000
0001
1000
0100
0010
0001
0000
1001
0000
1000
0001
0100
0010
1000
0000
,
0110
0000
0001
1000
0010
0100
0001
0000
0110
0000
0001
1000
0100
0001
0100
0000
,
1100
0000
0001
1000
0010
0001
0010
0000
1010
0000
1000
0100
1000
0001
0100
0000
,
1001
0000
0000
0000
0000
0000
0001
0000
0000
0010
0000
0000
0001
0000
0000
0100
0000
0000
0010
0000
0000
0000
0000
0000
1000
0000
0000
0100
0000
0000
0010
0000
0000
0001
0000
0000
0010
0000
0000
0100
0000
0000
1000
0000
0000
0010
0100
0010
,
0100
0000
0000
0000
;
