#TITLE:Verrückte Jungs;
#SUBTITLE:;
#ARTIST:Blümchen;
#TITLETRANSLIT:;
#SUBTITLETRANSLIT:;
#ARTISTTRANSLIT:;
#CREDIT:Owem;
#BANNER:../banner.png;
#BACKGROUND:../bg.png;
#LYRICSPATH:;
#CDTITLE:../cdtitleowem.png;
#MUSIC:Blumchen - Verruckte Jungs.ogg;
#OFFSET:-0.154;
#SAMPLESTART:30.149;
#SAMPLELENGTH:29.999;
#SELECTABLE:YES;
#BPMS:0.000=200.000;
#STOPS:;
#BGCHANGES:;
// cache tags:
#FIRSTBEAT:1.000;
#LASTBEAT:760.000;
#SONGFILENAME:Songs/Owem's Simfiles 08 1.1/Verruckte Jungs - [Owem] v1.0.0/Verruckte Jungs.sm;
#HASMUSIC:1;
#HASBANNER:1;
#MUSICLENGTH:228.989;
// end cache tags

//---------------dance-single - 1/3-7-8/2-32/25/3-6/----------------
#NOTES:
     dance-single:
     1/3-7-8/2-32/25/3-6/:
     Challenge:
     17:
     1.000,1.000,0.192,0.620,1.000,2319.000,44.000,142.000,49.000,0.000:
0000
0000
0000
0000
2000
0000
0000
3000
0200
0000
0300
0000
0020
0000
0000
0030
,
0002
0003
2000
3020
,
0230
0302
0003
2000
,
3200
2300
3020
0230
,
0302
2003
0000
0000
3020
0030
0200
0000
,
0302
0000
0000
0003
2000
0000
0000
0000
3200
0000
0000
0000
2300
0000
3020
0000
,
0000
0230
0000
0300
0000
0000
0002
0003
,
0200
0000
0300
0000
0020
0000
0030
0000
2000
0000
3002
0000
0000
0003
0200
0000
,
0300
0000
2001
3000
0102
0003
0210
0300
,
1M2M
1030
0010
1000
0020
1030
0020
1030
,
0002
0103
0002
0103
0001
0100
0002
0103
,
0020
0130
0020
0130
0020
0130
0020
0130
,
0002
2003
3001
1000
0002
1003
0002
1003
,
01M1
0100
0010
1000
0001
1000
0100
0010
,
MM11
0001
1000
0010
0100
0010
1000
0001
,
MM11
0010
0100
1000
1MM1
0001
0100
0010
,
1000
0001
1000
0100
0010
0001
1000
0010
0100
0010
1000
0001
0100
0001
1000
0010
,
020M
0300
0001
0100
0010
0010
1000
0200
,
1300
0000
0020
0000
1030
0000
0001
0000
0100
0000
0100
0010
1000
0000
0001
0000
,
2000
3100
0010
0001
0100
0100
0010
2000
,
3001
0000
2000
0000
3100
0000
0010
0000
0001
0000
0001
0100
0010
0000
1000
0000
,
0M01
1000
0010
0100
0010
1000
0001
0100
0001
0010
0100
1000
0001
1000
0010
0100
,
0001
1000
0100
1000
0001
0100
0010
0100
0001
1000
0010
1000
0001
1000
0100
0010
,
0100
1000
0001
0010
0001
0100
0010
1000
0001
1000
0100
0010
0001
1000
0010
0100
,
0020
0000
0000
0030
2000
0000
3002
0000
0103
0000
0020
0000
0230
0000
0301
0000
,
1000
0100
1000
0010
0100
0001
1000
0001
0010
0100
0010
0001
1000
0100
1000
0010
,
0100
0010
1000
0001
1000
0100
0010
0001
1000
0001
0100
0010
1000
0001
0100
0010
,
0100
0001
1000
0100
0010
0001
0100
0010
0100
0001
1000
0100
1000
0001
0010
0001
,
0100
0010
1000
0001
1000
0100
0010
0001
0100
0001
1000
0010
0100
0001
1000
0100
,
0010
0001
1000
0100
1000
0001
0100
0010
1000
0001
0010
0001
1000
0010
1000
0100
,
0010
0001
0010
0100
1000
0001
0010
0001
0100
0010
1000
0001
1000
0100
0010
0001
,
1000
0100
0010
0100
1000
0001
0010
0001
0100
0010
1000
0001
1000
0100
0010
0001
,
1000
0000
0000
0100
0000
0000
0000
0010
0000
0000
0001
0000
2000
0000
0000
3000
,
0001
0100
0010
1000
0001
1000
0100
0010
0001
1000
0100
1000
0010
0100
0001
1000
,
0100
1000
0001
0010
0100
0010
0001
1000
0100
1000
0010
0100
0001
1000
0100
0010
,
0100
1000
0001
0010
0001
0100
0010
1000
0001
0100
0010
0100
0001
1000
0010
1000
,
0001
1000
0100
0010
0001
1000
0100
1000
0001
0100
0010
1000
0100
1000
0001
0010
,
0001
0100
0010
1000
0001
1000
0100
0010
0001
1000
0001
0100
0010
1000
0001
0100
,
0010
0100
0001
1000
0100
0010
0100
1000
0001
1000
0010
1000
0001
0100
0010
0100
,
0001
1000
0100
1000
0010
0100
0001
1000
0001
0010
0100
1000
0001
1000
0100
1000
,
0010
0000
0000
0000
0000
0000
0000
0000
0000
0000
0000
0000
0100
0000
0000
0000
0000
0000
0000
0000
0000
0000
0000
0000
0001
0000
0000
0000
0000
0000
0000
0000
0000
0000
0000
0000
1000
0000
0000
0000
0000
0000
0000
0000
0000
0000
0000
0000
0100
0000
0000
0000
0000
0000
0000
0000
0000
0000
0000
0000
1000
0000
0000
0000
0000
0000
0000
0000
0000
0000
0000
0000
0001
0000
0000
0000
0000
0000
0000
0000
0000
0000
0000
0000
0100
0000
0000
0000
0000
0000
0000
0000
0000
0000
0000
0000
0010
0000
0000
0000
0000
0000
0000
0000
0000
0000
1000
0000
0000
0000
0000
0000
0000
0000
0000
0010
0000
0000
0000
0000
0000
0000
0000
0000
0000
0100
0000
0000
0000
0000
0000
0000
0000
0000
0001
0000
0000
0000
0000
0000
0000
0000
0000
0000
1000
0000
0000
0000
0000
0000
0000
0000
0000
0000
0010
0000
0000
0000
0000
0000
0000
0000
0000
1000
0000
0000
0000
0000
0000
0000
0000
0000
0000
0001
0000
0000
0000
0000
0000
0000
0000
0000
1000
0000
0000
0000
0000
0000
0000
0000
0000
0000
,
0020
0000
0130
0000
0001
0000
1000
0000
0200
0000
0300
0010
0002
0000
1003
0000
,
1MM2
0000
0203
0000
0310
0000
1000
0000
0001
0000
1000
0010
0200
0000
0301
0000
,
M1M2
0000
0103
0000
0020
0000
1030
0000
2MM1
0000
0000
3001
0100
0000
0010
1000
,
0MM2
0000
2003
0000
3100
0000
0010
0000
0002
0000
1003
0010
2000
0000
3M1M
0000
,
M12M
0000
0130
0000
0002
0000
1003
0000
0100
0010
0001
1000
0010
0100
0010
1000
,
0M01
0010
0001
0100
0010
1000
0010
0100
0010
1000
0001
0100
0001
1000
0100
M010
,
0M01
1000
0100
1000
0010
0100
0001
1000
01M0
1000
0001
0010
0001
0100
0010
1000
,
0001
0000
0100
0010
2000
3001
1000
0000
0200
0000
0300
0000
0020
0000
0000
0030
,
0001
1000
0100
1000
0010
0100
0001
1000
0010
0100
0010
1000
0001
0010
0100
1000
,
0001
1000
0010
0100
0001
1000
0100
1000
0001
0010
0100
0010
0001
1000
0100
1000
,
0001
1000
0010
0100
0010
1000
0001
1000
0100
1000
0010
0100
0001
1000
0001
0010
,
0001
0100
0010
1000
0001
1000
0100
0010
0001
1000
0010
1000
0001
0010
0001
0100
,
0010
1000
0001
1000
0100
0010
0001
1000
0100
1000
0001
0100
0001
0010
0001
1000
,
0100
1000
0010
0100
0010
1000
0001
0010
0001
0100
0010
1000
0001
1000
0100
0010
,
0001
1000
0100
1000
0001
0100
0010
1000
0010
0100
0010
1000
0001
0100
0001
1000
,
0010
0100
0010
1000
0001
0010
0001
0100
0010
1000
0001
1000
0100
0010
0001
1000
,
0100
1000
0001
0010
0001
1000
0100
0010
0100
1000
0001
0010
0001
1000
0010
1000
,
0100
0010
0001
1000
0001
0100
0010
1000
0010
0100
0010
1000
0001
1000
0100
0010
,
0001
1000
0100
1000
0001
0100
0010
0100
0001
1000
0100
1000
0001
0010
0100
0010
,
0001
1000
0100
1000
0010
0100
0001
1000
0100
1000
0010
0100
0010
1000
0001
0010
,
0100
0010
0001
1000
0010
1000
0001
1000
0100
0010
0001
0010
0100
1000
0001
1000
,
0100
1000
0010
0100
0010
1000
0001
0100
0001
1000
0010
0100
0010
1000
0001
0100
,
0010
0100
0001
1000
0010
1000
0001
0100
0001
1000
0100
1000
0010
0100
0010
1000
,
0001
0010
0001
0100
0010
1000
0010
0100
0010
1000
0001
0010
0001
0100
0010
1000
,
0010
0100
0001
1000
0001
0100
0010
1000
0100
0010
0001
1000
0100
1000
0001
0010
,
0001
0100
0010
1000
0010
0100
0001
1000
0100
1000
0001
1000
0010
0100
0001
1000
,
0100
1000
0010
0100
0001
1000
0001
0010
0100
1000
0001
1000
0010
0100
0010
1000
,
0001
0100
0001
1000
0100
0010
0100
1000
0001
0010
0001
1000
0100
1000
0010
0100
,
0001
1000
0100
1000
0001
0010
0001
0100
0010
1000
0010
0100
0001
1000
0100
1000
,
0001
0010
0100
0010
0001
1000
0100
0010
0100
1000
0001
1000
0010
0100
0010
1000
,
0001
0100
0001
1000
0010
1000
0001
0010
0100
0010
0001
1000
0100
1000
0001
0100
,
0010
1000
0010
0100
0001
1000
0100
1000
0001
0100
0010
0100
0001
1000
0010
1000
,
0001
0010
0100
1000
0100
1000
0010
0100
0001
1000
0001
0100
0010
1000
0100
1000
,
0001
0010
0001
0100
0010
1000
0100
1000
0001
1000
0100
0010
0001
0010
0100
0010
,
0001
1000
0100
1000
0010
0100
0010
1000
0001
0100
0001
1000
0010
0100
0001
1000
,
0001
0010
0100
1000
0001
1000
0010
0100
0010
1000
0100
1000
0001
0010
0001
0100
,
0010
1000
0001
1000
0100
0010
0001
1000
0100
1000
0010
0100
0001
1000
0100
0010
,
0100
1000
0001
0010
0001
0100
0010
1000
0001
1000
0100
0010
0001
0100
0001
1000
,
0010
0100
0010
1000
0001
0010
0001
1000
0100
1000
0001
0010
0100
0010
0001
1000
,
0100
1000
0001
1000
0010
0100
0010
1000
0001
0100
0001
1000
0100
0010
0001
1000
,
0010
0100
0010
1000
1100
0100
0010
0001
,
1000
0010
0100
0001
1001
1000
0010
0100
,
0010
1000
0100
0010
0011
0001
1000
0100
,
1000
0010
1000
0001
0101
0100
0010
1000
,
0100
1000
0001
0100
0110
0010
1000
0100
,
1000
0001
0100
0010
1010
1000
0001
0010
,
0001
0100
0010
1000
1001
0001
0010
0001
,
M100
0010
1000
0010
0110
0100
0001
1000
,
0100
0010
0100
1000
1010
0010
0100
0001
,
1000
0100
1000
0001
0101
0100
0010
1000
,
0001
1000
0100
0010
0011
0001
1000
0100
,
1000
0010
0100
0001
1001
1000
0100
1000
,
0010
1000
0001
0010
0110
0100
1000
0001
,
1000
0010
1000
0001
0011
0010
0100
1000
,
0100
1000
0001
0100
0101
0001
1000
0010
,
0100
0010
1000
0001
0101
0100
0010
1000
,
1MM1
0001
0200
0310
2000
3020
0130
0001
,
1MM2
0000
1003
0000
0200
0000
2300
0000
3001
0000
0020
0000
0031
0000
0200
0300
,
M12M
0030
1000
0001
2MM1
3000
0020
0030
,
0100
0001
1000
0010
1000
0100
0010
0001
1000
0100
1000
0010
0100
0001
1000
0001
,
0010
0100
1000
0001
0100
0010
0100
0001
1000
0010
1000
0100
0010
0001
1000
0100
,
1000
0001
0010
0001
0100
0010
1000
0010
0100
0001
1000
0100
1000
0001
0010
0001
,
0100
0010
1000
0001
1000
0100
0010
0001
1000
0100
1000
0001
0100
0010
0100
0001
,
1000
0010
1000
0100
0010
0001
1000
0100
1000
0001
0010
0001
1000
0100
0010
0100
,
1000
0001
1000
0010
0100
0010
1000
0010
0100
0001
0100
0010
1000
0001
1000
0100
,
0010
0001
1000
0100
1000
0001
0010
0001
0100
0010
1000
0001
1000
0100
0010
0001
,
1000
0100
1000
0010
0100
0010
1000
0001
1000
0100
0010
0001
1000
0001
0100
0010
,
1000
0001
0100
0010
0100
0001
1000
0100
0010
0001
0100
0010
0100
0001
1000
0100
,
1000
0001
0010
0001
0100
0010
1000
0001
1000
0100
0010
0001
0100
0001
1000
0010
,
0100
0001
1000
0100
0010
0001
1000
0100
1000
0001
0100
0010
1000
0001
0010
0001
,
1000
0010
1000
0100
0010
0001
0010
0100
1000
0001
0010
0001
0100
0010
1000
0001
,
1000
0100
0010
0001
1000
0100
0010
0100
1000
0001
0010
0001
0100
0010
1000
0001
,
1000
0100
0010
0001
0100
0010
0100
0001
1000
0010
0100
0010
1000
0001
0010
0001
,
1000
0001
0100
0010
0100
0001
1000
0010
1000
0001
1000
0100
0010
0100
1000
0001
,
0010
0001
0100
0010
1000
0010
0100
0001
1000
0100
0010
0100
1000
0001
0010
0001
,
0100
0010
1000
0001
1000
0100
0010
0001
1000
0010
1000
0001
0100
0010
1000
0001
,
1000
0100
0010
0001
1000
0001
0100
0010
1000
0001
0100
0010
0100
0001
1000
0100
,
0010
0001
0100
0010
0100
0001
1000
0100
1000
0001
0010
0001
0100
0010
1000
0001
,
1000
0100
0010
0001
0100
0001
1000
0010
0100
0001
1000
0100
0010
0001
1000
0100
,
1000
0001
0100
0010
1000
0001
0010
0001
1000
0010
1000
0100
0010
0001
0010
0100
,
1000
0001
0010
0001
0100
0010
1000
0001
1000
0100
0010
0001
1000
0100
0010
0100
,
1000
0001
0010
0001
0100
0010
1000
0001
1000
0010
0100
0001
0100
0010
1000
0100
,
1000
0001
0010
0001
1000
0100
0010
0100
1000
0001
0010
0100
0010
0001
1000
0001
,
1000
0010
0100
0001
1000
0100
1000
0010
1000
0001
0100
0010
0100
0001
1000
0100
,
0020
0000
0030
0000
0001
0100
0010
1000
,
0020
0000
0030
0000
0100
0001
1000
0001
,
0020
0130
1000
0100
0020
0031
1000
0010
,
2000
3001
0100
0010
0200
0301
1000
0100
,
0020
0000
0031
0000
1000
0010
1000
0001
,
0200
0310
0100
0001
1000
0100
1000
0010
,
0100
0000
0001
1000
0001
0000
0100
0000
0010
0000
1000
0000
0010
0000
0100
0000
,
0001
0000
1000
0100
0010
0000
0001
0000
1000
0000
0010
0100
0010
0000
1000
0000
,
1MM2
0000
0000
0000
0103
0000
0000
0010
2000
0000
0000
3000
0002
0000
0103
0000
,
M12M
0000
0000
0030
2000
0000
0001
3000
0100
0000
0010
0000
0200
0000
0301
1000
,
00M2
0000
0000
0000
0203
0000
0300
0000
2M1M
0000
0000
0000
3020
0000
0000
0030
,
M102
0103
0010
0000
2000
3000
0002
0103
,
0010
1000
0001
1000
0100
0010
0100
1000
0001
0010
0001
0100
0010
1000
0010
0100
,
0001
1000
0100
1000
0001
0010
0001
0100
0010
1000
0001
1000
0100
0010
0001
1000
,
0100
1000
0001
0010
0001
0100
0010
1000
0001
1000
0100
1000
0010
0100
0001
1000
,
0010
0100
0001
0000
1000
0010
0100
0000
0001
0010
0100
0000
1000
0100
0010
0000
,
0001
1000
0100
1000
0010
0100
0001
1000
0010
0100
0010
1000
0001
0100
0001
0010
,
0100
1000
0100
0010
0100
1000
0001
0010
0001
0100
0010
0100
0001
1000
0010
1000
,
0001
1000
0100
0010
0100
1000
0010
0100
0001
1000
0100
1000
0001
0100
0010
1000
,
0001
0010
0001
0100
0010
1000
0001
0100
0010
0100
0001
1000
0100
1000
0010
0100
,
0010
1000
0001
0010
0001
0100
0010
1000
0010
0100
0001
1000
0100
0010
0001
1000
,
0100
1000
0001
0100
0010
0100
0001
1000
0010
1000
0100
0010
0001
1000
0010
0100
,
0001
0100
0010
0100
0001
1000
0100
0010
,
0001
1000
0001
0100
0010
1000
0010
0100
0001
1000
0100
0010
0001
1000
0010
M000
,
0100
0001
1000
0010
0100
0010
1000
0001
0010
0001
0100
0010
1000
0010
0100
0001
,
1000
0100
0010
0001
0100
0010
0100
0001
1000
0100
1000
0001
0100
0010
1000
0001
,
0010
0001
1000
0001
0100
0010
1000
0010
0100
0001
1000
0100
0010
0001
1000
0100
,
1000
0010
0100
0001
1000
0100
1000
0010
0100
0001
1000
0001
0010
0100
1000
0001
,
0010
0001
0100
0010
1000
0010
0100
0001
1000
0100
1000
0001
0100
0010
0100
0001
,
1000
0010
1000
0100
0010
0001
0010
0100
1000
0001
0010
0001
0100
0010
1000
0010
,
0100
0001
1000
0100
1000
0001
0010
0001
0100
0010
1000
0100
1000
0001
1000
0100
,
0010
0001
1000
0100
1000
0010
0100
0010
1000
0001
0010
0001
0100
0010
1000
0001
,
1000
0100
0010
0001
1000
0100
0010
0100
1000
0001
0010
0001
0100
0010
1000
0010
,
0100
0001
1000
0001
0100
0010
0100
0001
1000
0010
1000
0001
0100
0010
1000
0001
,
0010
0001
0100
0010
1000
0001
1000
0100
0010
0001
1000
0100
1000
0001
0010
0001
,
0100
0010
1000
0010
0100
0001
1000
0100
1000
0001
0100
0001
0010
0100
1000
0001
,
0100
0010
1000
0001
0101
0100
0010
1000
,
0001
1000
0100
0010
0011
0001
1000
0010
,
0100
0001
1000
0100
0110
0010
0001
1000
,
0010
0000
0100
0001
2000
3001
0010
0000
0200
0000
0300
0000
2000
0000
0000
3000
,
0001
0100
0010
1000
0001
1000
0100
0010
0100
1000
0010
0100
0010
1000
0001
0100
,
0001
1000
0010
0100
0001
1000
0100
1000
0001
0010
0001
0100
0010
1000
0010
0100
,
0001
1000
0100
1000
0001
0010
0100
0010
0001
1000
0100
1000
0010
0100
0001
1000
,
0001
0100
0010
0100
0001
1000
0010
1000
0100
0010
0001
1000
0100
1000
0001
0010
,
0001
0100
0010
1000
0010
0100
0001
1000
0100
1000
0001
1000
0100
0010
0100
1000
,
0001
0010
0001
0100
0010
1000
0010
0100
0001
1000
0100
1000
0001
0010
0001
0100
,
0010
1000
0010
0100
0001
1000
0100
0010
0100
1000
0001
0010
0001
0100
0010
1000
,
0001
1000
0100
0010
0001
1000
0010
1000
0001
0100
0001
1000
0010
0100
0001
1000
,
0200
0310
0001
1000
0020
0130
0002
1003
,
0200
2300
3001
0100
0010
1000
0002
1003
,
0200
0310
0002
1003
0200
1300
0002
0013
,
0002
0203
0310
1000
0020
0130
0020
1030
,
0002
0103
0001
1000
0200
1300
0020
0130
,
0002
1003
0200
0310
0002
1003
0020
0130
,
0002
1003
0200
1300
0002
0103
0020
0130
,
0002
1003
0100
1000
0001
0010
0100
1000
,
10M2
0000
0003
0000
0000
0100
0010
1000
,
1M02
0000
0003
0000
0000
0010
0100
1000
,
0001
1000
0010
1000
0001
1000
0100
0010
,
0001
1000
0010
0100
0001
1000
0100
1000
,
1MM2
0000
0003
0000
0000
0100
0010
1000
,
0020
0000
0030
0000
0000
0100
0001
1000
,
0010
0000
0100
0001
1000
0000
0100
0000
0010
0000
0001
0000
1000
0000
0001
0000
,
0100
0000
0010
1000
0010
0000
0100
0000
0001
0000
1000
0100
1000
0000
0010
0000
,
0100
0000
0000
0101
0102
0000
0000
0000
,
0003
0000
0000
0000
;
