#TITLE:Slaughter;
#SUBTITLE:;
#ARTIST:Imil;
#TITLETRANSLIT:;
#SUBTITLETRANSLIT:;
#ARTISTTRANSLIT:;
#CREDIT:Tyler;
#BANNER:slaughter bn.png;
#BACKGROUND:slaughter bg.png;
#LYRICSPATH:;
#CDTITLE:;
#MUSIC:Slaughter.ogg;
#OFFSET:-0.055;
#SAMPLESTART:106.383;
#SAMPLELENGTH:12.000;
#SELECTABLE:YES;
#DISPLAYBPM:163.000;
#BPMS:0.000=162.500,348.000=81.250,350.000=162.500;
#STOPS:;
#BGCHANGES:;
// cache tags:
#FIRSTBEAT:32.000;
#LASTBEAT:446.125;
#SONGFILENAME:Songs/SPEEEDCOOOORE 2/Slaughter - [Tyler]/Slaughter.sm;
#HASMUSIC:1;
#HASBANNER:1;
#MUSICLENGTH:166.974;
// end cache tags

//---------------dance-single - T. Moore----------------
#NOTES:
     dance-single:
     T. Moore:
     Challenge:
     15:
     1.000,1.000,0.323,0.575,1.000,1027.000,54.000,96.000,34.000,4.000:

0000
0000
0000
0000
,
0000
0000
0000
0000
,
0000
0000
0000
0000
,
0000
0000
0000
0000
,
0000
0000
0000
0000
,
0000
0000
0000
0000
,
0000
0000
0000
0000
,
0000
0000
0000
0000
,
0001
0000
0000
0000
0000
0000
0000
0000
0020
0030
0000
0000
0001
0000
0000
0000
0000
0000
0000
0000
0001
0000
0000
0000
2000
3000
0000
0000
0010
0000
0000
0000
,
0010
0000
0000
0000
0000
0000
0000
0000
0200
0300
0000
0000
0001
0000
0000
0000
0000
0000
0000
0000
0001
0000
0000
0000
2000
3000
0000
0000
0100
0000
0000
0000
,
0100
0000
0000
0000
0000
0000
0000
0000
0020
0030
0000
0000
0001
0000
0000
0000
0000
0000
0000
0000
0001
0000
0000
0000
2000
3000
0000
0000
0010
0000
0000
0000
,
0010
0000
0000
0000
0000
0000
0000
0000
0200
0300
0000
0000
0001
0000
0000
0000
0000
0000
0000
0000
0001
0000
0000
0000
2000
3000
0000
0000
0001
0000
2000
3000
,
0001
0000
0000
0000
0000
0000
0000
0000
0020
0030
0000
0000
0100
0000
0000
0000
0000
0000
0000
0000
0100
0000
0000
0000
2000
3000
0000
0000
0001
0000
0000
0000
,
0001
0000
0000
0000
0000
0000
0000
0000
0200
0300
0000
0000
0010
0000
0000
0000
0000
0000
0000
0000
0010
0000
0000
0000
2000
3000
0000
0000
0001
0000
0000
0000
,
0001
0000
0000
0000
0000
0000
0000
0000
0020
0030
0000
0000
0100
0000
0000
0000
0000
0000
0000
0000
0100
0000
0000
0000
2000
3000
0000
0000
0001
0000
0000
0000
,
0200
0000
0000
0000
0302
0000
0000
2003
0000
0000
3200
0000
0000
0000
0000
0000
,
0310
0000
0000
0001
1000
0000
0100
0000
0000
0010
0001
0000
1000
0100
0010
0000
,
0100
0000
0000
1000
0001
0000
0100
0000
0000
0010
1000
0000
0001
0100
0010
0000
,
1000
0000
0000
0001
0010
0000
0100
0000
0000
1000
0001
0000
0010
0100
1000
0000
,
0001
0000
0000
1000
0010
0000
0100
0000
0001
1000
0000
1000
0000
0100
1000
0000
,
0010
0000
0000
1000
0001
0000
0010
0000
0000
0100
1000
0000
0001
1000
0100
0000
,
0010
0000
0000
0001
1000
0000
0010
0000
0000
0100
0001
0000
1000
0001
0100
0000
,
0010
0000
0000
1000
0001
0000
0010
0000
0000
0100
1000
0000
0001
1000
0100
0000
,
0020
0032
2003
3020
0130
0000
0002
0203
,
0310
0000
0000
0000
2000
3000
0000
0000
0002
0003
0000
0000
0020
0030
0000
0000
0200
0300
0000
0000
2000
3000
0000
0000
0020
0000
0000
0000
0000
0000
0000
0000
,
0030
0000
2000
3000
0200
0300
0020
0030
0002
0000
0003
0000
2000
0000
3002
0000
,
0013
0000
0200
0300
2000
3000
0002
0003
0200
0300
0020
0030
2000
0000
0000
0000
,
3010
0000
0200
0300
0002
0003
2000
3000
0200
0000
0000
0000
2300
0000
0000
0000
,
3M10
0010
0100
0100
0001
0001
1000
1000
,
010M
0000
0100
0000
0010
0000
0010
0000
M001
0000
0001
0000
1000
0000
1000
0010
,
010M
0100
M001
0001
1M00
1000
01M0
0100
,
0140
0000
0001
0000
0100
0000
0031
0001
,
1000
0000
0000
0010
0000
0000
0100
0000
0000
0001
0000
0000
0010
0000
0000
0001
0000
0000
1000
0000
0000
0001
0000
0000
0010
0000
0000
0100
0000
0000
0010
0000
0000
0001
0000
0000
0100
0000
0000
0001
0000
0000
1000
0000
0100
0000
1000
0000
,
0100
0010
0001
1000
0010
0100
0001
0010
0100
1000
0010
0100
0010
0000
4000
0000
,
3001
0010
0100
1000
0010
0100
0001
1000
0100
0010
0100
1000
0010
0100
0001
1000
,
0100
0000
0000
0010
0000
0000
0100
0000
0000
1000
0000
0000
0010
0000
0000
0100
0000
0000
0001
0000
0000
1000
0000
0000
0001
0000
0100
0000
0001
0000
0100
0000
0001
0000
0100
0000
0001
0000
0000
0000
0000
0000
1000
0000
0000
0000
0000
0000
,
0001
0000
0000
0010
0000
0000
0100
0000
0000
1000
0000
0000
0010
0000
0000
0100
0000
0000
0010
0000
0000
1000
0000
0000
0001
0000
0000
0010
0000
0000
0100
0000
0000
1000
0000
0000
0010
0000
0000
0100
0000
0000
0001
0000
1000
0000
0001
0000
,
1000
0000
0000
0100
0000
0000
0010
0000
0000
0001
0000
0000
0100
0000
0000
0010
0000
0000
1000
0000
0000
0100
0000
0000
1000
0000
0000
0001
0000
0000
0100
0000
0000
0001
0000
0000
0010
0000
0000
0001
0000
0000
1000
0000
0001
0000
1000
0000
,
0001
1000
0100
1000
0010
0100
0001
1000
0001
0010
0100
1000
0020
0030
0000
0000
,
1000
0100
0010
0001
1000
0001
1000
0100
0010
0001
1000
0001
0100
0010
1000
0001
1000
0001
0400
0000
0000
0000
0000
0300
,
0001
0000
0000
1000
0000
0000
0100
0000
0000
1000
0000
0000
0010
0000
0000
0100
0000
0000
0001
0000
0000
1000
0000
0000
0001
0000
0000
0010
0000
0000
0100
0000
0000
1000
0000
0000
0010
0000
0000
1000
0000
0000
0001
0000
1000
0000
0001
0000
,
1000
0000
0000
0100
0000
0000
0010
0000
0000
0001
0000
0000
0100
0000
0000
0010
0000
0000
1000
0000
0000
0001
0000
0000
1000
0000
0000
0010
0000
0000
0100
0000
0000
0001
0000
0000
0010
0000
0100
0000
1000
0000
0001
0000
1000
0000
0100
0000
,
0010
0001
1000
0001
0100
0010
1000
0001
1000
0100
0010
0001
0400
0000
0000
0000
,
0301
0000
0000
0100
0000
0000
0010
0000
0000
1000
0000
0000
0100
0000
0000
1000
0000
0000
0001
0000
0000
0010
0000
0000
0400
0000
0000
0000
0000
0000
0000
0000
0000
0000
0300
0000
1000
0000
0100
0000
1000
0000
0100
0000
1000
0000
0100
0000
,
1000
0001
1000
0001
0100
0010
1000
0001
1000
0100
0010
0001
0100
0001
1000
0100
,
0010
0000
0000
0001
0000
0000
0100
0000
0000
0001
0000
0000
0010
0000
0000
0100
0000
0000
1000
0000
0000
0010
0000
0000
0100
0000
0001
0000
0100
0000
0040
0000
0030
0000
0000
0000
1000
0000
0000
0000
0000
0000
0001
0000
0000
0000
0000
0000
,
1000
0100
0010
0001
0100
0001
1000
0010
1000
0001
0010
0001
0100
0010
1000
0001
,
2000
0000
0000
3000
0000
0000
0100
1000
0100
1000
0100
1000
0002
0000
0000
0003
0000
0000
2001
0000
0000
3040
0000
0000
,
1030
0001
0011
0010
0110
0100
1100
1000
,
1001
0000
0001
0000
1001
0000
1000
0000
1001
0000
0001
0000
1001
0000
1000
0010
,
0100
0000
0001
0000
0101
0000
0100
0000
0110
0000
0010
0000
1000
0010
0100
0001
,
1000
0000
0000
0001
0000
0000
1001
0000
0000
1000
0000
0000
1040
0000
0000
0000
0000
0000
0130
0001
0100
0001
0100
0001
,
1000
0010
1000
0000
1001
0000
0001
0000
0011
0000
0010
0000
0110
0000
0100
0000
,
1100
0000
1000
0000
0011
0000
0001
0000
1001
0000
1000
0000
0010
0100
0001
1000
,
0100
0010
1001
0001
0100
0010
1001
1000
,
2200
0000
3300
0000
0110
0000
1100
0000
2002
0000
3003
0000
0040
0000
0000
0030
,
2222
3330
0000
0000
0000
0000
0000
0000
,
2003
0000
0000
0000
,
3200
0000
0000
0000
,
0320
0000
0032
0000
,
0203
0000
0000
0000
,
0320
0000
0000
0000
,
2030
0000
0000
0000
,
3200
0000
0000
0000
M320
M000
M000
M000
,
M031
0100
0010
1000
0100
1000
0010
0100
0001
0010
0100
1000
0010
0100
0001
0100
,
0010
0000
0000
1000
0000
0000
0100
0000
0000
0010
0000
0000
0001
0000
0000
1000
0000
0000
0001
0000
0000
0100
0000
0000
0010
0000
0000
1000
0000
0000
0001
0000
0000
1000
0000
0000
0100
0000
0000
0010
0000
0000
0001
0000
1000
0000
0001
0000
,
1000
0010
0100
0001
0010
0100
0010
0001
0100
0010
1000
0100
0010
0001
1000
0001
,
0010
0100
1000
0010
0100
0001
1000
0100
0020
0000
0030
0000
0011
0000
0001
0000
,
1000
0000
0000
0010
0000
0000
0100
0000
0000
0001
0000
0000
0010
0000
0000
0100
0000
0000
1000
0000
0000
0100
0000
0000
0010
0000
0000
0001
0000
0000
0100
0000
0000
0010
0000
0000
1000
0000
0000
0010
0000
0000
0100
0000
0001
0000
0100
0000
,
0001
1000
0010
1000
0100
0010
0001
0010
0100
1000
0010
0100
0001
0000
4000
0000
,
3001
0010
0100
1000
0010
1000
0001
0010
0100
1000
0010
0100
0001
0000
1000
0000
,
0001
0000
0100
0000
0001
0000
0100
0000
0000
0010
0000
0000
1000
0000
0001
0000
1000
0000
0001
0000
0000
0010
0000
0000
0100
0000
1000
0000
0100
0000
1000
0000
0000
0001
0000
0000
0400
0000
0000
0000
0000
0000
0000
0000
0000
0000
0000
0000
,
0301
0000
0000
1000
0000
0000
0100
0000
0000
1000
0000
0000
0010
0000
0000
0100
0000
0000
0001
0000
0000
0100
0000
0000
0010
0000
0000
1000
0000
0000
0100
0000
0000
0010
0000
0000
0001
0000
0000
1000
0000
0000
0001
0000
0100
0000
0001
0000
,
0100
0000
0000
0010
0000
0000
1000
0000
0000
0001
0000
0000
0010
0000
0000
0100
0000
0000
1000
0000
0000
0001
0000
0000
1000
0000
0000
0100
0000
0000
0010
0000
0000
0001
0000
0000
0100
0000
0001
0000
1000
0000
0001
0000
4000
0000
0000
0000
,
3001
0010
0100
1000
0010
0100
0001
0100
0010
1000
0100
0010
0001
0000
0400
0000
,
0301
0000
0000
0010
0000
0000
0100
0000
0000
1000
0000
0000
0010
0000
0000
1000
0000
0000
0001
0000
0000
0010
0000
0000
0004
0000
0000
0000
0000
0000
0000
0000
0000
0000
0003
0000
0100
0000
0001
0000
0100
0000
0001
0000
0100
0000
0001
0000
,
1000
0010
0100
0001
1000
0100
0010
0100
1000
0010
0100
0001
1000
0000
0400
0000
,
1300
0010
0100
0001
0010
0100
1000
0100
0010
0001
0010
0001
2000
0000
3000
0000
,
0001
0000
0000
0100
0000
0000
0010
0000
0000
1000
0000
0000
0100
0000
0000
1000
0000
0000
0010
0000
0000
0100
0000
0000
0001
0000
0000
0010
0000
0000
0100
0000
0000
1000
0000
0000
0001
0000
0100
0000
0001
0000
0100
0000
0000
0010
0000
0000
,
1000
0010
0100
0001
1000
0010
1000
0001
1000
0001
0010
0100
4000
0000
0000
0000
0000
0000
3001
0000
0000
1000
0000
0000
,
0202
0000
0303
1000
0010
0000
0100
0000
0001
1000
0100
0000
0010
0001
0010
0100
,
1000
0000
0000
0001
1000
0000
0001
0000
0000
0100
0010
0000
1000
0001
1000
0001
,
0100
0000
0000
0001
0100
0000
0001
0000
0000
0010
0100
0000
0010
0100
1000
0000
,
0001
0000
0000
0010
0100
0000
1000
0000
0001
0000
0000
0100
0000
0010
0100
0000
,
0001
0000
1000
0000
0100
0000
0100
0100
,
0010
0000
0000
0000
0010
0000
0000
0000
0001
0000
0000
0000
0001
0000
0001
1000
,
0010
0000
0000
0000
0010
0000
0000
0000
0100
0000
0000
0000
0100
0000
0100
0001
,
M000
0M00
00M0
0M00
M000
00M0
0M00
000M
1000
0100
0010
0001
0100
0001
0010
0100
,
1000
0010
0100
0001
0010
0001
0010
0001
0100
0010
1000
0010
0100
0001
0010
0100
,
1000
0000
0000
0100
0000
0000
0010
0000
0000
0001
0000
0000
0100
0000
0000
0001
0000
0000
1000
0000
0100
0000
1000
0000
0100
0000
0000
0010
0000
0000
0001
0000
0000
1000
0000
0000
0100
0000
0000
0010
0000
0000
0001
0000
0000
1000
0000
0000
,
0010
0000
0000
0100
0000
0000
0010
0000
0000
1000
0000
0000
0100
0000
0000
0010
0000
0000
0001
0000
1000
0000
0001
0000
1000
0000
0000
0010
0000
0000
0100
0000
0000
0001
0000
0000
0010
0000
0000
0001
0000
0000
1000
0000
0000
0010
0000
0000
,
0100
0000
0000
0001
0000
0000
0010
0000
0000
0001
0000
0000
0200
0000
0000
0000
0300
0000
0020
0000
0000
0000
0030
0000
1000
0000
0000
0010
0000
0000
0100
0000
0000
0001
0000
0000
0010
0000
0000
0100
0000
0000
1000
0000
0000
0100
0000
0000
,
0010
0000
0000
0001
0000
0000
1000
0000
0000
0001
0000
0000
0100
0000
0001
0000
0100
0000
0001
0000
0000
1000
0000
0000
0001
0000
1000
0000
0100
0000
1000
0000
0001
0000
0010
0000
0100
0000
1000
0000
0001
0000
0010
0000
0001
0000
1000
0000
,
0001
0000
1000
0000
0010
0000
0100
0000
0010
0000
1000
0000
0004
0000
0000
0000
0000
0000
0000
0000
0000
0000
0000
0000
1003
0000
0000
0100
0000
0000
0010
0000
0000
0001
0000
0000
0100
0000
0000
0001
0000
0000
0010
0000
0000
0100
0000
0000
,
1000
0000
0000
0010
0000
0000
0100
0000
0000
0001
0000
0000
0010
0000
0000
0001
0000
0000
1000
0000
0010
0000
1000
0000
0010
0000
0000
0100
0000
0000
0001
0000
0000
1000
0000
0000
0100
0000
0000
1000
0000
0000
0001
0000
0000
0010
0000
0000
,
0100
0000
0000
1000
0000
0000
0001
0000
0000
1000
0000
0000
0020
0000
0000
0000
0000
0000
0030
0000
0000
0000
0000
0000
0400
0000
0000
0000
0000
0000
0000
0000
0000
0000
0000
0000
0301
0000
1000
0000
0001
0000
1000
0000
0010
0000
0100
0000
,
0001
1000
0001
1000
0100
0010
0100
1000
0100
0040
0000
0030
0001
0010
0100
1000
0001
1000
0100
0010
0001
1000
0001
1000
,
0010
0100
0001
1000
0010
1000
0004
0000
0000
0000
0000
0000
1003
0010
0100
0001
0100
0001
1000
0010
0100
0001
1000
0010
,
0100
0000
0010
0000
1000
0000
0001
0000
1000
0000
0010
0000
0100
0000
0000
0001
0000
0000
1000
0000
0000
0001
0000
0000
1000
0000
0100
0000
0010
0000
0100
0000
1000
0000
0001
0000
1000
0000
0100
0000
0010
0000
0100
0000
1000
0000
0001
0000
,
1000
0010
0100
0010
1000
0001
0200
0000
0000
0300
0000
0000
1010
0000
0000
1000
0000
0000
1001
0000
0000
0001
0000
0000
,
0011
0000
0010
0000
0110
0000
0100
1000
0001
0000
1001
0000
1001
0000
1000
0000
,
0040
0000
0000
0000
0000
0000
1030
0001
1000
0001
1000
0001
1000
0000
0000
0100
0000
0000
0110
0000
0000
0010
0000
0000
,
0011
0000
0001
0000
1001
0000
1000
0010
0200
0000
0300
0000
0222
0000
0333
0000
,
2222
0000
0000
3333
0000
0000
4000
0000
0000
0000
3000
0000
2222
0000
0000
3330
0000
0000
0000
0000
0000
0000
0000
0000
,
0000
0000
0023
0000
,
0000
0000
0230
0000
,
0000
0000
2300
0000
,
3002
0000
0203
0000
,
0000
0000
0000
000M
0320
0000
M000
0000
,
0000
000M
0000
0000
4M30
0000
000M
0000
,
0M00
0000
00M0
3000
040M
0000
00M0
M000
,
000M
0000
0000
0000
00M0
0000
0000
0000
M000
0000
0000
0000
000M
0000
0000
0000
0320
0030
0000
0000
0000
0000
0000
0000
0000
0000
0000
0000
0000
0000
0000
0000
;
