#TITLE:Razor;
#SUBTITLE:;
#ARTIST:Filthy;
#TITLETRANSLIT:;
#SUBTITLETRANSLIT:;
#ARTISTTRANSLIT:;
#CREDIT:Aoreo;
#BANNER:razor bn.png;
#BACKGROUND:razor bg.png;
#LYRICSPATH:;
#CDTITLE:;
#MUSIC:Razor.ogg;
#OFFSET:0.003;
#SAMPLESTART:15.263;
#SAMPLELENGTH:15.360;
#SELECTABLE:YES;
#BPMS:0.000=250.000;
#STOPS:;
#BGCHANGES:;
// cache tags:
#FIRSTBEAT:4.000;
#LASTBEAT:504.500;
#SONGFILENAME:Songs/SPEEEDCOOOORE 2/Razor - [Aoreo]/Razor.sm;
#HASMUSIC:1;
#HASBANNER:1;
#MUSICLENGTH:121.200;
// end cache tags

//---------------dance-single - J. Nero----------------
#NOTES:
     dance-single:
     J. Nero:
     Challenge:
     14:
     1.000,1.000,0.644,0.413,0.730,997.000,78.000,50.000,0.000,0.000:

0000
0000
0000
0000
,
2002
0000
0000
0000
0000
0000
0000
0000
0000
0000
0000
0000
0000
0000
0000
0000
0000
0000
0000
0000
0000
0000
0000
0000
3003
0000
0000
0000
0000
1000
0000
0000
,
0000
0000
0000
0001
0000
0000
0000
0000
0100
0000
0000
0000
0010
0000
0000
0000
1000
0000
0000
0000
0100
0000
0000
0000
1000
0000
0000
0000
0001
0000
0000
0000
,
0100
0000
0010
0000
0100
0000
0001
0000
1000
0000
0100
0000
1000
0000
0001
0100
,
0001
1000
0010
0100
0001
1000
0100
0010
,
0100
0000
1000
0000
0001
0000
0100
0000
0001
0000
0100
0000
0010
0000
1000
0001
,
1000
0000
0010
0000
0100
0000
0001
0000
0010
0000
0100
0000
1000
0100
1000
0001
,
0100
0001
0010
0100
1000
0001
0100
0010
,
0100
0000
0001
0000
1000
0000
0001
0000
0010
0000
0100
0000
1000
0010
1000
0010
,
0100
0000
0001
0000
0010
0000
0001
0000
1000
0000
0100
0000
1000
0000
0010
0100
,
0010
1000
0001
0010
0100
1000
0001
0100
,
0001
0100
0001
0100
0010
0000
1000
0100
1000
0100
0010
0000
0001
0000
1000
0100
,
1000
0000
0001
0100
0001
0000
0100
0000
0010
0000
1000
0010
1000
0001
0100
0001
,
1000
0000
0001
0100
0001
0000
0100
0010
1000
0001
1000
0000
0001
0000
0400
0000
,
0310
0000
1000
0000
0001
0010
0001
0010
0100
0000
1000
0000
0001
0100
0001
0000
,
0100
0010
0100
0000
0001
0000
1000
0100
1000
0000
0004
0000
0013
0000
0100
1000
,
0001
0000
0100
0000
0010
1000
0010
0000
0100
0000
0001
0000
0010
0100
1000
0001
,
4000
0000
3001
0000
0100
0000
0001
0000
1000
0100
1000
0001
0100
0010
0100
0001
,
1000
0001
0010
0100
2000
0000
0000
3000
,
0001
0000
0100
0000
0010
1000
0010
0000
1000
0000
0001
0000
0010
0000
0100
1000
,
0100
0000
1000
0001
1000
0000
0004
0000
0103
0000
0010
0000
1000
0001
0010
0001
,
1000
0000
0010
0000
0100
0001
0100
0000
0010
0000
1000
0000
0001
0000
0010
0100
,
1000
0000
0001
0000
0010
0100
4000
0000
3001
0000
0100
0000
0010
0100
0010
1000
,
0001
0000
0100
0000
0001
0100
0001
0000
4000
0000
3001
0000
0010
0000
0100
0010
,
0100
0000
1000
0000
0001
0000
0400
0000
0310
0000
1000
0000
0001
0100
0001
0100
,
0010
0000
1000
0000
0001
0100
0001
0100
0010
0000
1000
0000
0001
0000
0010
0000
,
0100
1000
0100
0000
1000
0000
0004
0000
0103
0000
0010
0000
1000
0100
1000
0100
,
0010
0000
0001
0000
1000
0100
1000
0000
0001
0000
0100
0010
0100
0000
0001
0000
,
1000
0100
0010
0000
0001
0000
0400
0000
0310
0000
1000
0000
0001
0100
0001
0100
,
0010
0000
1000
0000
0001
0100
0001
0100
0010
0000
1000
0000
0001
0000
0010
0100
,
1000
0000
0001
0000
0100
0010
0400
0000
0301
0000
1000
0000
0001
1000
0001
1000
,
0100
0000
1000
0000
0010
0100
0010
0000
0400
0000
0301
0000
1000
0000
0001
0100
,
0001
0000
1000
0100
1000
0000
0040
0000
0130
0000
0001
0000
1000
0100
1000
0100
,
0010
0000
0001
0000
1000
0100
1000
0100
0010
0000
0001
0000
1000
0000
0010
0000
,
0100
0001
0100
0000
0010
0000
1000
0000
0001
0000
0010
0000
0100
0000
2000
0000
,
0000
3001
0100
0010
0100
0001
0010
0100
,
1000
0001
0100
0010
0100
0001
1000
0100
,
1000
0000
0002
0003
0010
0000
0200
0300
0010
0000
0001
0000
2000
3000
0020
0030
,
0100
0000
0020
0030
1000
0000
0002
0003
0010
0000
0200
0300
0010
0000
0002
0003
,
2000
3000
0020
0030
0100
0000
0010
0000
1000
0000
0001
0000
1000
0000
0100
0000
,
1000
0001
0100
0010
0100
0001
1000
0001
,
1000
0000
0200
0300
0010
0000
0200
0300
1000
0000
0001
0000
0200
0300
0020
0030
,
0100
0000
0002
0003
1000
0000
0002
0003
0010
0000
0200
0300
1000
0000
0020
0030
,
0200
0300
0002
0003
1000
0000
0100
0000
0010
0000
0001
0000
0100
0000
0010
0000
,
1000
0100
1000
0010
0100
0001
0010
0001
,
0100
0000
0002
0003
0010
0000
0200
0300
0010
0000
0001
0000
2000
3000
0020
0030
,
0100
0000
0020
0030
1000
0000
0002
0003
0010
0000
0200
0300
1000
0000
0020
0030
,
0200
0300
0002
0003
0100
0000
0010
0000
1000
0000
0100
0000
1000
0000
0010
0000
,
0100
0001
0010
0001
0100
0010
1000
0100
,
1000
0000
0002
0003
0010
0000
0200
0300
0010
0000
0001
0000
1000
0000
2002
0000
,
3003
0001
1000
1000
0001
0010
0010
0100
,
1000
1001
0101
0110
,
1010
1001
0011
0110
,
1100
1001
0101
0110
,
1010
0000
1001
0000
0110
0000
0100
0001
,
1000
1100
0011
0110
,
1100
1001
0101
1010
,
0110
0101
1001
1100
,
0110
0000
0011
0000
0001
1000
0100
1000
,
0001
0011
1100
1010
,
0110
0101
1001
0101
,
0110
1010
1001
0110
,
1010
0000
0101
0000
1001
0000
1000
0100
,
0010
0011
1001
1010
,
0110
0101
1001
1100
,
0011
0110
1100
1001
,
0101
0000
0110
0000
0010
1000
0001
0100
,
0001
1000
0100
1000
0001
0100
0010
0100
,
0001
1000
0100
1000
0001
0100
0010
0100
,
0001
0010
0100
1000
0001
0100
0001
1000
,
0100
0010
0001
0100
0010
1000
0100
1000
,
0001
0100
0010
1000
0001
0100
0001
1000
,
0100
1000
0010
0100
0001
1000
0001
1000
,
0100
0010
0100
1000
0001
0100
0010
0100
,
0001
0010
0100
1000
0010
0100
0001
1000
,
0100
1000
0010
0100
0001
1000
0100
1000
,
0001
0100
0010
1000
0100
1000
0010
0100
,
0001
0010
0100
1000
0001
1000
0100
0010
,
0001
1000
0100
1000
0010
0100
0001
0010
,
0100
1000
0001
1000
0010
0100
0001
1000
,
0100
1000
0010
0100
0001
1000
0100
1000
,
0001
0010
0100
0010
0001
1000
0010
0100
,
0010
1000
0001
0010
0100
1000
0010
0100
,
0001
0000
0100
0000
0010
0000
1000
0100
1000
0100
0010
0000
0001
0000
0100
0001
,
0100
0000
0010
0000
1000
0000
0001
0100
0001
0100
0010
0000
1000
0000
0000
0000
,
0001
0100
0001
0100
0010
0000
1000
0001
1000
0001
0100
0000
0010
0000
0100
0001
,
0100
0000
0001
1000
0100
0000
1000
0000
0001
0000
0010
0100
1000
0000
0200
0300
,
0010
0000
0001
0100
0001
0000
0100
0010
0100
0001
1000
0000
0100
0000
4000
0000
,
3010
0000
0100
0000
0001
0010
0100
0010
0100
0000
1000
0000
0001
0000
0100
0000
,
0001
1000
0001
0000
1000
0000
0010
0100
0010
0000
4000
0000
3001
0000
0100
0010
,
0100
0000
0001
0000
1000
0100
0010
0000
0001
0000
1000
0000
0010
0100
0002
0003
,
4000
0000
3010
0000
0100
0000
0001
0000
1000
0100
1000
0001
0400
0000
0301
0000
,
0010
0000
0100
0000
1000
0000
0001
0000
0100
0000
0010
0000
0100
0001
0100
0001
,
1000
0100
1000
0001
0100
0000
0010
0100
0001
1000
0001
0000
2000
3000
0002
0003
,
0010
0000
0100
1000
0100
0000
1000
0001
0100
0000
0001
0100
0002
0003
2000
3000
,
0001
0000
1000
0100
1000
0000
0001
0000
0010
0100
0010
0000
0200
0300
2000
3000
,
0001
0000
0100
0000
0010
0100
0001
1000
0001
0000
1000
0000
0200
0300
0020
0030
,
0001
0100
0001
0000
1000
0000
0100
1000
0001
0000
4000
0000
3010
0000
0100
0000
,
0001
0000
1000
0000
0010
0100
0010
0000
1000
0000
0001
0000
0010
0100
1000
0001
,
4000
0000
3001
0000
0100
0000
0010
0000
0100
0001
0100
0010
1000
0000
0010
0000
,
1000
0001
0100
0010
1000
0001
1000
0001
0100
0000
0010
0000
0100
0000
0010
0000
,
0100
0001
1000
0001
1000
0000
0001
0100
0001
1000
0100
0000
1000
0000
0100
0000
,
0010
0000
0001
1000
0001
0000
0100
0010
0100
0001
1000
0001
1000
0010
0100
0010
,
1000
0000
0001
0100
0001
0000
1000
0000
0010
1000
0010
0000
0100
0000
0004
0000
,
1003
0000
0100
0000
0010
0001
1000
0001
1000
0000
0010
0000
0100
0001
0100
0010
,
1000
0000
0001
0000
0010
0000
0100
1000
0001
0000
0400
0000
0301
0000
1000
0100
,
1000
0000
0001
0000
0100
0001
0100
0000
0010
0000
1000
0001
0010
0100
1000
0001
,
1000
0000
0001
0000
0100
0000
0010
0000
0100
0001
1000
0000
0001
1000
0100
0000
,
1000
0100
1000
0010
0100
0001
0010
0100
,
1000
0001
0100
0001
1000
0000
0010
0100
0010
0100
0001
0000
1000
0000
0100
1000
,
0001
1000
0001
0000
0010
0000
0100
1000
0100
0000
1000
0001
1000
0001
0100
0010
,
0100
0000
0001
1000
0100
1000
0001
0100
0010
0100
0001
0000
1000
0000
0400
0000
,
1300
0000
0001
0000
0010
0100
0010
0100
1000
0000
0001
0000
0100
0010
0100
0000
,
0001
1000
0010
1000
0001
0100
0001
0100
0010
1000
0001
1000
0001
0100
0010
1000
,
0010
0100
0001
1000
0001
0100
0010
0100
0001
0100
0010
1000
0001
0100
0001
1000
,
0001
0000
0000
0000
,
0000
0000
2002
0000
,
0000
0000
0000
0000
,
0000
0000
0000
0000
,
0000
0000
0000
0000
,
0000
0000
0000
0000
,
0000
0000
0000
0000
,
0000
0000
0000
0000
,
0000
0000
0000
0000
,
0000
0000
3000
0000
,
0000
0000
0000
0000
,
0000
0003
0000
0000
0000
0000
0000
0000
;
