#TITLE:TRIGGER★HAPPY;
#SUBTITLE:(Hommarju Remix);
#ARTIST:P*Light;
#TITLETRANSLIT:;
#SUBTITLETRANSLIT:;
#ARTISTTRANSLIT:;
#CREDIT:owenviau1;
#BANNER:../Banner.png;
#BACKGROUND:../BG.png;
#LYRICSPATH:;
#CDTITLE:../CDTitleBRAEDEN.png;
#MUSIC:PxLight - TRIGGER_HAPPY (Hommarju Remix).ogg;
#OFFSET:-0.244;
#SAMPLESTART:170.644;
#SAMPLELENGTH:29.999;
#SELECTABLE:YES;
#BPMS:0.000=200.000;
#STOPS:;
#BGCHANGES:;
// cache tags:
#FIRSTBEAT:0.000;
#LASTBEAT:723.500;
#SONGFILENAME:Songs/Index Fusion - Part 2/Trigger Happy - [Braeden]/TRIGGER_HAPPY.sm;
#HASMUSIC:1;
#HASBANNER:1;
#MUSICLENGTH:223.059;
// end cache tags

//---------------dance-single - ----------------
#NOTES:
     dance-single:
     :
     Challenge:
     15:
     1.000,1.000,0.614,0.448,1.000,1766.000,137.000,100.000,36.000,0.000:

2000
0000
3100
0000
0010
0000
0002
0000
0013
0000
0100
0000
2000
0000
3010
0010
,
0200
0301
0010
0100
2000
3200
0320
0032
,
2003
0000
3100
0000
0010
0000
0002
0000
0103
0000
0010
0000
2000
0000
3010
0010
,
0200
0302
0203
0302
0203
0310
2000
3100
,
0020
0000
0031
0000
0010
0000
0200
0000
1300
0000
0001
0000
0200
0000
0310
0010
,
0200
0301
0100
0010
2000
3200
0320
0032
,
2003
0000
3100
0000
0010
0000
0002
0000
0103
0000
0010
0000
2000
0000
3010
0100
,
0002
0000
0013
0000
0002
0000
0103
0000
0010
1000
0010
0100
0001
1000
0100
0010
,
0001
0000
0000
0000
0000
0000
0010
0000
0000
0000
0000
0000
0100
0000
0000
0000
0000
0000
0010
0000
0000
0100
0000
0000
0001
0000
0000
0000
0000
0000
1000
0000
0100
0000
1000
0000
0100
0000
0000
0000
0000
0000
0010
0000
0000
0001
0000
0000
,
0020
0030
0001
0000
4000
0000
3010
0100
0002
0000
0103
0000
0020
0000
1030
0000
,
0100
0000
1000
0000
0004
0000
0103
0010
1000
0000
0001
0000
2000
0000
3001
0100
,
0010
1000
0004
1003
0010
0100
0002
1003
,
0010
0000
0100
0000
0001
0000
1000
0010
0400
0000
0301
0000
2000
0000
3001
0100
,
0001
0000
0010
0000
0001
0000
0010
0100
2000
0000
0000
3020
0000
0000
0130
0000
,
0001
0000
1000
0001
1000
0000
0010
0100
0010
0100
0001
1000
0001
0100
0010
1000
,
0001
0000
0000
0000
0000
0000
0000
0000
0000
0000
0000
0000
0000
0000
0000
0000
0000
0000
0001
0010
0100
1000
0000
0000
,
1001
0000
0001
0000
0100
0010
0000
2000
0000
0000
3100
0010
0001
0100
0010
0000
,
1001
0000
0010
0000
0100
0001
0000
0100
0000
0000
0010
1000
0100
1000
0001
0000
,
1001
0000
0010
0000
0100
0001
0000
0100
0000
0000
0010
1000
0100
1000
0001
0000
,
2000
3100
0010
0001
2000
3010
0100
0001
1000
0100
0010
0001
0400
0000
0300
0000
,
0110
0000
0010
0000
0100
0001
0000
0100
0000
0000
0010
1000
0100
1000
0001
0000
,
0101
0000
0010
0000
1000
0100
0000
0010
0000
0000
0001
0100
0010
1000
0100
0000
,
0011
0000
0001
0000
0100
0010
0000
0010
0100
0000
0100
0000
0001
0000
0001
0000
,
1100
0000
0000
0100
0000
0000
0110
0000
0000
0010
0000
0000
0011
0000
0000
0000
0000
0000
0100
0010
0100
0010
0100
0010
,
0100
0000
0010
0000
1000
0100
0000
0020
0001
0000
0130
0001
0100
0010
1000
0000
,
0001
0000
0100
0000
0010
1000
0000
2000
0010
0000
3010
0100
0001
0100
0010
0000
,
1000
0000
0001
0000
0100
0010
0000
0010
0100
0000
0001
1000
0100
0010
0001
0000
,
1000
0100
0010
0001
0010
0100
1000
0001
0100
0010
1000
0100
0010
0000
0001
0000
,
1001
1001
0011
0011
0110
0110
1100
1100
,
1001
1001
0110
0110
0101
0101
1010
1010
,
1000
0100
0010
0001
0010
0100
1000
0001
0010
0001
1000
0100
0010
0001
1000
0010
,
0100
0001
0010
0100
1000
0001
0100
0010
0100
0001
1000
0100
0010
0000
0000
0000
,
0011
0000
0001
0010
0001
0000
1000
0001
1000
0000
0010
1000
0010
0100
0001
0000
,
1001
0000
1000
0100
1000
0001
0100
0010
1000
0000
0100
0010
0001
0010
0100
0000
,
1001
0000
1000
0100
0010
0001
0010
0100
1000
0000
0001
0100
0010
1000
0001
0000
,
1000
0100
0010
0001
0010
0100
1000
0001
0100
0010
1000
0100
0010
0000
0100
1000
,
0001
0000
0100
0000
0010
1000
0010
1000
0010
0000
0100
0001
0100
0001
0100
0000
,
0001
0000
1000
0001
0100
0010
1000
0000
0100
0000
0010
0001
0010
0100
1000
0000
,
0001
0000
0010
0000
0100
1000
0001
0100
0010
0000
0010
0000
0100
0000
0100
0000
,
0001
0000
0000
0001
0000
0000
1000
0000
0000
1000
0000
0000
0010
0000
0000
0000
0000
0000
0100
0001
1000
0100
0010
0100
,
1000
0000
0001
0100
0001
0100
0010
1000
0100
0000
0010
0001
0010
0001
1000
0000
,
0010
0000
0100
0001
1000
0100
0010
0001
0010
0000
0100
1000
0001
0100
0010
0000
,
1000
0000
0100
1000
0100
0010
0001
0100
0010
0000
1000
0100
0010
0100
1000
0000
,
0001
0000
0000
0100
0000
0000
0010
0000
0000
1000
0000
0000
0001
0000
0000
0010
0000
0000
0100
0000
0000
1000
0000
0000
0001
0000
0000
0100
0000
0000
0010
0000
0000
1000
0000
0000
0100
0000
0000
0000
0000
0000
1000
0000
0100
0000
1000
0000
,
0100
0000
0010
0000
0001
1000
0000
1000
0001
0000
0100
0010
0100
0010
0100
0000
,
1001
0000
0010
0000
0100
0000
0010
0000
1001
0000
1000
0010
0100
0001
1000
0000
,
1001
0001
0101
0100
0110
0110
1001
1001
,
1000
0000
0000
0000
0000
0000
0100
0000
0000
0010
0000
0000
0100
0000
0000
0000
0000
0000
1000
0000
0000
0000
0000
0000
1000
0000
0000
0000
0000
0000
0001
0000
0000
0010
0000
0000
0001
0000
0100
0000
0001
0000
1000
0000
0001
0000
0010
0000
,
0100
0000
1000
0100
0010
0001
0100
0010
1000
0000
0100
0010
0001
0100
0010
1000
,
0100
0000
0010
0001
0100
0010
1000
0001
0010
0000
0100
1000
0001
0100
0010
1000
,
0100
0000
0010
0001
0100
0010
1000
0001
0010
0000
0100
1000
0001
0100
0010
0000
,
1000
0000
0000
0100
0000
0000
0010
0000
0000
0001
0000
0000
1000
0000
0000
0010
0000
0000
0100
0000
0000
0001
0000
0000
1000
0000
0000
0100
0000
0000
1000
0000
0000
0001
0000
0000
0010
0000
0000
0000
0000
0000
0001
0000
0010
0000
0001
0000
,
0010
0000
0001
0100
0010
1000
0001
0010
0100
1000
0001
0100
0010
0100
0001
1000
,
0100
0010
0001
0010
0100
1000
0001
0100
0010
0100
0001
1000
0100
0010
0001
1000
,
0010
0100
0001
0100
0010
1000
0100
0010
0001
0000
0100
0000
0001
0000
0100
0000
,
0010
0000
0000
1000
0000
0000
0010
0000
0000
1000
0000
0000
0001
0000
0000
0000
0000
0000
1000
0100
0010
0001
0010
0100
,
0010
0100
1000
0001
0100
0010
1000
0100
0010
0001
1000
0010
0100
0001
0010
0001
,
1000
0100
0010
0001
0010
0100
1000
0001
0100
0010
1000
0100
0010
0001
1000
0010
,
0100
0000
0000
0010
0000
0000
0100
0000
0000
0001
0000
0000
0100
0000
0000
0010
0000
0000
0100
0000
0000
0001
0000
0000
1000
0000
0000
0100
0000
0000
1000
0000
0000
0001
0000
0000
0100
0000
0000
0000
0000
0000
0010
0000
1000
0000
0010
0000
,
1000
0000
0000
0001
0000
0000
0100
0000
0000
0010
0000
0000
1000
0000
0000
0100
0000
0000
0010
0000
0000
0001
0000
0000
0010
0000
0000
0100
0000
0000
1000
0000
0000
0001
0000
0000
1000
0000
0001
0000
0100
0000
0010
0000
1000
0000
0001
0000
,
1000
0000
0001
0100
0001
0000
0100
0010
0100
0000
0010
1000
0010
0000
1000
0001
,
1001
0010
0100
0000
1001
0100
0010
0000
,
1100
0100
0110
0010
0011
0011
1001
1001
,
0010
0000
0000
0000
0000
0000
0100
0000
0000
0001
0000
0000
0100
0000
0000
0000
0000
0000
0010
0000
0000
0000
0000
0000
1000
0000
0000
0000
0000
0000
0001
0000
0000
0100
0000
0000
0010
0000
1000
0000
0001
0000
0100
0000
0010
0000
1000
0000
,
0001
0000
1001
1001
0000
0101
0000
0220
,
0000
0330
0000
0000
,
1001
0000
0001
0000
0100
0010
0100
0000
0001
0100
0001
0000
1010
0000
0000
0000
,
0000
0000
0000
1001
,
1001
0000
1000
0000
0100
0000
0010
0000
0001
1000
0001
0000
0100
0000
0010
0000
,
1000
0000
0100
0000
0010
0001
1000
0000
0010
0000
0100
0000
0001
0000
1000
0000
,
0100
0000
0000
0010
0000
0000
0001
0000
0000
1000
0000
0000
0100
0000
0010
0000
0100
0000
0010
0000
0000
0001
0000
0000
,
0100
0010
0100
0010
0100
0001
0100
0001
,
2000
0000
0000
3100
0000
0000
0010
0000
0000
0001
0000
0000
1000
0000
0010
0000
0100
0000
0001
0000
0000
1000
0000
0000
,
0010
0100
0001
0000
0010
0001
0010
0000
0001
0000
0100
0000
0020
0000
0000
0000
,
2030
3100
2000
3001
0010
0100
0010
0000
,
1001
0000
0000
1001
0000
0000
0110
0000
0000
0110
0000
0000
1001
0000
0000
0000
0000
0000
0001
0010
0100
1000
0001
0010
,
0001
0000
0000
0000
0000
0000
0100
0000
0000
0000
0000
0000
0010
0000
0000
0000
0000
0000
0010
0000
0000
0000
0000
0000
1000
0000
0000
0100
0000
0000
0010
0000
0000
0001
0000
0000
1000
0000
0000
0000
0100
0000
0000
0000
0010
0000
0000
0000
,
0200
0000
0000
0000
0000
0000
1300
0000
0001
0000
0010
0000
0002
0000
0000
0203
0000
0000
0320
0000
0000
2030
0000
0000
,
3200
0320
0031
1000
0100
0100
0020
0031
,
2000
0000
0000
3100
0000
0000
1000
0000
0000
0001
0000
0000
0100
0000
0000
0000
0000
0000
0010
0100
0001
1000
0010
0100
,
0001
0100
0001
0101
0010
1000
0010
0010
,
0110
0000
0000
0110
0000
0000
0100
0000
0000
0101
0000
0000
0001
0000
0000
1000
0000
0000
0001
0010
0100
1000
0001
0100
,
0001
0000
0000
0100
0000
0000
0010
0000
0000
0110
0000
0000
0110
0000
0000
0000
0000
0000
1000
0100
0010
0001
1000
0010
,
0100
0101
0101
0101
1010
0000
1000
0000
,
000M
0000
00M0
0M00
0000
0M00
0000
0000
,
0000
M000
M000
00M0
0M00
0000
0M00
0000
,
000M
0000
M000
000M
0000
0M00
0000
0000
,
0000
00M0
00M0
0M00
000M
0000
000M
0000
,
M000
0000
000M
0M00
0000
0M00
0000
0000
,
0000
00M0
00M0
M000
000M
0000
0M00
0000
,
00M0
0000
M000
000M
0000
0M00
0000
0000
,
0000
00M0
00M0
M000
M000
0000
000M
0000
,
4001
0000
0000
0000
0000
0000
3001
0000
0010
0100
0010
0100
0020
0000
0000
0000
,
0034
0000
0403
0000
0310
0010
0010
0010
,
4000
0000
0000
0000
0000
0000
3001
0000
0100
0010
0100
0010
1000
0000
0000
0000
,
0002
0000
0000
1003
0200
0000
0300
0000
0110
0000
0010
0000
0004
0000
0000
0000
,
4003
0000
0000
0000
0000
0000
3001
0000
0100
0010
0100
0001
0200
0000
0000
0000
,
0340
0000
1030
0100
0010
0001
0001
0001
,
4000
0000
0000
0000
0000
0000
3001
0000
0100
0010
0100
0001
1000
0000
0000
0000
,
0004
0000
0000
0000
0000
0000
0000
0000
0000
0000
0000
0000
1003
0000
0000
0000
0000
0000
0100
0000
0000
0000
0000
0000
0010
0000
0000
0001
0000
0000
1000
0000
0000
0000
0000
0000
0010
0000
0100
0000
0001
0000
1000
0000
0000
0000
0000
0000
,
0004
0000
0000
0000
0000
0000
1003
0000
0010
0100
0001
1000
0010
0000
0100
0000
,
0004
0043
0430
4300
3002
0000
1003
0100
,
4000
0000
0000
0000
3010
0000
0010
0000
0100
0001
0100
0010
4000
0000
0000
0000
,
3001
0010
0100
1000
0100
0010
0001
1000
0100
0010
0100
1000
0001
0010
0100
1000
,
0004
0000
0000
0043
0000
0000
0430
0000
,
4300
0000
0000
3040
0000
0130
0010
0100
,
0000
0000
1001
0000
0000
0101
0000
0000
1010
0000
0000
0110
0000
0000
1001
0000
,
0000
0000
0110
0000
0000
1001
0000
0000
0110
0000
0000
0011
0000
0000
0001
0000
,
1001
0000
0000
0000
,
0000
0000
0000
0000
,
2000
0000
3100
0000
0020
0000
0031
0000
0200
0000
0310
1000
0000
1000
0010
0000
,
0200
0000
0301
1000
0010
0000
0100
0000
0002
0000
1003
0100
0010
0000
0001
0100
,
0020
0000
1030
0000
0020
0000
0130
0000
0002
0000
1003
0100
0000
0010
0001
0000
,
2000
0000
3200
0000
0320
0000
0032
0000
0203
0000
0310
1000
0010
0000
0100
0001
,
0200
0000
0310
0000
2000
0000
3100
0000
0020
0000
0031
1000
0000
1000
0001
0000
,
0020
0000
0031
1000
0020
0000
0130
0000
0002
0000
0103
0010
0100
0000
0001
0100
,
0020
0000
1030
0000
0200
0000
0310
0000
0100
0000
1000
0001
0000
0010
0100
0000
,
0020
0000
0032
0000
0203
0000
0320
0000
0130
0000
0001
0100
0010
0000
1000
0100
,
0010
0000
0001
0000
0020
0000
0130
1000
0100
0000
1000
0100
0020
0130
1000
0000
,
0002
0000
1003
0010
0100
0000
0001
0100
0020
0030
1000
0100
0010
0000
0001
0010
,
0100
0000
1000
0000
1100
0000
0010
0001
0200
0000
0310
1000
0000
0010
0100
0000
,
0002
0000
0103
0000
0101
0000
0010
1000
0010
0000
0100
0000
0040
0000
0130
0000
,
0010
0000
0000
0000
0000
0000
0100
0000
0000
0000
0000
0000
0004
0000
0000
0003
0000
0000
0004
0000
0000
0003
0000
0000
1000
0000
0000
0000
0000
0000
0100
0000
0000
0010
0000
0000
0001
0000
1000
0000
0100
0000
0010
0000
0000
0000
0000
0000
,
0002
0000
0000
0000
0000
0000
1003
0000
0000
0100
0000
0000
0040
0000
0000
0030
0000
0000
0040
0000
0000
0030
0000
0000
0001
0000
0000
0000
0000
0000
1000
0000
0000
0000
0000
0000
0001
0000
0010
0000
0100
0000
1000
0000
0001
0000
0010
0000
,
0100
0000
0000
0000
0000
0000
1000
0000
0000
0000
0000
0000
0400
0000
0000
0300
0000
0000
0400
0000
0000
0300
0000
0000
0010
0000
0000
0000
0000
0000
0001
0000
0000
1000
0000
0000
0010
0000
0100
0000
0001
0000
0000
0000
0000
0000
0000
0000
,
0001
0000
0000
0000
0010
0000
0000
0000
0100
0000
0000
0000
1000
0000
0000
0000
0001
0000
0000
0000
0000
0000
0000
1000
0001
0000
0000
0000
0000
0000
0000
0000
,
1001
0000
0001
0000
0010
0000
0100
0000
1000
0000
0001
0000
0100
0000
0010
0100
,
0010
0100
0001
1000
0100
0010
0001
0010
,
0100
0000
1000
0000
0001
0000
0100
0000
0010
0000
1000
0000
0001
0000
1000
0001
,
1000
0000
0010
0000
0100
0000
0001
0000
0100
0000
0010
1000
0010
0000
0100
0001
,
0010
0010
0010
0010
0100
0100
0100
0100
,
0001
0000
0001
0000
0010
0000
0100
1000
0001
0000
0100
0000
0010
0000
1000
0000
,
0100
0010
0001
0010
0100
1000
0001
0100
0010
0100
0001
1000
0100
0010
0001
1000
,
0010
0100
0101
0001
1001
0000
0000
0000
,
1001
0000
0001
0000
0100
0010
0000
1000
0000
0000
0001
0000
0100
0010
0000
1000
,
1001
0000
0001
0000
0100
0010
0000
1000
0001
0000
0010
0000
0100
1000
0000
0001
,
1001
0000
0000
1001
0000
0000
0101
0000
0000
0101
0000
0000
1010
0000
0000
1010
0000
0000
0100
0010
0100
0010
0100
0010
,
0100
0000
0100
0000
0010
1000
0000
0001
1000
0100
0010
0001
1000
0010
0000
0100
,
0001
0000
1000
0100
1000
0000
0001
0010
0001
0000
1000
0100
0010
0100
1000
0001
,
0100
0000
0000
0000
0000
0000
0010
0000
0000
0000
0000
0000
1000
0000
0000
0000
0000
0000
0001
0000
0000
0000
0000
0000
1000
0000
0000
0100
0000
0000
0010
0000
0000
0001
0000
0000
1000
0000
0100
0000
0010
0000
0001
0000
0000
0000
0000
0000
,
1000
0100
0010
0100
1000
0001
0100
0010
0100
0001
1000
0100
0010
0100
1000
0001
,
0100
0110
0000
1001
1001
0000
0000
0000
,
1000
0000
0001
0100
0001
0100
0010
1000
0001
0000
0010
0100
1000
0001
0100
0000
,
1010
0000
1000
0100
0010
0100
1000
0010
1000
0000
0001
0100
0010
1000
0100
0000
,
1100
0000
1000
0001
0100
0010
0000
1000
0100
0000
0010
0001
0100
0010
1000
0000
,
0001
0100
0001
0100
0010
1000
0010
0100
0001
0100
0010
1000
0001
0000
0100
0000
,
1001
0000
0001
0000
0100
0010
1000
0100
0010
0000
0001
0100
0010
1000
0001
0000
,
1001
0000
1000
0100
0010
0001
0010
0100
1000
0000
0001
0100
0010
1000
0100
0000
,
0010
0000
0001
0100
0010
1000
0000
0001
0100
0000
0100
0000
0010
0000
0010
0000
,
1001
0000
0000
0001
0000
0000
0101
0000
0000
0100
0000
0000
0110
0000
0000
0000
0000
0000
1000
0001
1000
0001
1000
0001
,
1000
0000
0100
1000
0100
0010
0001
0100
0010
1000
0100
0010
0001
1000
0010
0100
,
0001
0010
0001
1000
0100
0010
0001
0010
0100
1000
0001
0100
0010
0100
0001
1000
,
0010
0100
0001
0010
0001
1000
0100
0010
0001
0010
0100
1000
0001
0100
0010
1000
,
0001
0100
0010
0100
0001
1000
0100
0010
0001
0010
0100
1000
0001
0000
1000
0000
,
1001
0000
0010
0000
0100
0000
0001
0000
0100
0000
0010
1000
0100
1000
0001
0000
,
1001
0000
0010
0000
0100
0001
0000
0100
0010
0000
1000
0100
0010
0001
1000
0000
,
1001
0000
0001
0000
0100
0010
0000
0010
0100
0000
0110
0000
1001
0000
1001
0000
,
0101
0000
0000
0000
0000
0000
0001
0000
0000
0100
0000
0000
0010
0000
0000
0000
0000
0000
1000
0000
0000
0000
0000
0000
0100
0000
0000
0000
0000
0000
0010
0000
0000
0001
0000
0000
1000
0000
0100
0000
0010
0000
0100
0000
1000
0000
0001
0000
,
0100
0000
0010
1000
0010
0000
0100
0001
0100
0000
0010
0100
0010
1000
0001
0000
,
1001
0000
1000
0100
0010
0000
0001
0010
0100
0000
1000
0001
0100
0010
1000
0000
,
1001
0000
0001
0100
0010
1000
0100
0010
0001
0000
1000
0010
0100
0001
1000
0000
,
0100
0000
0000
0010
0000
0000
0100
0000
0000
0010
0000
0000
0001
0000
0000
1000
0000
0000
0001
0000
0000
1000
0000
0000
0010
0000
0000
0100
0000
0000
0010
0000
0000
0100
0000
0000
0001
0000
0000
0000
0000
0000
1000
0000
0100
0000
1000
0000
,
0100
0000
0010
0000
0001
1000
0000
0010
0000
0000
0100
0001
0100
0010
1000
0000
,
0001
0000
0100
0000
0010
1000
0000
0100
0000
0000
0010
0001
0100
0010
1000
0000
,
0001
0000
0100
0010
1000
0001
0000
0100
0010
0000
0010
0000
1000
0000
1000
0000
,
1001
0000
0000
0001
0000
0000
0101
0000
0000
0100
0000
0000
0110
0000
0000
0000
0000
0000
0010
0100
0001
1000
0010
0100
,
0010
0000
0100
0001
0100
0000
0010
1000
0010
0000
0100
0001
1000
0100
0010
0000
,
1001
0000
0001
0100
0010
1000
0100
0010
0001
1000
0010
0100
0001
1000
0001
0000
,
1000
0000
0010
0000
0100
0001
0000
0001
0100
0000
0010
1000
0100
1000
0001
0000
,
0100
0000
0000
0010
0000
0000
0100
0000
0000
0001
0000
0000
1000
0000
0000
0100
0000
0000
0010
0000
0000
0100
0000
0000
1000
0000
0000
0001
0000
0000
0100
0000
0000
0010
0000
0000
1000
0000
0000
0000
0000
0000
0100
0000
0010
0000
0100
0000
,
0010
0001
1001
1000
1010
0010
0110
0100
,
1010
0000
0100
0001
1000
0000
0010
0000
0110
0000
0100
0001
0100
0010
1000
0000
,
0001
0100
0010
1000
0100
0010
0001
0100
0010
1000
0001
0010
0100
1000
0001
0100
,
0010
0000
0000
0000
0000
0000
1001
0000
0000
0001
0000
0000
0100
0000
0000
0000
0000
0000
0010
1000
0010
1000
0010
1000
,
0001
0000
0100
0000
0010
0000
1000
0000
0001
0000
0100
0010
0000
0100
0010
0000
,
1000
0000
0001
0100
0010
0000
1000
0000
0100
0000
0010
0001
0000
0001
0010
0000
,
0100
0000
1000
0000
0001
0000
0100
0000
0010
0000
1000
0100
0000
0010
0001
0000
,
2000
0000
3020
0000
0230
0000
0302
0000
2003
0000
3100
0010
0100
0000
0010
0000
,
0001
0000
1000
0000
0001
0000
0100
0010
0100
0000
0001
1000
0000
0010
0100
0000
,
0001
0000
1000
0010
0100
0000
0001
0000
1000
0000
0100
0010
0001
0010
0100
0000
,
1000
0000
0001
0000
1000
0000
0010
0100
0010
0000
1000
0001
0000
0010
0100
0000
;
