#TITLE:SpeedCore Lacrima Fav;
#SUBTITLE:;
#ARTIST:Gabba front berlin;
#TITLETRANSLIT:;
#SUBTITLETRANSLIT:;
#ARTISTTRANSLIT:;
#CREDIT:;
#BANNER:Lacrima FAV bn.png;
#BACKGROUND:Lacrima FAV.png;
#LYRICSPATH:;
#CDTITLE:KOMBO.png;
#MUSIC:gabba front berlin - Speedcore Lacrima fav .mp3;
#OFFSET:-0.013;
#SAMPLESTART:95.971;
#SAMPLELENGTH:16.860;
#SELECTABLE:YES;
#BPMS:0.000=120.102,64.000=240.205,308.000=240.205,312.000=480.411,569.000=60.122,596.000=479.991,1104.000=240.201;
#STOPS:308.000=2.100
,593.000=3.280
,1103.000=0.500
,1198.000=0.400
;
#BGCHANGES:;
// cache tags:
#FIRSTBEAT:16.000;
#LASTBEAT:1168.000;
#SONGFILENAME:Songs/Definitive Keyboard Megapack/Speedcore Lacrima fav - gabba front berlin[KOMBO]/Speedcore.sm;
#HASMUSIC:1;
#HASBANNER:1;
#MUSICLENGTH:263.702;
// end cache tags

//---------------dance-single - Kombo----------------
#NOTES:
     dance-single:
     Kombo:
     Hard:
     15:
     1.000,1.000,1.000,0.197,0.102,1311.000,941.000,52.000,0.000,22.000:

0000
0000
0000
0000
,
0000
0000
0000
0000
,
0000
0000
0000
0000
,
0000
0000
0000
0000
,
0011
0000
0010
0000
1010
0000
0100
0010
0100
0000
2200
0000
3310
0000
1000
0001
,
1000
0000
0022
0000
0133
0000
1000
0001
1000
0000
0220
0000
0331
0000
0010
0001
,
1100
0000
0100
0000
0011
0000
1000
0001
1000
0000
0022
0000
0133
0000
0001
1000
,
0100
0000
2020
0000
3031
0000
0100
0010
0100
0000
2002
0000
3103
0000
0001
0100
,
1010
0000
1000
0000
0101
0000
0010
0100
0010
0000
0202
0000
1303
0000
0100
0010
,
0100
0000
2020
0000
3031
0000
0100
0010
0100
0000
2002
0000
3103
0000
0001
0100
,
0011
0000
0010
0000
1100
0000
0001
1000
0001
0000
2200
0000
3310
0000
1000
0001
,
1000
0000
0000
0000
0022
0000
0000
0000
0133
0000
0000
0000
1000
0000
0001
0000
1000
0000
0000
0000
0220
0000
0000
0000
1331
0000
0000
0000
0010
0001
0000
0100
,
1000
0000
0000
0000
0010
0000
0000
0000
0100
0000
0000
0000
0001
0000
0000
0000
1000
0000
0000
0000
0010
0000
0000
0000
0100
0000
0000
0000
0001
0010
0100
0000
,
1000
0000
0100
0000
0001
0000
1000
0000
0010
0000
0100
0000
0001
0000
0010
0100
,
0010
0100
0010
0100
0010
0100
0010
0100
,
0010
0000
0000
0000
0100
0000
0010
0000
0100
0000
0010
0000
0100
0000
0010
0000
0100
0000
0010
0000
0100
0000
0010
0000
0001
1000
0001
0000
1000
0001
1000
0000
,
0110
1100
0011
0110
,
1100
0000
0101
0000
0011
0000
0011
0110
,
1100
0110
1100
1001
,
1100
0000
0011
0000
1100
0000
0101
0011
,
0110
0011
1010
0101
,
1100
0011
0110
0101
,
0110
0101
1100
0011
,
1100
0000
0000
0000
0000
0000
0000
0000
0110
0000
0000
0000
0000
0000
0000
0000
0101
0000
0000
0000
0000
0000
0000
0001
1100
0000
0000
0000
0000
0000
1000
0000
,
0011
0101
1100
0110
,
1001
0000
0000
0000
0000
0000
0000
0000
1100
0000
0000
0000
0000
0000
0000
0000
0110
0000
0000
0000
0000
0000
0000
0100
0011
0000
0000
0000
0010
0000
0000
0000
,
1010
1100
0011
0101
,
1100
0000
1010
0000
0110
0000
0001
1000
,
0011
0110
1100
0110
,
0011
0110
1100
0110
,
0011
0110
1100
0110
,
1000
0100
0000
0001
0010
1000
0100
0010
0001
0000
0001
0010
0100
1000
0100
0010
,
1100
0001
0110
1000
0101
0010
1100
0001
,
0110
0000
0001
0000
1100
0000
0001
0000
0110
0000
0001
0100
1010
0000
0011
0000
,
0110
1000
0101
1000
0110
0001
1010
0001
,
0101
1000
0110
1000
0110
1000
0011
0110
,
0011
1000
0011
0100
1010
0100
0011
1000
,
0110
0001
1100
0010
0101
1000
0110
1000
,
0011
1000
0110
1000
0101
0010
1100
0010
,
0101
0000
0010
0000
1100
0000
0001
0000
0110
0000
0001
0100
1010
0000
0011
0000
,
0110
1000
0101
1000
0101
0010
1001
0100
,
1010
0001
1010
0100
0011
1000
0011
0110
,
0011
1000
0110
0001
1010
0100
0011
1000
,
0110
0001
0110
1000
0011
0100
1010
0101
,
0110
0001
1010
0001
1100
0001
0110
1000
,
0101
0010
1001
0100
1010
0001
0110
0001
,
1010
0001
1000
0001
1000
0001
1000
0001
,
1000
0001
1000
0001
1000
0001
1000
0011
,
1100
0000
0000
0000
,
1100
0000
0000
0000
0001
0000
0000
0000
0001
0000
0000
0010
0001
0000
0001
0000
,
1100
0001
1100
0001
,
0001
0000
0000
0000
1100
0000
1100
1100
,
1100
0001
0001
0000
,
1100
0001
1100
0001
,
1100
1100
0000
0000
,
0000
0000
0000
0000
0000
0001
0001
0001
,
1100
0001
0001
0001
,
1100
0000
0000
0000
0001
0000
0000
0000
0001
0000
0000
0010
0001
0000
0001
0000
,
1100
0001
1100
0001
,
0001
0000
0001
0000
1100
0000
1100
1100
,
1100
0001
0001
0001
,
1100
0001
1100
0001
,
1100
1100
0000
0000
,
0000
0000
0000
0000
,
0011
0000
0010
0000
1100
0000
1000
0001
,
1000
0000
0022
0000
1033
0000
1000
0001
,
1000
0000
2200
0000
3301
0000
0100
0010
,
0100
0000
0220
0000
1330
0000
0100
0010
,
1100
0000
0100
0000
0011
0000
0001
1000
,
0001
0000
2200
0000
3301
0000
0001
1000
,
0001
0000
0022
0000
1033
0000
0010
0100
,
0010
0000
0220
0000
0331
0000
0010
0100
,
1010
0000
1000
0000
0101
0000
0100
0010
,
0100
0000
2020
0000
3130
0000
0100
0010
,
0100
0000
0202
0000
0313
0000
0001
1000
,
0001
0000
2002
0000
3103
0000
1000
0001
,
1000
0000
0000
0000
,
0000
0000
0000
0000
,
0110
1100
0011
0110
,
0011
0000
0110
0000
0101
0000
1000
0100
,
0010
0011
0101
0110
,
0101
1010
0110
1100
,
0101
0011
1100
0110
,
0011
1100
0101
1100
,
0110
1100
0011
0110
,
0011
0110
0101
0110
,
1010
0110
0101
0110
,
1100
0110
0101
1100
,
0110
0011
1100
0110
,
0011
1100
0101
0110
,
0101
0011
0110
1001
,
1010
0101
0110
1010
,
0101
0110
1001
0011
,
0110
0011
1100
0110
,
1100
0110
1010
0110
,
0101
0110
1010
0110
,
1010
0110
1100
1010
,
0110
1001
0011
0110
,
1100
0011
1010
0011
,
0110
0011
1100
0110
,
1100
0110
1010
0110
,
0101
0110
1010
0110
,
1010
0110
1001
0011
,
0110
1100
0011
0110
,
1100
0011
1010
0110
,
1010
1100
0110
1001
,
0101
1010
0110
0101
,
0110
1100
0011
1100
,
0110
0011
0110
1001
,
1010
0000
0000
0000
0000
0000
0001
0010
,
1100
1100
0011
0110
,
0011
0110
0101
0110
,
1000
0101
0110
1010
,
0101
0110
0101
1100
,
0110
0011
1100
0110
,
0011
0000
0000
1100
0000
0000
0101
0000
0000
1000
0100
0010
,
0001
0000
0001
0010
0100
1000
0001
0000
0000
0000
0000
0000
,
1000
0000
0100
0000
0010
0000
0001
0000
0000
0100
0000
0000
0001
0000
0010
0000
0100
0000
1000
0000
0000
0000
0000
0000
,
1010
0110
0101
0110
,
1001
0110
0101
1100
,
0110
0011
1100
0011
,
0110
0101
1100
0110
,
0101
0011
0110
1001
,
1010
0101
1001
0110
,
1010
0101
0110
1010
,
0101
0000
0000
0101
,
1001
0101
1010
1001
,
1010
1001
0011
1001
,
1100
1001
0011
1001
,
0011
0101
1010
0101
,
1001
1010
0101
1001
,
1010
0101
0011
0101
,
1001
0101
1010
1001
,
1010
1001
0011
1001
,
1100
1001
0011
1001
,
0101
1100
1001
0101
,
1001
1010
0101
1001
,
1010
0101
0011
1001
,
0011
1010
1001
0110
,
1100
0011
1001
1100
,
1010
0110
0101
0000
,
1010
0000
0000
0000
,
0000
0000
2222
3333
0100
0000
0100
0000
,
0200
0310
0010
0010
,
0020
1030
1000
1000
,
2000
3001
0001
0001
,
0002
0103
0100
0100
,
0200
0310
0010
0010
,
0020
1030
0000
0000
,
0110
0011
1100
0110
,
1100
0000
0110
0000
1010
0000
0001
0010
,
0100
1100
1010
0110
,
1010
0101
0110
0011
,
1010
1100
0011
0110
,
1100
0011
1010
0011
,
0110
0011
1100
0110
,
1100
0110
1010
0110
,
0101
0110
1010
0110
,
0011
0110
1010
0011
,
0110
1100
0011
0110
,
1100
0011
1010
0110
,
1010
1100
0110
1001
,
0101
1010
0110
0101
,
1010
0110
1001
1100
,
0110
1100
0011
0110
,
0011
0110
0101
0110
,
1010
0110
0101
0110
,
0101
0110
0011
0101
,
0110
1001
1100
0110
,
0011
1100
0101
1100
,
0110
1100
0011
0110
,
0011
0110
0101
0110
,
1010
0110
0101
0110
,
0101
0110
1001
1100
,
0110
0011
1100
0110
,
0011
1100
0101
0110
,
0101
0011
0110
1001
,
1010
0101
0110
1010
,
0110
0011
1100
0011
,
0110
1100
0110
1001
,
0000
0000
0000
0000
0000
0000
0000
0000
0000
0000
1000
0100
,
0011
0110
1100
0110
,
1100
0110
1010
0110
,
0001
1010
0110
0101
,
1010
0110
1010
0011
,
0110
1100
0011
0110
,
1100
0000
0011
0000
1000
0100
0010
0000
,
0001
0010
0100
0000
0000
0000
0100
0010
,
0001
0000
1000
0100
0010
0001
1100
0000
,
0101
0110
1010
0110
,
1001
0110
1010
0011
,
0110
1100
0011
1100
,
0110
1010
0011
0110
,
1010
1100
0110
1001
,
0101
1010
1001
0110
,
0101
1010
0110
0101
,
0000
0000
0011
0110
,
1001
1010
0101
1001
,
0101
1001
1100
1001
,
0011
1001
1100
1001
,
1100
1010
0101
1010
,
1001
0101
1010
1001
,
0101
1010
1100
1010
,
1001
1010
0101
1001
,
0101
1001
1100
1001
,
0011
1001
1100
1001
,
1010
0011
1001
1010
,
1001
0101
1010
1001
,
0101
1010
1100
1001
,
1100
0101
1001
0110
,
0011
1100
1001
0011
,
0101
0110
1010
0110
,
0000
0000
0000
0110
,
1100
0011
0110
0011
,
0110
0101
1100
0110
,
0011
0101
0110
0101
,
1010
0110
1100
0101
,
0011
1100
0110
1100
,
0110
0000
0011
0000
1000
0100
0010
0000
,
0001
0010
0100
0000
0000
0000
0100
0010
,
0001
0000
1000
0100
0010
0001
1100
0000
,
0110
0101
0110
1100
,
0110
0101
1100
0110
,
0011
1100
0110
0011
,
1100
0101
0110
0101
,
0011
0110
1001
1010
,
0101
0110
1010
0101
,
0110
1001
0011
1100
,
0000
0000
0110
1100
,
0110
1010
0110
0101
,
0110
1010
0110
1010
,
0110
1100
1010
0110
,
1001
0011
0110
1100
,
0011
1010
0011
0110
,
0011
1100
0110
1100
,
0110
1010
0110
0101
,
0110
1010
0110
1010
,
0110
1001
0011
0110
,
1100
0011
0110
1100
,
0011
1010
0110
1010
,
1100
0110
1001
0101
,
1010
0110
0101
0110
,
1100
0011
1100
0110
,
0011
0110
1001
1010
,
0110
1100
0011
0110
,
0011
0110
0101
1100
,
1010
0011
0101
0110
,
0101
1010
0110
1100
,
0101
0011
1100
0110
,
0011
1100
0101
1100
,
0011
0000
1100
0000
0000
0100
0010
0001
,
0000
0010
0100
1000
0000
0000
0100
0010
,
0001
0000
0010
0100
1000
0100
0011
0000
,
1100
0110
0101
1100
,
0110
0011
1100
0110
,
0011
1100
0101
0110
,
0101
0011
0110
1001
,
1010
0101
0110
1010
,
0101
0110
1001
0011
,
0110
0011
1100
0110
,
0000
0000
1010
0110
,
0101
0110
1010
0110
,
1010
0110
1100
1010
,
0110
1001
0011
0110
,
1100
0011
1010
0011
,
0110
0011
1100
0110
,
1100
0110
1010
0110
,
0101
0110
1010
0110
,
1010
0110
1001
0011
,
0110
1100
0011
0110
,
1100
0011
1010
0110
,
1010
1100
0110
1001
,
0101
1010
0110
0101
,
0110
1100
0011
1100
,
0110
0011
0110
1001
,
1010
0000
0000
0000
,
1100
0110
0011
1100
,
0011
0000
1100
0000
0011
0000
1100
0001
,
1100
0110
1100
0101
,
0110
1100
0011
0101
,
0011
1100
0110
1100
,
1010
0101
0110
1100
,
1010
0101
0011
0110
,
1100
0110
1001
0011
,
1001
1010
0110
0011
,
1001
1100
0110
0000
,
0110
1100
1010
0011
,
0101
0110
1100
0110
,
0011
1100
0110
1100
,
0011
0110
0011
0000
,
0110
1100
0000
0110
,
1100
0001
0010
0001
0010
0001
0010
0001
,
1100
0000
0000
0000
;
