#TITLE:The Fall of an Empire;
#SUBTITLE:The Fall of an Empire (2006);
#ARTIST:Fairyland;
#TITLETRANSLIT:;
#SUBTITLETRANSLIT:;
#ARTISTTRANSLIT:;
#CREDIT:;
#BANNER:The Fall of an Empire BN.png;
#BACKGROUND:The Fall of an Empire BG.png;
#LYRICSPATH:;
#CDTITLE:Joe Dcd title.png;
#MUSIC:02-The Fall of an Empire.mp3;
#OFFSET:-0.180;
#SAMPLESTART:65.380;
#SAMPLELENGTH:12.000;
#SELECTABLE:YES;
#BPMS:0.000=185.001,100.000=92.500,112.000=185.001,152.000=92.500,159.000=185.001;
#STOPS:449.000=0.320
;
#BGCHANGES:;
// cache tags:
#FIRSTBEAT:0.000;
#LASTBEAT:1062.000;
#SONGFILENAME:Songs/Astronomic Metal Collection 2/(Joe D) The Fall of an Empire/02-The Fall of an Empire.sm;
#HASMUSIC:1;
#HASBANNER:1;
#MUSICLENGTH:354.971;
// end cache tags

//---------------dance-single - ----------------
#NOTES:
     dance-single:
     :
     Hard:
     12:
     1.000,1.000,1.000,0.758,0.868,2348.000,547.000,269.000,0.000,80.000:
0110
0000
0010
0100
1001
0000
0100
0010
1002
0000
0100
0000
0123
0000
0001
0000
,
1130
0100
1001
0010
0102
0100
1023
0230
,
1301
0000
0001
0100
1010
0000
0100
0010
1200
0000
0001
0000
1320
0000
0100
0000
,
1032
0000
0010
0000
0103
0010
1001
0100
0020
0000
0100
0030
1001
0010
0100
1000
,
0110
0000
0010
0100
1001
0000
0100
0010
1002
0000
1000
0000
0123
0000
0001
0000
,
1130
0100
1001
0010
0102
0010
1023
0230
,
1301
0000
0001
0100
1010
0000
0100
0010
1200
0000
0001
0000
1320
0000
0100
0000
,
1031
0000
0100
0000
0010
0000
1100
0000
0001
0000
0100
0000
1001
0010
0100
1000
,
0110
0000
0010
0100
1001
0000
0100
0010
1002
0000
1000
0000
0123
0000
0100
0000
,
1130
0100
1001
0010
0102
1000
1023
0230
,
1301
0000
0001
0100
1010
0000
0100
0010
1200
0000
0001
0000
1320
0000
0100
0000
,
1032
0000
0010
0000
0103
0010
1001
0100
0020
0000
0100
0030
1001
0010
0100
1000
,
0110
0000
0010
0100
1001
0000
0100
0010
1002
0000
0100
0000
0123
0000
0001
0000
,
1130
0100
1001
0010
0102
0010
1023
0230
,
1301
0000
0001
0100
1010
0000
0100
0010
1200
0000
0001
0000
1320
0000
0100
0000
,
1031
0000
0100
0000
0010
0000
1100
0000
0001
0000
0100
0000
1001
0010
0100
1000
,
0011
0000
1000
0000
1000
0000
0101
0000
1000
0000
1000
0000
0011
0000
1000
0100
,
1001
0100
1010
0100
0001
0100
0011
0100
,
0101
1000
1000
0110
1000
1000
0101
1000
,
0010
0100
0010
0100
1001
0000
1000
0000
0100
0000
1000
0000
0110
0000
0001
0000
,
0010
1000
0010
1000
0110
0000
0100
0000
0001
0000
0100
0000
1010
0000
0100
0000
,
0022
0000
0033
0000
0001
0100
0001
0100
2020
0000
3030
0000
1000
0100
1000
0100
,
0022
0000
0000
0000
0000
0000
0033
0000
0000
0000
0000
0000
0001
0000
0000
0010
0000
0000
0001
0000
0000
0010
0000
0000
2001
0000
0000
0000
3010
0000
0000
0000
0100
0000
0000
0000
1000
0000
0000
0000
0100
0000
0000
0000
0010
0000
0000
0000
,
1200
0000
0000
0000
0000
0000
0000
0000
0000
0000
0000
0000
0000
0000
0000
0000
0000
0000
0000
0000
0000
0000
0000
0000
0000
0000
0000
0000
0000
0000
0000
0000
0000
0000
0000
0000
0020
0030
0000
0000
0000
0000
0020
0030
0000
0000
0000
0000
,
0020
0030
0000
0000
0000
0000
0000
0000
0000
0000
0000
0000
0002
0003
0000
2000
3000
0000
0002
0003
0000
2000
3000
0000
0002
0003
0000
0000
0000
0000
0000
0000
0000
0000
0000
0000
0000
0000
0000
0000
0000
0000
0300
0000
0000
0000
0000
0000
,
0020
0000
0000
0000
0000
0000
0000
0000
0000
0000
0000
0000
0100
0000
0000
0000
0000
0000
0000
0000
0000
0000
0000
0030
0020
0000
0000
0000
0000
0000
0000
0000
0230
0000
0000
0000
0000
0000
0000
0000
0000
0000
0000
0000
1000
0000
0000
0000
0000
0000
0000
0000
0000
0000
0000
0000
0320
0000
0000
0000
0000
0000
0000
0000
,
0032
0000
0000
1000
0023
0000
0230
0000
0320
0000
0000
1000
0032
0000
0203
0000
,
2300
0000
0000
0001
0000
0000
3020
0000
0230
0000
0000
0010
2300
0000
3020
0000
,
1032
0000
0000
0023
,
1031
1001
0010
0100
1000
0001
0010
0100
1000
0001
0010
0100
1001
0000
0000
0000
,
1001
0000
0010
0001
0110
0000
1000
0100
1000
0000
0001
0100
0011
0000
0010
0100
,
0010
0000
1000
0100
1010
0000
0001
0100
0001
0000
1000
0000
0011
0000
1000
0000
,
0100
0000
0001
0100
0011
0000
0010
1000
0010
0000
1000
0100
1010
0000
0001
0100
,
0020
0032
1023
0230
0320
2030
3021
0230
,
0312
0100
0000
0100
,
1023
1000
0000
1000
,
1032
0100
0100
0010
0100
0100
0010
0100
,
1003
0000
0000
0011
0011
0000
1001
0000
0010
0000
0100
0000
0010
0000
1000
0000
,
0020
0000
0000
0000
0000
0000
0000
0000
0000
0000
0000
0000
0100
0000
0000
0000
0000
0000
0000
0000
0000
0000
0000
0030
0020
0000
0000
0000
0000
0000
0000
0000
0230
0000
0000
0000
0000
0000
0000
0000
0000
0000
0000
0000
1000
0000
0000
0000
0000
0000
0000
0000
0000
0000
0000
0000
0320
0000
0000
0000
0000
0000
0000
0000
,
0032
0000
0000
1000
0023
0000
0230
0000
0320
0000
0000
1000
0130
0000
1001
0000
,
0011
0100
0110
0000
0000
1000
1010
0000
,
0001
0000
1000
0000
0000
0010
1002
0023
,
0230
0320
2130
3000
0000
0010
0011
0000
,
0100
0000
0000
0000
0000
0000
0000
0000
0000
0000
0000
0000
0000
0000
0000
1000
0100
0010
1001
0000
0000
0100
0000
0000
,
0100
0000
0000
0100
0000
0000
1001
0000
0000
0000
0000
0000
1100
0000
0110
0000
0110
0000
0011
0000
0000
0000
0000
0000
,
0110
0000
1000
0000
0011
0000
0110
0110
,
0110
0000
0000
1000
0000
0000
1001
1001
1001
1001
0000
0000
,
0101
0000
1000
0000
0110
0000
0011
1100
,
0011
0000
0000
0110
0000
0000
0000
0000
1000
0011
0000
0000
,
0110
0000
1000
0000
0101
0000
1010
1010
,
1010
0000
0001
1000
0110
0000
0110
0000
0110
0000
0110
0000
0000
0000
0001
1000
,
0110
0000
0110
0000
0110
0000
0110
0000
0000
0000
0001
1000
0110
0000
0110
0000
,
0110
0000
1020
1030
0101
0020
0130
0020
,
2031
3000
0020
0230
0302
0000
0013
0000
1100
0000
0002
0000
1003
0000
0002
0000
,
0113
0002
0023
0130
1001
0020
1030
0020
,
1031
0000
0100
0010
0002
0023
0230
0320
0230
2300
3200
0320
0032
0023
0032
0203
,
0302
0023
0032
2003
3020
0000
0130
0000
1001
0000
0020
0100
1030
0000
0020
0000
,
1230
0000
0302
0000
0023
0000
0130
0000
1001
0000
0020
0000
1030
0100
0020
0001
,
1130
0020
1031
0100
0011
1000
0000
0110
,
0100
0000
0100
0000
1001
0010
0100
1000
0001
0010
0100
1000
0001
0010
0100
1000
,
0110
0000
0000
0000
1001
0000
0001
0010
1100
0000
1000
0000
1000
0000
1000
0000
,
1001
0000
0200
0320
0032
0023
0230
2300
3002
0023
0230
2300
3002
0023
0230
2300
,
3002
0023
0230
2300
3100
0000
0100
0000
0011
0000
0010
0000
0001
0000
0010
0000
,
0101
1000
0001
0010
1001
0010
0100
1000
,
0100
0000
1000
0010
0102
0000
0000
0000
1000
0000
0000
0000
0000
0000
0000
0000
,
1000
0003
2100
0000
0001
0000
0000
0000
,
0001
3000
1002
0000
0010
0000
0000
0000
,
0010
0000
0010
0100
1003
0000
0000
1001
1001
0000
0110
0000
0110
0000
1000
0000
,
1000
0000
0000
1000
0000
0000
0001
0000
0000
0000
0000
0000
1000
0000
0100
0000
1000
0000
0011
0000
0000
0000
0000
0000
,
0001
0100
0001
1000
0000
0000
0010
0100
0010
1001
0000
0000
,
0010
0000
0000
0100
0000
0000
1000
0100
1000
0101
0000
0000
,
0001
1000
0001
0100
0000
0000
1000
0100
1000
0011
0000
0000
,
0100
0000
0000
1000
0000
0000
0010
0100
0010
0101
0000
0000
,
0010
0100
0010
1000
0000
0000
0010
0001
0010
1001
0000
0000
,
0001
0000
0000
0100
0000
0000
1000
0100
1000
0011
0000
0000
,
0001
0000
0000
0000
0010
0000
0000
0000
0001
0000
0000
0000
1000
0000
0000
0000
0000
0000
1000
0000
0000
0000
0000
0000
0100
0000
0000
0000
0000
0000
0100
0000
0000
0010
0000
0000
2002
0000
0000
0000
0000
0000
0000
0000
0000
0000
0000
0000
,
3023
0000
0030
0000
0101
0000
0001
0010
1000
0000
0101
0000
0001
0100
1000
0000
,
0101
0000
0001
0010
1000
0000
1000
0100
0010
0000
0101
0000
0001
0010
1000
0000
,
0101
0000
0001
0100
0010
0000
0010
0000
1001
0000
0010
0000
0010
0000
1000
0000
,
0110
0000
0010
0000
1000
0000
0100
0000
0101
0000
0100
0010
0100
0000
0100
0000
,
0110
0000
0100
0000
1001
0000
0010
0000
0100
0000
1001
0000
0100
0010
0100
0000
,
1001
0000
0000
0010
0000
0000
1001
0000
0000
0100
0000
0000
1000
0000
0000
0011
0000
0000
0100
0000
1000
0000
0100
0000
,
0011
0100
1010
0001
1000
0110
0001
1000
,
0110
0000
0001
0000
1000
0000
0000
0110
0110
0000
1001
0000
1001
0000
0100
0000
,
0100
0000
0100
0000
1010
0000
1000
0100
1010
0000
0001
0100
0001
0000
0010
0100
,
0011
0000
1000
0100
1000
0000
0001
0010
1100
0000
1000
0100
0010
0000
0001
1000
,
0101
0000
0010
0100
0010
0000
1000
0100
1010
0000
0001
0010
0001
0000
0010
0100
,
1001
0000
0100
0010
0100
0000
1000
0000
0000
0001
0010
0100
1001
0000
0100
0000
,
1001
0000
0000
0000
0010
0100
0010
0100
1001
0000
0100
0000
0010
0000
0000
0110
,
0110
0000
1001
0000
0010
0000
0100
0000
1001
0000
0010
0001
0010
0000
0100
1000
,
0110
0000
0001
1000
0001
0000
0010
0100
1010
0000
1000
0100
0010
0000
0001
0010
,
1001
0000
0010
0100
1000
0000
0100
1000
0110
0000
0001
0010
0001
0000
1000
0100
,
1001
0000
0000
0000
0000
0000
0010
0000
0000
0100
0000
0000
0010
0000
0000
0000
0000
0000
1000
0000
0000
0000
0000
0000
0000
0000
0000
0000
1000
0000
0100
0000
0010
0000
0001
0000
0110
0000
0000
0000
0000
0000
0000
0000
0000
0000
0000
0000
,
1001
0000
0000
0000
0100
0000
0100
0000
1000
0100
0010
0100
1001
0000
0010
0000
,
0100
0000
0010
0000
0000
0000
1000
0000
0000
0000
0000
0000
0110
0000
0000
0000
0000
0000
1000
0000
0000
0100
0000
0000
1010
0000
0000
0000
0000
0000
0001
0000
0000
1000
0000
0000
0001
0000
0000
0000
0000
0000
0010
0000
0000
0100
0000
0000
,
0011
0000
0100
0010
0100
0000
0001
1000
0110
0000
1000
0100
0010
0000
1000
0010
,
0101
0000
1000
0010
1000
0000
0001
0010
1100
0000
0010
0100
0010
0000
1000
0001
,
0110
0000
0100
0010
1001
0000
0100
0000
0000
0000
1000
0100
0011
0000
0000
0000
,
0110
0000
0000
0000
0000
0000
1000
0000
0000
0100
0000
0000
0000
0000
0100
0010
0100
0010
1001
0000
0000
0100
0000
0000
,
0100
0000
0100
0000
0011
0000
0100
0010
1001
0000
0010
0100
1000
0000
0001
0010
,
0101
0000
1000
0010
1000
0000
0001
0010
0101
0000
0010
0100
0010
0000
1000
0100
,
1010
0000
0001
0010
0100
0000
1000
0001
0110
0000
1000
0001
0010
0000
0001
0100
,
1010
0000
0001
1000
0001
0000
0100
0000
0000
0000
0001
0000
1010
0000
0000
0000
,
0101
0000
0000
0000
1000
0000
1000
0000
0000
0000
0001
1000
0110
0000
1000
0000
,
1001
0000
0000
0000
0110
0000
0010
0100
1001
0000
0100
0010
1002
0000
0100
0000
,
0123
0001
1130
0100
1001
0010
0102
0100
,
1023
0000
0230
0000
1301
0000
0001
0100
1010
0000
0100
0010
1200
0000
0001
0000
,
1320
0000
0100
0000
1032
0000
0010
0000
0103
0010
1001
0100
0020
0000
0100
0030
,
1001
0010
0100
1000
0110
0000
0010
0100
1001
0000
0100
0010
1002
0000
1000
0000
,
0123
0001
1130
0100
1001
0010
0102
0010
,
1023
0000
0230
0000
1301
0000
0001
0100
1010
0000
0100
0010
1200
0000
0001
0000
,
1320
0100
1031
0100
0010
1100
0001
0100
,
1001
0010
0100
1000
0110
0000
0000
0000
0010
0000
1000
0000
0010
0000
0100
0000
,
1001
0000
0220
0330
1000
0100
0110
0001
,
0120
0031
0001
0001
,
1001
0010
0001
0010
0100
1000
0010
0001
0010
0100
1000
0001
1100
0000
0000
0000
,
0202
0000
0303
0100
1010
0100
0010
0100
,
0022
0000
0033
1000
0110
1000
0100
1000
,
2200
0000
3300
1000
0011
0100
0010
0100
,
1001
0010
0100
1000
1010
0100
0010
0100
,
2002
0000
3003
1000
0110
1000
0010
1000
,
2020
0000
3030
0001
1100
1000
0100
1000
,
0110
0000
0000
0000
1000
0000
0000
0000
0011
0000
0000
0000
0002
2003
3020
2030
,
3002
0003
0002
1003
,
1000
0000
0100
0000
0001
0000
0100
0000
0001
0000
0010
0100
1000
0000
0010
0000
1000
0000
0100
0000
0001
0000
0100
0000
0001
0000
0010
0100
1000
0000
0010
0000
,
1000
0000
0100
0000
0010
0000
0100
0000
0001
0000
0010
0100
1000
0000
0010
0000
1000
0000
0100
0000
0010
0000
0100
0000
0001
0000
0010
0100
1000
0000
0010
0000
,
1000
0000
0100
0000
0001
0000
0100
0000
0001
0000
0010
0100
1000
0000
0010
0000
1000
0000
0100
0000
0001
0000
0100
0000
0001
0000
0010
0100
1000
0000
0010
0000
,
0001
0000
0010
0000
0100
0000
1000
0000
0001
0000
0010
0100
1000
0000
0100
0000
0001
0000
0010
0000
0100
0000
1000
0000
0001
0000
0010
0100
1000
0000
0100
0000
,
0001
0000
0100
0000
1000
0000
0100
0000
0001
0000
0010
0100
1000
0000
0100
0000
0001
0000
0100
0000
1000
0000
0100
0000
0001
0000
0010
0100
1000
0000
0100
0000
,
0001
0000
0010
0000
0100
0000
1000
0000
0001
0000
0010
0100
1000
0000
0100
0000
0001
0000
0010
0000
0100
0000
1000
0000
0001
0000
0010
0100
1000
0000
0100
0000
,
1001
0000
0010
0000
1000
0100
0010
0001
0110
0000
1000
0000
0001
0000
1000
0000
,
0100
0000
1000
0000
0001
0000
1000
0010
0101
0000
0010
0000
0100
0000
1000
0001
,
0110
1000
0100
0010
1001
0010
0100
1000
,
0001
0000
0010
0000
0100
0000
1000
0010
0101
0000
1000
0100
0010
0001
0010
0100
,
1000
0000
0202
0000
0000
0303
1010
0000
,
0100
0000
0202
0000
0000
0303
1010
0000
,
0011
0000
0000
1000
0100
0010
0100
0010
,
1002
0100
0100
0010
0100
0100
0010
0003
,
0010
1000
0100
1000
0001
1000
0100
0010
0100
1000
0100
0010
0001
0010
0100
1000
,
0100
0000
1000
0000
0100
0000
0010
0000
0001
0000
0010
0100
1000
0000
0001
0000
0100
0000
1000
0000
0100
0000
0010
0000
0001
0000
0010
0100
1000
0000
0010
0000
,
0100
0000
0000
0000
0000
0000
0000
0000
0000
0000
0000
0000
1000
0000
0000
0000
0000
0000
0000
0000
0000
0000
0000
0000
0100
0000
0000
0000
0000
0000
0000
0000
0000
0000
0000
0000
0010
0000
0000
0000
0000
0000
0000
0000
0000
0000
0000
0000
0001
0000
0000
0000
0000
0000
0000
0000
0000
0000
0000
0000
0010
0000
0000
0000
0000
0000
0100
0000
0000
0000
0000
0000
1000
0000
0000
0000
0000
0000
0000
0000
0000
0000
0000
0000
0100
0000
0000
0000
0000
0000
0000
0000
0000
1000
0000
0000
0001
0000
0000
0000
0000
0000
0000
0000
0000
0000
0000
0000
0010
0000
0000
0000
0000
0000
0000
0000
0000
0000
0000
0000
0100
0000
0000
0000
0000
0000
0000
0000
0000
0000
0000
0000
1000
0000
0000
0000
0000
0000
0000
0000
0000
0000
0000
0000
0001
0000
0000
0000
0000
0000
0000
0000
0000
0000
0000
0000
0010
0000
0000
0000
0000
0000
0000
0000
0000
0000
0000
0000
0100
0000
0000
0000
0000
0000
0000
0000
0000
0000
0000
0000
0001
0000
0000
0000
0000
0000
0000
0000
1000
0000
0000
0000
,
0001
0010
0100
1000
0001
0010
0100
1000
0020
0000
0030
0020
0000
0030
1000
0100
,
0020
0000
0000
0000
1030
0000
0100
0010
0002
0000
0000
0000
0013
1000
0100
0010
,
0001
1000
0100
1000
0010
1000
0100
1000
0001
1000
0100
1000
0010
1000
0100
1000
,
0001
0000
0010
0000
1000
0000
0001
0000
0010
0000
1000
0000
0001
0010
0100
0010
,
0001
0010
0100
1000
0001
0010
0100
1000
0001
0010
0100
1000
0001
0010
0100
1000
,
0001
1000
0100
0010
0100
0010
0001
1000
0100
0010
0100
0010
0001
0010
0100
1000
,
0010
0000
0000
0000
0000
0000
0000
0000
0000
0000
0000
0000
0001
0000
0000
0000
0000
0000
0000
0000
0000
0000
0000
0000
0000
0000
0000
0000
0010
0000
0000
0000
0000
0000
0000
0000
0000
0000
0000
0100
0000
0000
0000
0000
0000
0000
0000
0000
0001
0000
0000
0000
0000
0000
0000
0000
0000
0000
0000
0000
0010
0000
0000
0000
0000
0000
0000
0000
0000
0000
0000
0000
0100
0000
0000
0000
0000
0000
0000
0000
0000
0000
0000
0000
1000
0000
0000
0000
0000
0000
0000
0000
0000
0000
0000
0000
0001
0000
0000
0000
0000
0000
0000
0000
0000
0000
0000
0000
0010
0000
0000
0000
0000
0000
0000
0000
0000
0000
0000
0000
0100
0000
0000
0000
0000
0000
0000
0000
0000
0000
0000
0000
1000
0000
0000
0000
0000
0000
0000
0000
0000
0000
0000
0000
0001
0000
0000
0000
0000
0000
0000
0000
0000
0000
0000
0000
0010
0000
0000
0000
0000
0000
0000
0000
0000
0100
0000
0000
0000
0000
0000
0000
0000
0000
0000
0000
0000
0000
0000
0000
1000
0000
0000
0000
0000
0000
0000
0000
0000
0000
0000
0000
,
0100
0010
0100
1000
0200
0000
0000
0300
0010
0001
0010
0100
0020
0000
0000
0030
,
0010
0001
0010
0100
0001
0010
0100
1000
0001
0010
0100
1000
0100
0010
0001
0100
,
1000
0100
0010
1000
0100
0010
0001
0010
0100
0010
1000
0100
0010
0001
0010
0100
,
0010
0000
1000
0000
0100
0000
0010
0000
0001
0000
0010
0100
1000
0000
0100
0000
0001
0000
1000
0000
0100
0000
1000
0000
0001
0000
0100
0000
0001
0000
0100
0000
,
0020
0000
0000
0001
0000
0030
0120
0230
,
1320
0000
0000
0000
0100
0000
1030
0100
1001
0000
1001
0000
0100
0000
0100
0000
,
0011
0001
1000
0011
0001
1000
0101
0001
,
1000
0000
0001
0000
0001
0000
0110
0000
0010
0100
1000
0000
0110
0000
1000
0100
,
0010
0100
1010
0010
0000
1000
0011
0010
,
0000
0000
0010
0000
1001
0000
0100
0010
0001
0000
0001
0000
0101
0010
0100
1000
,
0110
0000
0010
0000
1000
0000
0110
0000
0010
0100
1000
0000
1010
0001
0010
0000
,
0110
0000
0010
0000
0001
0000
1010
0000
0010
0100
1000
0001
0120
0030
0001
0000
,
0100
0000
0100
0000
0010
0100
1001
0000
1001
0000
0001
0010
0100
0000
0100
0000
,
0001
0000
0010
0000
1001
0000
0000
0000
1001
0000
0000
0000
0010
0000
0100
0000
0010
0000
0000
0000
1000
0000
0000
0000
1010
0001
0000
0000
0010
0000
0000
0000
,
0011
0001
1000
0001
0011
0100
0001
0001
,
1000
0001
0001
0010
0101
0010
0100
1000
,
0010
0010
1000
0010
0110
1000
0010
0010
,
1001
0000
0000
0100
0000
0000
1100
0000
0000
0100
0000
0000
0010
0000
0001
0000
1000
0000
0001
0000
0010
0000
0100
0000
,
1001
0000
0000
1000
0110
0000
0100
0100
,
0010
0000
0000
1000
0011
0000
1000
1000
,
0001
0000
0000
0010
1001
0000
0010
0010
,
0001
0000
0000
0000
0000
0000
0010
0000
1001
0000
0010
0000
0000
0100
0000
0000
,
1001
0000
0000
1000
0110
0000
0100
0100
,
0010
0000
0000
1000
0011
0000
1000
1000
,
0001
0000
0000
0010
1001
0000
0010
0000
,
0100
1001
0000
1000
0011
1000
1000
1000
,
0011
0000
0000
1000
0110
0000
0100
0100
,
0010
0000
0000
1000
0011
0000
1000
1000
,
0001
0000
0000
0010
1001
0000
0010
0010
,
0001
0000
0000
0000
0000
0000
0010
0000
1001
0000
0000
0010
0000
0000
0100
0000
,
1001
0000
0000
0010
0101
0000
1000
1000
,
0010
0000
0000
1000
0011
0000
0100
0100
,
1001
0000
0000
1000
0011
0000
0100
0000
,
0110
0000
1000
0000
0101
0101
1000
1000
,
0001
0000
0000
1000
0100
1000
0011
0000
0000
0001
0100
0001
,
1000
0000
0000
0010
0100
0010
1001
0000
0000
0010
0000
0000
,
0100
0000
0000
1000
0100
1000
0101
0000
0000
0001
1000
0001
,
0100
0000
0000
1000
0100
1000
0011
0000
0000
0100
0000
0000
,
1000
0000
0000
0010
0100
0010
0101
0000
0000
0010
0100
0010
,
1000
0000
0000
0010
0001
0010
1001
0000
0000
0001
0000
0000
,
0100
0000
0000
1000
0100
1000
0011
0000
0000
0001
0010
0001
,
1000
0000
1000
0000
0100
0000
0100
0010
2002
0000
0000
0000
3023
0000
0030
0000
,
0101
0000
0001
0100
1000
0000
0101
0000
0001
0010
1000
0000
0101
0000
0001
0100
,
1000
0000
1000
0100
0010
0000
0101
0000
0001
0010
1000
0000
0101
0000
0001
0100
,
0010
0000
0010
0000
1001
0000
0010
0000
0010
0000
1000
0000
0110
0000
0010
0001
,
1000
0000
0100
0000
0101
0000
0100
0000
1000
0100
0010
0100
1001
0000
0100
0000
,
1001
0000
0010
0000
1100
0000
0010
0001
0100
0000
1001
0000
0010
0100
0010
0000
,
0101
0000
1000
0100
1000
0000
0110
0000
1000
0001
1000
0000
0011
0000
1000
0100
,
1001
0000
0010
0001
0110
0000
1000
0010
1100
0000
0010
0100
0011
0000
0100
0010
,
1000
0001
0010
0100
1000
0001
0010
0100
1000
0001
0010
0100
1001
0000
0100
0010
,
0100
0000
1000
0100
1010
0000
0001
0100
0001
0000
0010
0100
0011
0000
1000
0010
,
1000
0000
0100
0010
1001
0000
0100
1000
0100
0000
0001
0010
0101
0000
1000
0010
,
1000
0000
0001
0010
0101
0000
0010
0100
0010
0000
1000
0100
1010
0000
0001
0010
,
0100
0000
0000
1000
0000
0000
0000
0000
0000
1000
0100
0010
1001
0000
0000
0010
0000
0000
0101
0000
0000
0010
0000
0000
,
1000
0000
0000
1000
0000
0000
0000
0000
1000
0100
1000
0100
0011
0000
0000
0100
0000
0000
0100
0000
0000
0100
0000
0000
,
0011
0000
1000
0100
1001
0000
0010
0001
0010
0000
0100
1000
0110
0000
0001
1000
,
0001
0000
0010
0100
1010
0000
1000
0100
0010
0000
0001
0010
1001
0000
0010
0100
,
1000
0000
0100
1000
0110
0000
0001
0010
0001
0000
1000
0100
1001
0000
0010
0100
,
0010
0000
1000
0000
0000
0000
0001
0100
1010
0000
0100
0000
0011
0000
1000
0000
,
0100
0000
1000
0011
0011
0000
0011
0000
0011
0000
1000
0000
1000
0000
1000
0000
,
0110
0000
1000
0100
1010
0000
0001
1000
0001
0000
0010
0100
0011
0000
0100
0010
,
0100
0000
0001
1000
0110
0000
1000
0100
0010
0000
1000
0010
0101
0000
1000
0010
,
1000
0000
0001
0010
1100
0000
0010
0100
0010
0000
1000
0001
0110
0000
0100
0010
,
1001
0000
0100
0000
0000
0000
1000
0100
0011
0000
0000
0000
0110
0000
0000
0000
,
1000
0000
0100
0000
0000
0000
1000
0100
0011
0000
1000
0000
0110
0000
0000
0000
,
0011
0000
0100
0010
1001
0000
0010
0100
1000
0000
0001
0010
0101
0000
1000
0010
,
1000
0000
0001
0010
0101
0000
0010
0100
0010
0000
1000
0100
1010
0000
0001
0010
,
0100
0000
1000
0001
0110
0000
1000
0001
0010
0000
0001
0100
1010
0000
0001
1000
,
0001
0000
0100
0000
0000
0000
0001
0100
1010
0000
0000
0000
0100
0000
0000
0000
,
1000
0000
0000
0110
0000
0000
1001
1001
1001
1001
0000
0000
,
1100
0000
0000
0001
0010
0001
0110
0000
0000
0010
0100
0010
,
0100
0000
0000
0100
1000
0100
1001
0000
0000
0100
0000
0000
,
0010
0000
0000
0000
0000
0000
0001
0000
0010
0000
0001
0000
0110
0000
0000
0000
0000
0000
1000
0000
0000
0100
0000
0000
,
0020
0000
0030
0001
0210
0000
0001
0000
,
1300
0000
0000
0001
0010
0001
0110
0000
0000
0010
0100
0010
,
0100
0000
0000
0100
1000
0100
1001
0000
0000
0010
0000
0000
,
0100
0000
1000
0100
0021
0000
0130
1000
,
0200
0000
0000
0000
1000
0000
0000
0300
,
1100
0000
0000
0001
0010
0001
0110
0000
0000
0010
0100
0010
,
0100
0000
0000
0100
1000
0100
1001
0000
0000
0100
0000
0000
,
0010
0000
0000
0000
0000
0000
0001
0000
0010
0000
0001
0000
0110
0000
0000
0000
0000
0000
1000
0000
0000
0100
0000
0000
,
0020
0000
0030
0001
0210
0000
0001
0000
,
1300
0000
0000
0001
0010
0001
0110
0000
0000
0010
0100
0010
,
0100
0000
0000
0100
1000
0100
1001
0000
0000
0010
0000
0000
,
0100
0000
1000
0100
0021
0000
0130
1000
,
0200
0000
0000
0000
1301
0010
0100
0100
,
2001
0000
0000
3200
0321
0000
0032
2003
,
3002
0000
0000
0000
0000
0000
1000
0000
1013
0000
0100
0000
0100
0000
0010
0100
,
2020
0000
0000
0000
0000
3030
1100
0110
,
0202
0000
0000
0303
0022
0000
0000
0033
,
1001
0000
0000
0000
1001
0000
0000
0000
0010
0100
0010
0100
1001
0000
0000
0000
,
1001
0000
0000
0000
0000
0000
0000
0000
0000
0000
0000
0000
0001
0010
0100
1000
,
0110
0000
0010
0100
1001
0000
0100
0010
1002
0000
0100
0000
0123
0000
0001
0000
,
1130
0100
1001
0010
0102
0100
1023
0230
,
1301
0000
0001
0100
1010
0000
0100
0010
1200
0000
0001
0000
1320
0000
0100
0000
,
1032
0000
0010
0000
0103
0010
1001
0100
0020
0000
0100
0030
1001
0010
0100
1000
,
0110
0000
0010
0100
1001
0000
0100
0010
1002
0000
1000
0000
0123
0000
0001
0000
,
1130
0100
1001
0010
0102
0010
1023
0230
,
1301
0000
0001
0100
1010
0000
0100
0010
1200
0000
0001
0000
1320
0000
0100
0000
,
1031
0000
0100
0000
0010
0000
1100
0000
0001
0000
0100
0000
1001
0010
0100
1000
,
0110
0000
0010
0100
1001
0000
0100
0010
1002
0000
1000
0000
0123
0000
0100
0000
,
1130
0100
1001
0010
0102
1000
1023
0230
,
1301
0000
0001
0100
1010
0000
0100
0010
1200
0000
0001
0000
1320
0000
0100
0000
,
1032
0000
0010
0000
0103
0010
1001
0100
0020
0000
0100
0030
1001
0010
0100
1000
,
0110
0000
0010
0100
1001
0000
0100
0010
1002
0000
0100
0000
0123
0000
0001
0000
,
1130
0100
1001
0010
0102
0010
1023
0230
,
1301
0000
0001
0100
1010
0000
0100
0010
1200
0000
0001
0000
1320
0000
0100
0000
,
1031
0000
0100
0000
0010
0000
1100
0000
0001
0000
0100
0000
1001
0010
0100
1000
,
0011
0000
1000
0000
1000
0000
0101
0000
1000
0000
1000
0000
0011
0000
1000
0100
,
1001
0100
1010
0100
0001
0100
0011
0100
,
0101
1000
1000
0110
1000
1000
0101
1000
,
0010
0100
0010
0100
1001
0000
1000
0000
0100
0000
1000
0000
0110
0000
0001
0000
,
0010
1000
0010
1000
0110
0000
0100
0000
0001
0000
0100
0000
1010
0000
0100
0000
,
0022
0000
0033
0000
0001
0100
0001
0100
2020
0000
3030
0000
1000
0100
1000
0100
,
0022
0000
0033
0000
0100
0010
0100
0010
2200
0000
3300
0000
0010
0100
0010
0100
,
2002
0000
0000
0000
3003
0000
0100
0010
1001
0000
0000
0000
0100
0000
0000
0000
,
1001
0010
0100
0010
0001
0010
0100
1000
0001
0010
0100
1000
0001
0010
0100
1000
,
0220
0000
0330
0000
;
