#TITLE:Impatience;
#SUBTITLE:Einhander;
#ARTIST:Kenichiro Fukui;
#TITLETRANSLIT:;
#SUBTITLETRANSLIT:;
#ARTISTTRANSLIT:;
#CREDIT:;
#BANNER:Impatience.png;
#BACKGROUND:Impatience-bg.png;
#LYRICSPATH:;
#CDTITLE:!yesssss-cdtitle.png;
#MUSIC:Impatience.mp3;
#OFFSET:-0.351;
#SAMPLESTART:100.000;
#SAMPLELENGTH:12.000;
#SELECTABLE:YES;
#BPMS:0.000=155.000;
#STOPS:;
#BGCHANGES:;
// cache tags:
#FIRSTBEAT:4.000;
#LASTBEAT:420.000;
#SONGFILENAME:Songs/VGMP 2/Impatience (Yesssss)/Impatience.sm;
#HASMUSIC:1;
#HASBANNER:1;
#MUSICLENGTH:182.256;
// end cache tags

//---------------dance-single - ----------------
#NOTES:
     dance-single:
     :
     Hard:
     14:
     1.000,1.000,1.000,1.000,1.000,1394.000,523.000,367.000,0.000,4.000:
0000
0000
0000
0000
,
0010
0000
0001
1000
0000
0001
0100
1000
0010
0100
0001
1000
0020
0000
0000
0000
,
0130
0000
0001
1000
0000
0010
0100
0001
1000
0100
1000
0001
0020
0000
0000
0000
,
1030
0000
0100
0001
0000
1000
0001
0100
0001
1000
0010
0100
0002
0000
0000
0000
,
0103
0000
0001
1000
0000
0001
0100
0001
1000
0100
0001
0100
2000
0000
0000
0000
,
3002
0003
0002
0003
0012
0003
1002
0003
0000
0000
0010
0000
1000
0000
0001
0000
0010
0000
1000
0000
0001
0000
0100
0000
0020
0000
0000
0000
0000
0000
0000
0000
,
1030
0000
0000
0000
0000
0000
0000
0000
0001
0000
0000
0000
0100
0000
0000
0000
0000
0000
0000
0000
0001
0000
0000
0000
1000
0000
0000
0000
0001
0000
0000
0000
0010
0000
0000
0000
1000
0000
0000
0000
0100
0000
0000
0000
0001
0000
0000
0000
0020
0000
0000
0000
0000
0000
0000
0000
2000
0000
3000
0000
2000
0000
3000
0030
,
2001
3000
2000
3000
2010
3000
2100
3000
0000
0000
0001
0000
1000
0000
0100
0000
0001
0000
0100
0000
0001
0000
0010
0000
2000
0000
0000
0000
0000
0000
0000
0000
,
3001
0000
0000
0000
0000
0000
0000
0000
0100
0000
0000
0000
0001
0000
0000
0000
0000
0000
0000
0000
1000
0000
0000
0000
0001
0000
0000
0000
0100
0000
0000
0000
0010
0000
0000
0000
1000
0000
0000
0000
0001
0000
0000
0000
0100
0000
0000
0000
1020
0000
0000
0000
1000
0000
0000
0000
1000
0000
0000
0000
1000
0000
0000
0030
,
2001
0000
0000
0000
3000
0000
0000
0000
0010
0000
0000
0000
0100
0000
0000
0000
1010
0000
0000
0000
0001
0000
0000
0000
1000
0000
0000
0000
0001
0000
0000
0000
1200
0000
0000
0300
0010
0000
0000
0000
1000
0000
0000
0000
0100
0000
0000
0000
1002
0000
0000
0000
0000
0000
0000
0000
0000
0000
0000
0000
0000
0000
0000
0003
,
1020
0000
0000
0000
0030
0000
0000
0000
0001
0000
0000
0000
0100
0000
0000
0000
0011
0000
0000
0000
1000
0000
0000
0000
0001
0000
0000
0000
0100
0000
0000
0000
1002
0000
0000
0003
0010
0000
0000
0000
0100
0000
0000
0000
0001
0000
0000
0000
1200
0000
0000
0000
0000
0000
0000
0000
0000
0000
0000
0000
0000
0000
0000
0000
,
1320
0000
0000
0000
0030
0000
0000
0000
0001
0000
0000
0000
0010
0000
0000
0000
1001
0000
0000
0000
0100
0000
0000
0000
0001
0000
0000
0000
1000
0000
0000
0000
0201
0000
0000
0300
1000
0000
0000
0000
0001
0000
0000
0000
0010
0000
0000
0000
0201
0000
0000
0000
0000
0000
0000
0000
0000
0000
0000
0000
0000
0000
0000
0300
,
0021
0000
0000
0000
0030
0000
0000
0000
1000
0000
0000
0000
0100
0000
0000
0000
0011
0000
0000
0000
0100
0000
0000
0000
1000
0000
0000
0000
0001
0000
0000
0000
2010
0000
0000
3000
0100
0000
0000
0000
0001
0000
0000
0000
1000
0000
0000
0000
0120
0000
0000
0000
0000
0000
0000
0000
0000
0000
0000
0000
0000
0000
0000
0030
,
2001
0000
0000
0000
3000
0000
0000
0000
0010
0000
0000
0000
0100
0000
0000
0000
1010
0000
0000
0000
0001
0000
0000
0000
1000
0000
0000
0000
0001
0000
0000
0000
2100
0000
0000
3000
0010
0000
0000
0000
1000
0000
0000
0000
0100
0000
0000
0000
1002
0000
0000
0000
0000
0000
0000
0000
0000
0000
0000
0000
0000
0000
0000
0003
,
2010
0000
0000
0000
3000
0000
0000
0000
0001
0000
0000
0000
0100
0000
0000
0000
0011
0000
0000
0000
1000
0000
0000
0000
0001
0000
0000
0000
0100
0000
0000
0000
1002
0000
0000
0003
0010
0000
0000
0000
0100
0000
0000
0000
0001
0000
0000
0000
1200
0000
0000
0000
0000
0000
0000
0000
0000
0000
0000
0000
0000
0000
0000
0300
,
0012
0000
0000
0000
0003
0000
0000
0000
1000
0000
0000
0000
0001
0000
0000
0000
1010
0000
0000
0000
0100
0000
0000
0000
0010
0000
0000
0000
1001
0000
0000
0000
0210
0000
0000
0300
1000
0000
0000
0000
0001
0000
0000
0000
0010
0000
0000
0000
1200
0000
0000
0000
0000
0000
0000
0000
0000
0000
0000
0000
0000
0000
0000
0300
,
0012
0000
0000
0000
0003
0000
0000
0000
1000
0000
0000
0000
0001
0000
0000
0000
0110
0000
0000
0000
1000
0000
0000
0000
0001
0000
0000
0000
0100
0000
0000
0000
2010
0000
0000
3000
0001
0000
0000
0000
1000
0000
0000
0000
0100
0000
0000
0000
0021
0000
0000
0000
0001
0000
0000
0000
0001
0000
0000
0000
0001
0000
0000
0030
,
2001
0000
0000
0000
3000
0000
0000
0000
0010
0000
0000
0000
0100
0000
0000
0000
1010
0000
0000
0000
0001
0000
0000
0000
1000
0000
0000
0000
0011
0000
0000
0000
1200
0000
0000
0300
0010
0000
0000
0000
1000
0000
0000
0000
0100
0000
0000
0000
1002
0000
0000
0000
0000
0000
0000
0000
0000
0000
0000
0000
0000
0000
0000
0003
,
2010
0000
0000
0000
3000
0000
0000
0000
0001
0000
0000
0000
0100
0000
0000
0000
0011
0000
0000
0000
1000
0000
0000
0000
0001
0000
0000
0000
0100
0000
0000
0000
1002
0000
0000
0003
0010
0000
0000
0000
0100
0000
0000
0000
0001
0000
0000
0000
0210
0000
0000
0000
0000
0000
0000
0000
0000
0000
0000
0000
0000
0000
0000
0300
,
2010
0000
0000
0000
3000
0000
0000
0000
0001
0000
0000
0000
0010
0000
0000
0000
0101
0000
0000
0000
1000
0000
0000
0000
0001
0000
0000
0000
0110
0000
0000
0000
2001
0000
0000
3000
0010
0000
0000
0000
0100
0000
0000
0000
0010
0000
0000
0000
1002
0000
0000
0000
0000
0000
0000
0000
0000
0000
0000
0000
0000
0000
0000
0003
,
2010
0000
0000
0000
3000
0000
0000
0000
0001
0000
0000
0000
0100
0000
0000
0000
0011
0000
0000
0000
1000
0000
0000
0000
0001
0000
0000
0000
0100
0000
0000
0000
1002
0000
0000
0003
0010
0000
0000
0000
0100
0000
0000
0000
0001
0000
0000
0000
1200
0000
0000
0000
0000
0000
0000
0000
0000
0000
0000
0000
0000
0000
0000
0300
,
1020
0000
0000
0000
0030
0000
0000
0000
0001
0000
0000
0000
0010
0000
0000
0000
1001
0000
0000
0000
0100
0000
0000
0000
0010
0000
0000
0000
0100
0000
0000
0000
2001
0000
0000
3000
0100
0000
0000
0000
0010
0000
0000
0000
0001
0000
0000
0000
0210
0000
0000
0000
0000
0000
0000
0000
0000
0000
0000
0000
0000
0000
0000
0300
,
2001
0000
0000
3000
0000
0000
0100
0000
0000
1000
0000
0000
0101
0000
0000
0010
0000
0000
1000
0000
0000
0001
0000
0000
1020
0000
0030
0100
0000
0000
0001
0000
0000
0100
0000
0000
2001
0000
0000
0000
0000
0000
0000
0000
0000
0000
0000
3000
,
0210
0000
0000
0000
0300
0000
0000
0000
1000
0000
0000
0000
0100
0000
0000
0000
1001
0000
0000
0000
0010
0000
0000
0000
0001
0000
0000
0000
0100
0000
0000
0000
1002
0000
0000
0003
0100
0000
0000
0000
0010
0000
0000
0000
0100
0000
0000
0000
1002
0000
0000
0000
0000
0000
0000
0000
0000
0000
0000
0000
0000
0000
0000
0003
,
2010
0000
0000
0000
3000
0000
0000
0000
0011
0000
0000
0000
0101
0000
0000
0000
1001
0000
0000
0000
0100
0000
0000
0000
1010
0000
0000
0000
1100
0000
0000
0000
1002
0000
0000
0003
0110
0000
0000
0000
0011
0000
0000
0000
1010
0000
0000
0000
0201
0000
0000
0000
0001
0000
0000
0000
0001
0000
0000
0000
0001
0000
0000
0300
,
2002
0000
0000
0000
3003
0000
0000
0000
0010
0000
0000
0000
0001
0000
0000
0000
1100
0000
0000
0000
0010
0000
0000
0000
0001
0000
0000
0000
0010
0000
0000
0000
2002
0000
0000
3003
0100
0000
0000
0000
0010
0000
0000
0000
1000
0000
0000
0000
0012
0000
0000
0000
0000
0000
0000
0000
0000
0000
0000
0000
0000
0000
0000
0003
,
2200
0000
0000
0000
3300
0000
0000
0000
0001
0000
0000
0000
1000
0000
0000
0000
0101
0000
0000
0000
0010
0000
0000
0000
0002
0000
0003
0000
0002
0000
0003
0000
2200
0000
0000
3300
0002
0000
0003
0000
1000
0000
0000
0000
0002
0000
0003
0000
2010
0000
0000
0000
0000
0000
0000
0000
0000
0000
0000
0000
0000
0000
0000
3000
,
0022
0000
0000
0000
0033
0000
0000
0000
0100
0000
0000
0000
1000
0000
0000
0000
0011
0000
0000
0000
0100
0000
0000
0000
0001
0000
0000
0000
0010
0000
0000
0000
2200
0000
0000
3300
0010
0000
0000
0000
0001
0000
0000
0000
0010
0000
0000
0000
1200
0000
0000
0000
0000
0000
0000
0000
0000
0000
0000
0000
0000
0000
0000
0300
,
2020
0000
0000
0000
3030
0000
0000
0000
0001
0000
0000
0000
0100
0000
0000
0000
0011
0000
0000
0000
1000
0000
0000
0000
0001
0000
0000
0000
0100
0000
0000
0000
2002
0000
0000
3003
0010
0000
0000
0000
0100
0000
0000
0000
0001
0000
0000
0000
1200
0000
0000
0000
0000
0000
0000
0000
0000
0000
0000
0000
0000
0000
0000
0300
,
0022
0000
0000
0000
0033
0000
0000
0000
1000
0000
0000
0000
0001
0000
0000
0000
1100
0000
0000
0000
0010
0000
0000
0000
0100
0000
0000
0000
0001
0000
0000
0000
2200
0000
0000
3300
0010
0000
0000
0000
0001
0000
0000
0000
1000
0000
0000
0000
0021
0000
0000
0000
0000
0000
0000
0000
0000
0000
0000
0000
0000
0000
0000
0030
,
2200
0000
0000
0000
0000
0000
0000
0000
0000
0000
0000
0000
3300
0000
0000
0000
0000
0000
0000
0000
0000
0000
0000
0000
0010
0000
0000
0000
0000
0000
0000
0000
0000
0000
0000
0000
0100
0000
0000
0000
0000
0000
0000
0000
0000
0000
0000
0000
1010
0000
0000
0000
0000
0000
0000
0000
0000
0000
0000
0000
0001
0000
0000
0000
0000
0000
0000
0000
0000
0000
0000
0000
0020
0000
0000
0000
0000
0000
0030
0000
0000
0000
0000
0000
0020
0000
0000
0000
0000
0000
0030
0000
0000
0000
0000
0000
0202
0000
0000
0000
0000
0000
0000
0000
0003
0300
0000
0000
0020
0000
0000
0000
0000
0000
0030
0000
0000
0000
0000
0000
1000
0000
0000
0000
0000
0000
0000
0000
0000
0000
0000
0000
0020
0000
0000
0000
0000
0000
0030
0000
0000
0000
0000
0000
1200
0000
0000
0000
0000
0000
0000
0000
0000
0000
0000
0000
0000
0000
0000
0000
0000
0000
0000
0000
0000
0000
0000
0000
0000
0000
0000
0000
0000
0000
0000
0000
0000
0000
0000
0000
0000
0000
0000
0000
0000
0000
0000
0000
0300
0000
0000
0000
,
0022
0000
0000
0000
0033
0000
0000
0000
0100
0000
0000
0000
0010
0000
0000
0000
1100
0000
0000
0000
0001
0000
0000
0000
1000
0000
0000
0000
0011
0000
0000
0000
2200
0000
0000
3300
0010
0000
0000
0000
0001
0000
0000
0000
0010
0000
0000
0000
2100
0000
0000
0000
0000
0000
0000
0000
0000
0000
0000
0000
0000
0000
0000
3000
,
0202
0000
0000
0000
0303
0000
0000
0000
0001
0000
0000
0000
0010
0000
0000
0000
1100
0000
0000
0000
0010
0000
0000
0000
0001
0000
0000
0000
0010
0000
0000
0000
2200
0000
0000
3300
0010
0000
0000
0000
1000
0000
0000
0000
0100
0000
0000
0000
0021
0000
0000
0000
0001
0000
0000
0000
0001
0000
0000
0000
0001
0000
0000
0030
,
2200
0000
0000
0000
3300
0000
0000
0000
0001
0000
0000
0000
1000
0000
0000
0000
0110
0000
0000
0000
0001
0000
0000
0000
1000
0000
0000
0000
0001
0000
0000
0000
2200
0000
0000
3300
0010
0000
0000
0000
0001
0000
0000
0000
0100
0000
0000
0000
2001
0000
0000
0000
0000
0000
0000
0000
0000
0000
0000
0000
0000
0000
0000
3000
,
0220
0000
0000
0000
0330
0000
0000
0000
1000
0000
0000
0000
0100
0000
0000
0000
1010
0000
0000
0000
0001
0000
0000
0000
2000
0000
3000
0000
2000
0000
3000
0000
0022
0000
0000
0033
2000
0000
3000
0000
0100
0000
0000
0000
2000
0000
3000
0000
0201
0000
0000
0000
0000
0000
0000
0000
0000
0000
0000
0000
0000
0000
0000
0300
,
2002
0000
0000
0000
3003
0000
0000
0000
0010
0000
0000
0000
0100
0000
0000
0000
1001
0000
0000
0000
0010
0000
0000
0000
1000
0000
0000
0000
0001
0000
0000
0000
0220
0000
0000
0330
0001
0000
0000
0000
1000
0000
0000
0000
0001
0000
0000
0000
0120
0000
0000
0000
0000
0000
0000
0000
0000
0000
0000
0000
0000
0000
0000
0030
,
0202
0000
0000
0000
0303
0000
0000
0000
1000
0000
0000
0000
0010
0000
0000
0000
1001
0000
0000
0000
0100
0000
0000
0000
1000
0000
0000
0000
0010
0000
0000
0000
2200
0000
0000
3300
0001
0000
0000
0000
0010
0000
0000
0000
1000
0000
0000
0000
0120
0000
0000
0000
0000
0000
0000
0000
0000
0000
0000
0000
0000
0000
0000
0030
,
2200
0000
0000
0000
3300
0000
0000
0000
0001
0000
0000
0000
0100
0000
0000
0000
0011
0000
0000
0000
1000
0000
0000
0000
0010
0000
0000
0000
0100
0000
0000
0000
0022
0000
0000
0033
1000
0000
0000
0000
0100
0000
0000
0000
0001
0000
0000
0000
2100
0000
0000
0000
0000
0000
0000
0000
0000
0000
0000
0000
0000
0000
0000
3000
,
0022
0000
0000
0000
0000
0000
0000
0000
0000
0000
0000
0000
0033
0000
0000
0000
0000
0000
0000
0000
0000
0000
0000
0000
1000
0000
0000
0000
0000
0000
0000
0000
0000
0000
0000
0000
0010
0000
0000
0000
0000
0000
0000
0000
0000
0000
0000
0000
0101
0000
0000
0000
0000
0000
0000
0000
0000
0000
0000
0000
0010
0000
0000
0000
0000
0000
0000
0000
0000
0000
0000
0000
2000
0000
0000
0000
0000
0000
3000
0000
0000
0000
0000
0000
2000
0000
0000
0000
0000
0000
3000
0000
0000
0000
0000
0000
0220
0000
0000
0000
0000
0000
0000
0000
0300
0030
0000
0000
2000
0000
0000
0000
0000
0000
3000
0000
0000
0000
0000
0000
0001
0000
0000
0000
0000
0000
0000
0000
0000
0000
0000
0000
2000
0000
0000
0000
0000
0000
3000
0000
0000
0000
0000
0000
0021
0000
0000
0000
0000
0000
0000
0000
0000
0000
0000
0000
0000
0000
0000
0000
0000
0000
0000
0000
0000
0000
0000
0000
0000
0000
0000
0000
0000
0000
0000
0000
0000
0000
0000
0000
0000
0000
0000
0000
0000
0000
0000
0000
0030
0000
0000
0000
,
2200
0000
0000
0000
3300
0000
0000
0000
0010
0000
0000
0000
1000
0000
0000
0000
0011
0000
0000
0000
0100
0000
0000
0000
0001
0000
0000
0000
0100
0000
0000
0000
0022
0000
0000
0033
1000
0000
0000
0000
0100
0000
0000
0000
1000
0000
0000
0000
0012
0000
0000
0000
0000
0000
0000
0000
0000
0000
0000
0000
0000
0000
0000
0003
,
0220
0000
0000
0000
0330
0000
0000
0000
0100
0000
0000
0000
1001
0000
0000
0000
0011
0000
0000
0000
1000
0000
0000
0000
0110
0000
0000
0000
1100
0000
0000
0000
0022
0000
0000
0033
1100
0000
0000
0000
0101
0000
0000
0000
0010
0000
0000
0000
2001
0000
0000
0000
0001
0000
0000
0000
0001
0000
0000
0000
0001
0000
0000
3000
,
0022
0000
0000
0033
0100
0000
0000
0000
0000
0000
0000
0000
0001
0000
0000
0000
1000
0000
0000
0000
0100
0000
0000
0000
0010
0000
0000
0000
1100
0000
0000
0000
0011
0000
0000
0000
0100
0000
0000
0000
0000
0000
0000
0000
1000
0000
0000
0000
0110
0000
0000
0000
0001
0000
0000
0000
0010
0000
0000
0000
0100
0000
0000
0000
,
0012
1003
0000
0001
0100
0010
0100
1010
0201
1310
0000
1000
0110
0001
0100
1010
,
0202
1303
0000
0001
1000
0010
0100
1010
0101
0010
0000
1000
0110
0001
0100
0010
,
0102
0000
0000
0000
1003
0000
0000
0000
0000
0000
0000
0000
0001
0000
0000
0000
1000
0000
0000
0000
0010
0000
0000
0000
0100
0000
0000
0000
1010
0000
0000
0000
0101
0000
0000
0000
1010
0000
0000
0000
0000
0000
0000
0000
1000
0000
0000
0000
0220
0000
0000
0330
0001
0000
0000
0000
1000
0000
0000
0000
0110
0000
0000
0000
,
2002
0000
0000
3003
0100
0000
0000
0000
0000
0000
0000
0000
0001
0000
0000
0000
0100
0000
0000
0000
0010
0000
0000
0000
0100
0000
0000
0000
1010
0000
0000
0000
0101
0000
0000
0000
0010
0000
0000
0000
0000
0000
0000
0000
1000
0000
0000
0000
0110
0000
0000
0000
0001
0000
0000
0000
0100
0000
0000
0000
0001
0000
0000
0000
,
0120
0000
0000
0030
1000
0000
0000
0000
0000
0000
0000
0000
0001
0000
0000
0000
1000
0000
0000
0000
0100
0000
0000
0000
0010
0000
0000
0000
1100
0000
0000
0000
0012
0000
0000
0003
1100
0000
0000
0000
0000
0000
0000
0000
1000
0000
0000
0000
0110
0000
0000
0000
0001
0000
0000
0000
0100
0000
0000
0000
1001
0000
0000
0000
,
0220
0000
0000
0330
1000
0000
0000
0000
0000
0000
0000
0000
0001
0000
0000
0000
1000
0000
0000
0000
0010
0000
0000
0000
0100
0000
0000
0000
1010
0000
0000
0000
0101
0000
0000
0000
0010
0000
0000
0000
0000
0000
0000
0000
1000
0000
0000
0000
0110
0000
0000
0000
0001
0000
0000
0000
0100
0000
0000
0000
0010
0000
0000
0000
,
0102
0000
0000
0003
1000
0000
0000
0000
0000
0000
0000
0000
0001
0000
0000
0000
0100
0000
0000
0000
0010
0000
0000
0000
0100
0000
0000
0000
1010
0000
0000
0000
0101
0000
0000
0000
1010
0000
0000
0000
0001
0000
0000
0000
1000
0000
0000
0000
0021
0000
0000
0030
0101
0000
0000
0000
1000
0000
0000
0000
0011
0000
0000
0000
,
2001
0000
0000
3000
0100
0000
0000
0000
0000
0000
0000
0000
0001
0000
0000
0000
0100
0000
0000
0000
0010
0000
0000
0000
0100
0000
0000
0000
1010
0000
0000
0000
0101
0000
0000
0000
0010
0000
0000
0000
0000
0000
0000
0000
1000
0000
0000
0000
0110
0000
0000
0000
0001
0000
0000
0000
0100
0000
0000
0000
1010
0000
0000
0000
,
0201
0000
0000
0300
1000
0000
0000
0000
0000
0000
0000
0000
0001
0000
0000
0000
0100
0000
0000
0000
0010
0000
0000
0000
0100
0000
0000
0000
1010
0000
0000
0000
0102
0000
0000
0003
1010
0000
0000
0000
0000
0000
0000
0000
1000
0000
0000
0000
0110
0000
0000
0000
0001
0000
0000
0000
0100
0000
0000
0000
1001
0000
0000
0000
,
0120
0000
0000
0030
1000
0000
0000
0000
0000
0000
0000
0000
0001
0000
0000
0000
0100
0000
0000
0000
0010
0000
0000
0000
0100
0000
0000
0000
1010
0000
0000
0000
0201
0000
0000
0300
0010
0000
0000
0000
0000
0000
0000
0000
1000
0000
0000
0000
0110
0000
0000
0000
0001
0000
0000
0000
1000
0000
0000
0000
0010
0000
0000
0000
,
2002
0000
0000
3003
0100
0000
0000
0000
0000
0000
0000
0000
0001
0000
0000
0000
1000
0000
0000
0000
0010
0000
0000
0000
0100
0000
0000
0000
1010
0000
0000
0000
0101
0000
0000
0000
1010
0000
0000
0000
0000
0000
0000
0000
1000
0000
0000
0000
0102
0000
0000
0003
0110
0000
0000
0000
1000
0000
0000
0000
0110
0000
0000
0000
,
0202
0000
0000
0303
1000
0000
0000
0000
0000
0000
0000
0000
0001
0000
0000
0000
1000
0000
0000
0000
0010
0000
0000
0000
0100
0000
0000
0000
1010
0000
0000
0000
0102
0000
0000
0003
0010
0000
0000
0000
0000
0000
0000
0000
1000
0000
0000
0000
0110
0000
0000
0000
0001
0000
0000
0000
1000
0000
0000
0000
0010
0000
0000
0000
,
0201
0000
0000
0300
1000
0000
0000
0000
0000
0000
0000
0000
0001
0000
0000
0000
0000
0000
0000
0000
0010
0000
0000
0000
0100
0000
0000
0000
1010
0000
0000
0000
0101
0000
0000
0000
1010
0000
0000
0000
0000
0000
0000
0000
1000
0000
0000
0000
0110
0000
0000
0000
0001
0000
0000
0000
1000
0000
0000
0000
0101
0000
0000
0000
,
1020
0000
0000
0030
0100
0000
0000
0000
0000
0000
0000
0000
0001
0000
0000
0000
1000
0000
0000
0000
0100
0000
0000
0000
0010
0000
0000
0000
1100
0000
0000
0000
0011
0000
0000
0000
1100
0000
0000
0000
0000
0000
0000
0000
1000
0000
0000
0000
0110
0000
0000
0000
0001
0000
0000
0000
1000
0000
0000
0000
0110
0000
0000
0000
,
1002
0000
0000
0003
0010
0000
0000
0000
0000
0000
0000
0000
0001
0000
0000
0000
1000
0000
0000
0000
0100
0000
0000
0000
0010
0000
0000
0000
1001
0000
0000
0000
0220
0000
0000
0330
1001
0000
0000
0000
0000
0000
0000
0000
1000
0000
0000
0000
0110
0000
0000
0000
0101
0000
0000
0000
1000
0000
0000
0000
0101
0000
0000
0000
,
2200
0000
0000
3300
0010
0000
0000
0000
0000
0000
0000
0000
0001
0000
0000
0000
1000
0000
0000
0000
0100
0000
0000
0000
0010
0000
0000
0000
1100
0000
0000
0000
0011
0000
0000
0000
0100
0000
0000
0000
0000
0000
0000
0000
1000
0000
0000
0000
0110
0000
0000
0000
0001
0000
0000
0000
1000
0000
0000
0000
0100
0000
0000
0000
,
0021
0000
0000
0030
1000
0000
0000
0000
0000
0000
0000
0000
0001
0000
0000
0000
1000
0000
0000
0000
0100
0000
0000
0000
0010
0000
0000
0000
1100
0000
0000
0000
0011
0000
0000
0000
1100
0000
0000
0000
0000
0000
0000
0000
1000
0000
0000
0000
0110
0000
0000
0000
0001
0000
0000
0000
1000
0000
0000
0000
0110
0000
0000
0000
,
1002
0000
0000
0003
0010
0000
0000
0000
0000
0000
0000
0000
0001
0000
0000
0000
0000
0000
0000
0000
0100
0000
0000
0000
0010
0000
0000
0000
1000
0000
0000
0000
0011
0000
0000
0000
1100
0000
0000
0000
0000
0000
0000
0000
1000
0000
0000
0000
0110
0000
0000
0000
0001
0000
0000
0000
1000
0000
0000
0000
0100
0000
0000
0000
,
0012
0000
0000
0003
1000
0000
0000
0000
0000
0000
0000
0000
0001
0000
0000
0000
1000
0000
0000
0000
0100
0000
0000
0000
0010
0000
0000
0000
1100
0000
0000
0000
0011
0000
0000
0000
1100
0000
0000
0000
0000
0000
0000
0000
1000
0000
0000
0000
0120
0000
0000
0030
0001
0000
0000
0000
0010
0000
0000
0000
1100
0000
0000
0000
,
0022
0000
0000
0033
1000
0000
0000
0000
0000
0000
0000
0000
0001
0000
0000
0000
1000
0000
0000
0000
0100
0000
0000
0000
0010
0000
0000
0000
1000
0000
0000
0000
0011
0000
0000
0000
1100
0000
0000
0000
0000
0000
0000
0000
1000
0000
0000
0000
0110
0000
0000
0000
0001
0000
0000
0000
1000
0000
0000
0000
0010
0000
0000
0000
,
0201
0000
0000
0300
1000
0000
0000
0000
0000
0000
0000
0000
0001
0000
0000
0000
1000
0000
0000
0000
0100
0000
0000
0000
0010
0000
0000
0000
1100
0000
0000
0000
0011
0000
0000
0000
1100
0000
0000
0000
0000
0000
0000
0000
1000
0000
0000
0000
0110
0000
0000
0000
0001
0000
0000
0000
0100
0000
0000
0000
1010
0000
0000
0000
,
0202
0000
0000
0303
1000
0000
0000
0000
0000
0000
0000
0000
0001
0000
0000
0000
1000
0000
0000
0000
0100
0000
0000
0000
0010
0000
0000
0000
1100
0000
0000
0000
0011
0000
0000
0000
1000
0000
0000
0000
0000
0000
0000
0000
1000
0000
0000
0000
0110
0000
0000
0000
0001
0000
0000
0000
0010
0000
0000
0000
0100
0000
0000
0000
,
0012
0000
0000
0003
1000
0000
0000
0000
0000
0000
0000
0000
0001
0000
0000
0000
0010
0000
0000
0000
0100
0000
0000
0000
0010
0000
0000
0000
1100
0000
0000
0000
0011
0000
0000
0000
1001
0000
0000
0000
0000
0000
0000
0000
1000
0000
0000
0000
0220
0000
0000
0330
0001
0000
0000
0000
1000
0000
0000
0000
0101
0000
0000
0000
,
2020
0000
0000
3030
0100
0000
0000
0000
0000
0000
0000
0000
0001
0000
0000
0000
1000
0000
0000
0000
0100
0000
0000
0000
0010
0000
0000
0000
1100
0000
0000
0000
0011
0000
0000
0000
1000
0000
0000
0000
0000
0000
0000
0000
1000
0000
0000
0000
0110
0000
0000
0000
0001
0000
0000
0000
1000
0000
0000
0000
0100
0000
0000
0000
,
0021
0000
0000
0030
1000
0000
0000
0000
0000
0000
0000
0000
0001
0000
0000
0000
1000
0000
0000
0000
0100
0000
0000
0000
0010
0000
0000
0000
1100
0000
0000
0000
0012
0000
0000
0003
1100
0000
0000
0000
0000
0000
0000
0000
1000
0000
0000
0000
0110
0000
0000
0000
0001
0000
0000
0000
1000
0000
0000
0000
0011
0000
0000
0000
,
1200
0000
0000
0300
0010
0000
0000
0000
0000
0000
0000
0000
0001
0000
0000
0000
1000
0000
0000
0000
0100
0000
0000
0000
0010
0000
0000
0000
1100
0000
0000
0000
0021
0000
0000
0030
0100
0000
0000
0000
0000
0000
0000
0000
1000
0000
0000
0000
0110
0000
0000
0000
0001
0000
0000
0000
1000
0000
0000
0000
0100
0000
0000
0000
,
2002
0000
0000
3003
0010
0000
0000
0000
0000
0000
0000
0000
0001
0000
0000
0000
1000
0000
0000
0000
0100
0000
0000
0000
0010
0000
0000
0000
1100
0000
0000
0000
0011
0000
0000
0000
1100
0000
0000
0000
0000
0000
0000
0000
1000
0000
0000
0000
0220
0000
0000
0330
1001
0000
0000
0000
0010
0000
0000
0000
1100
0000
0000
0000
,
2002
0000
0000
3003
0010
0000
0000
0000
0000
0000
0000
0000
0001
0000
0000
0000
1000
0000
0000
0000
0100
0000
0000
0000
0010
0000
0000
0000
1100
0000
0000
0000
0011
0000
0000
0000
0100
0000
0000
0000
0000
0000
0000
0000
1000
0000
0000
0000
0110
0000
0000
0000
0001
0000
0000
0000
1000
0000
0000
0000
0010
0000
0000
0000
,
0201
0000
0000
0300
1000
0000
0000
0000
0000
0000
0000
0000
0001
0000
0000
0000
0000
0000
0000
0000
0100
0000
0000
0000
0010
0000
0000
0000
0100
0000
0000
0000
0011
0000
0000
0000
0100
0000
0000
0000
0000
0000
0000
0000
1000
0000
0000
0000
0110
0000
0000
0000
0001
0000
0000
0000
1000
0000
0000
0000
0100
0000
0000
0000
,
2002
0000
0000
3003
0010
0000
0000
0000
0000
0000
0000
0000
0001
0000
0000
0000
1000
0000
0000
0000
0010
0000
0000
0000
0100
0000
0000
0000
1000
0000
0000
0000
0101
0000
0000
0000
0010
0000
0000
0000
0000
0000
0000
0000
1000
0000
0000
0000
0110
0000
0000
0000
0001
0000
0000
0000
1100
0000
0000
0000
0010
0000
0000
0000
,
0101
1001
0001
0101
0001
0010
1100
1010
1001
1010
1000
0010
0101
0010
1100
1010
,
2002
0000
0000
0000
3003
0000
0000
0000
0010
0000
0000
0000
0100
0000
0000
0000
1010
0000
0000
0000
0001
0000
0000
0000
1000
0000
0000
0000
0001
0000
0000
0000
2200
0000
0000
3300
0010
0000
0000
0000
1000
0000
0000
0000
0100
0000
0000
0000
1002
0000
0000
0000
0000
0000
0000
0000
0000
0000
0000
0000
0000
0000
0000
0003
,
2020
0000
0000
0000
3030
0000
0000
0000
0001
0000
0000
0000
0100
0000
0000
0000
0011
0000
0000
0000
1000
0000
0000
0000
0001
0000
0000
0000
0100
0000
0000
0000
2002
0000
0000
3003
0010
0000
0000
0000
0100
0000
0000
0000
0001
0000
0000
0000
1200
0000
0000
0000
0000
0000
0000
0000
0000
0000
0000
0000
0000
0000
0000
0000
,
2320
0000
0000
0000
3030
0000
0000
0000
0001
0000
0000
0000
0010
0000
0000
0000
1001
0000
0000
0000
0100
0000
0000
0000
0001
0000
0000
0000
1000
0000
0000
0000
0202
0000
0000
0303
1000
0000
0000
0000
0001
0000
0000
0000
0010
0000
0000
0000
0201
0000
0000
0000
0000
0000
0000
0000
0000
0000
0000
0000
0000
0000
0000
0300
,
0022
0000
0000
0000
0033
0000
0000
0000
1000
0000
0000
0000
0100
0000
0000
0000
0011
0000
0000
0000
0100
0000
0000
0000
1000
0000
0000
0000
0001
0000
0000
0000
2020
0000
0000
3030
0100
0000
0000
0000
0001
0000
0000
0000
1000
0000
0000
0000
0120
0000
0000
0000
0000
0000
0000
0000
0000
0000
0000
0000
0000
0000
0000
0030
,
2002
0000
0000
0000
3003
0000
0000
0000
0010
0000
0000
0000
0100
0000
0000
0000
1010
0000
0000
0000
0001
0000
0000
0000
1000
0000
0000
0000
0001
0000
0000
0000
2200
0000
0000
3300
0010
0000
0000
0000
1000
0000
0000
0000
0100
0000
0000
0000
1002
0000
0000
0000
0000
0000
0000
0000
0000
0000
0000
0000
0000
0000
0000
0003
,
2020
0000
0000
0000
3030
0000
0000
0000
0001
0000
0000
0000
0100
0000
0000
0000
0011
0000
0000
0000
1000
0000
0000
0000
0001
0000
0000
0000
0100
0000
0000
0000
2002
0000
0000
3003
0010
0000
0000
0000
0100
0000
0000
0000
0001
0000
0000
0000
1200
0000
0000
0000
0000
0000
0000
0000
0000
0000
0000
0000
0000
0000
0000
0300
,
0022
0000
0000
0000
0033
0000
0000
0000
1000
0000
0000
0000
0001
0000
0000
0000
1010
0000
0000
0000
0100
0000
0000
0000
0010
0000
0000
0000
1001
0000
0000
0000
0220
0000
0000
0330
1000
0000
0000
0000
0001
0000
0000
0000
0010
0000
0000
0000
1200
0000
0000
0000
0000
0000
0000
0000
0000
0000
0000
0000
0000
0000
0000
0300
,
0022
0000
0000
0000
0033
0000
0000
0000
1000
0000
0000
0000
0001
0000
0000
0000
0110
0000
0000
0000
1000
0000
0000
0000
0001
0000
0000
0000
0100
0000
0000
0000
2020
0000
0000
3030
0001
0000
0000
0000
1000
0000
0000
0000
0100
0000
0000
0000
0021
0000
0000
0000
0001
0000
0000
0000
0001
0000
0000
0000
0001
0000
0000
0030
,
2002
0000
0000
0000
3003
0000
0000
0000
0010
0000
0000
0000
0100
0000
0000
0000
1010
0000
0000
0000
0001
0000
0000
0000
1000
0000
0000
0000
0011
0000
0000
0000
2200
0000
0000
3300
0010
0000
0000
0000
1000
0000
0000
0000
0100
0000
0000
0000
1002
0000
0000
0000
0000
0000
0000
0000
0000
0000
0000
0000
0000
0000
0000
0003
,
2020
0000
0000
0000
3030
0000
0000
0000
0001
0000
0000
0000
0100
0000
0000
0000
0011
0000
0000
0000
1000
0000
0000
0000
0001
0000
0000
0000
0100
0000
0000
0000
2002
0000
0000
3003
0010
0000
0000
0000
0100
0000
0000
0000
0001
0000
0000
0000
0210
0000
0000
0000
0000
0000
0000
0000
0000
0000
0000
0000
0000
0000
0000
0300
,
2020
0000
0000
0000
3030
0000
0000
0000
0001
0000
0000
0000
0010
0000
0000
0000
0101
0000
0000
0000
1000
0000
0000
0000
0001
0000
0000
0000
0110
0000
0000
0000
2002
0000
0000
3003
0010
0000
0000
0000
0100
0000
0000
0000
0010
0000
0000
0000
1002
0000
0000
0000
0000
0000
0000
0000
0000
0000
0000
0000
0000
0000
0000
0003
,
2020
0000
0000
0000
3030
0000
0000
0000
0001
0000
0000
0000
0100
0000
0000
0000
0011
0000
0000
0000
1000
0000
0000
0000
0001
0000
0000
0000
0100
0000
0000
0000
2002
0000
0000
3003
0010
0000
0000
0000
0100
0000
0000
0000
0001
0000
0000
0000
1200
0000
0000
0000
0000
0000
0000
0000
0000
0000
0000
0000
0000
0000
0000
0300
,
2020
0000
0000
0000
3030
0000
0000
0000
0001
0000
0000
0000
0010
0000
0000
0000
1001
0000
0000
0000
0100
0000
0000
0000
0010
0000
0000
0000
0100
0000
0000
0000
2002
0000
0000
3003
0100
0000
0000
0000
0010
0000
0000
0000
0001
0000
0000
0000
0210
0000
0000
0000
0000
0000
0000
0000
0000
0000
0000
0000
0000
0000
0000
0300
,
2002
0000
0000
0000
0000
0000
0000
0000
0000
0000
0000
0000
3003
0000
0000
0000
0000
0000
0000
0000
0000
0000
0000
0000
0100
0000
0000
0000
0000
0000
0000
0000
0000
0000
0000
0000
1000
0000
0000
0000
0000
0000
0000
0000
0000
0000
0000
0000
0101
0000
0000
0000
0000
0000
0000
0000
0000
0000
0000
0000
0010
0000
0000
0000
0000
0000
0000
0000
0000
0000
0000
0000
1000
0000
0000
0000
0000
0000
0000
0000
0000
0000
0000
0000
0001
0000
0000
0000
0000
0000
0000
0000
0000
0000
0000
0000
2020
0000
0000
0000
0000
0000
0000
0000
0030
3000
0000
0000
0100
0000
0000
0000
0000
0000
0000
0000
0000
0000
0000
0000
0001
0000
0000
0000
0000
0000
0000
0000
0000
0000
0000
0000
0100
0000
0000
0000
0000
0000
0000
0000
0000
0000
0000
0000
2001
0000
0000
0000
0000
0000
0000
0000
0000
0000
0000
0000
0000
0000
0000
0000
0000
0000
0000
0000
0000
0000
0000
0000
0000
0000
0000
0000
0000
0000
0000
0000
0000
0000
0000
0000
0000
0000
0000
0000
0000
0000
0000
0000
3000
0000
0000
0000
,
0220
0000
0000
0000
0330
0000
0000
0000
1000
0000
0000
0000
0100
0000
0000
0000
1001
0000
0000
0000
0010
0000
0000
0000
0001
0000
0000
0000
0100
0000
0000
0000
2002
0000
0000
3003
0100
0000
0000
0000
0010
0000
0000
0000
0100
0000
0000
0000
1002
0000
0000
0000
0000
0000
0000
0000
0000
0000
0000
0000
0000
0000
0000
0003
,
2020
0000
0000
0000
3030
0000
0000
0000
0011
0000
0000
0000
0101
0000
0000
0000
1001
0000
0000
0000
0100
0000
0000
0000
1010
0000
0000
0000
1100
0000
0000
0000
1002
0000
0000
0003
0110
0000
0000
0000
0011
0000
0000
0000
1010
0000
0000
0000
0201
0000
0000
0000
0001
0000
0000
0000
0001
0000
0000
0000
0001
0000
0000
0300
,
2002
0000
0000
3003
0100
0000
0000
0000
0010
0000
0000
0000
0001
0000
0000
0000
1010
0000
0000
0000
1100
0000
0000
0000
1010
0000
0000
0000
1001
0000
0000
0000
2020
0000
0000
3030
0001
0000
0000
0000
0010
0000
0000
0000
0100
0000
0000
0000
1001
0000
0000
0000
0101
0000
0000
0000
0011
0000
0000
0000
0101
0000
0000
0000
,
2002
0000
0000
3003
0100
0000
0000
0000
0010
0000
0000
0000
0001
0000
0000
0000
1010
0000
0000
0000
1100
0000
0000
0000
1010
0000
0000
0000
1001
0000
0000
0000
2200
0000
0000
3300
0001
0000
0000
0000
0010
0000
0000
0000
0100
0000
0000
0000
1001
0000
0000
0000
0101
0000
0000
0000
0011
0000
0000
0000
0101
0000
0000
0000
,
2002
0000
0000
3003
0100
0000
0000
0000
0010
0000
0000
0000
0001
0000
0000
0000
1010
0000
0000
0000
1100
0000
0000
0000
1010
0000
0000
0000
1001
0000
0000
0000
2020
0000
0000
3030
0001
0000
0000
0000
0010
0000
0000
0000
0100
0000
0000
0000
1001
0000
0000
0000
0101
0000
0000
0000
0011
0000
0000
0000
0101
0000
0000
0000
,
2002
0000
0000
3003
0100
0000
0000
0000
0010
0000
0000
0000
0001
0000
0000
0000
1010
0000
0000
0000
1100
0000
0000
0000
1010
0000
0000
0000
1001
0000
0000
0000
2200
0000
0000
3300
0001
0000
0000
0000
0010
0000
0000
0000
0100
0000
0000
0000
1001
0000
0000
0000
0101
0000
0000
0000
0011
0000
0000
0000
0101
0000
0000
0000
,
2002
0000
0000
3003
0100
0000
0000
0000
0010
0000
0000
0000
0001
0000
0000
0000
1010
0000
0000
0000
1100
0000
0000
0000
1010
0000
0000
0000
1001
0000
0000
0000
2020
0000
0000
3030
0001
0000
0000
0000
0010
0000
0000
0000
0100
0000
0000
0000
1001
0000
0000
0000
0101
0000
0000
0000
0011
0000
0000
0000
0101
0000
0000
0000
,
2002
0000
0000
3003
0100
0000
0000
0000
0010
0000
0000
0000
0001
0000
0000
0000
1010
0000
0000
0000
1100
0000
0000
0000
1010
0000
0000
0000
1001
0000
0000
0000
2020
0000
0000
3030
0001
0000
0000
0000
0010
0000
0000
0000
0100
0000
0000
0000
1001
0000
0000
0000
0101
0000
0000
0000
0011
0000
0000
0000
0101
0000
0000
0000
,
2002
0000
0000
3003
0100
0000
0000
0000
0010
0000
0000
0000
0001
0000
0000
0000
1010
0000
0000
0000
1100
0000
0000
0000
1010
0000
0000
0000
1001
0000
0000
0000
2020
0000
0000
3030
0001
0000
0000
0000
0010
0000
0000
0000
0100
0000
0000
0000
1001
0000
0000
0000
0101
0000
0000
0000
0011
0000
0000
0000
0101
0000
0000
0000
,
2002
0000
0000
3003
0100
0000
0000
0000
0010
0000
0000
0000
0001
0000
0000
0000
1010
0000
0000
0000
1100
0000
0000
0000
1010
0000
0000
0000
1001
0000
0000
0000
2200
0000
0000
3300
0001
0000
0000
0000
0010
0000
0000
0000
0100
0000
0000
0000
1001
0000
0000
0000
0101
0000
0000
0000
0011
0000
0000
0000
0101
0000
0000
0000
,
2002
0000
3003
0000
0100
0000
0000
0000
0010
0000
0000
0000
0001
0000
0000
0000
1010
0000
0000
0000
0100
0000
0000
0000
0010
0000
0000
0000
0001
0000
0000
0000
2200
0000
0000
3300
0001
0000
0000
0000
0010
0000
0000
0000
0100
0000
0000
0000
1010
0000
0000
0000
0001
0000
0000
0000
0010
0000
0000
0000
0100
0000
0000
0000
,
2002
0000
0000
3003
0100
0000
0000
0000
0010
0000
0000
0000
0001
0000
0000
0000
1010
0000
0000
0000
0100
0000
0000
0000
0010
0000
0000
0000
0001
0000
0000
0000
2020
0000
0000
3030
0001
0000
0000
0000
0010
0000
0000
0000
0100
0000
0000
0000
1010
0000
0000
0000
0001
0000
0000
0000
0010
0000
0000
0000
0100
0000
0000
0000
,
2002
0000
0000
3003
0100
0000
0000
0000
0010
0000
0000
0000
0001
0000
0000
0000
1010
0000
0000
0000
0100
0000
0000
0000
0010
0000
0000
0000
0001
0000
0000
0000
2200
0000
0000
3300
0001
0000
0000
0000
0010
0000
0000
0000
0100
0000
0000
0000
1010
0000
0000
0000
0001
0000
0000
0000
0010
0000
0000
0000
0100
0000
0000
0000
,
2002
0000
0000
3003
0100
0000
0000
0000
0010
0000
0000
0000
0001
0000
0000
0000
1010
0000
0000
0000
0100
0000
0000
0000
0010
0000
0000
0000
0001
0000
0000
0000
2200
0000
0000
3300
0001
0000
0000
0000
0010
0000
0000
0000
0100
0000
0000
0000
1010
0000
0000
0000
0001
0000
0000
0000
0010
0000
0000
0000
0100
0000
0000
0000
,
2002
0000
0000
3003
0100
0000
0000
0000
0010
0000
0000
0000
0001
0000
0000
0000
1010
0000
0000
0000
0100
0000
0000
0000
1010
0000
0000
0000
1001
0000
0000
0000
2200
0000
0000
3300
0001
0000
0000
0000
0010
0000
0000
0000
0100
0000
0000
0000
1010
0000
0000
0000
0100
0000
0000
0000
0011
0000
0000
0000
0101
0000
0000
0000
,
2002
0000
0000
3003
0100
0000
0000
0000
0010
0000
0000
0000
0001
0000
0000
0000
1010
0000
0000
0000
0100
0000
0000
0000
1010
0000
0000
0000
1001
0000
0000
0000
2020
0000
0000
3030
0001
0000
0000
0000
0010
0000
0000
0000
0100
0000
0000
0000
1010
0000
0000
0000
0100
0000
0000
0000
0011
0000
0000
0000
0101
0000
0000
0000
,
2002
0000
0000
3003
0100
0000
0000
0000
0010
0000
0000
0000
0001
0000
0000
0000
1010
0000
0000
0000
0100
0000
0000
0000
1010
0000
0000
0000
1001
0000
0000
0000
2200
0000
0000
3300
0001
0000
0000
0000
0010
0000
0000
0000
0100
0000
0000
0000
1010
0000
0000
0000
0100
0000
0000
0000
0011
0000
0000
0000
0101
0000
0000
0000
,
2002
0000
0000
3003
0100
0000
0000
0000
0010
0000
0000
0000
0001
0000
0000
0000
1010
0000
0000
0000
0100
0000
0000
0000
1010
0000
0000
0000
1001
0000
0000
0000
2200
0000
0000
3300
0010
0000
0000
0000
0001
0000
0000
0000
0110
0000
0000
0000
1001
0000
0000
0000
0011
0000
0000
0000
1100
0000
0000
0000
0101
0000
0000
0000
,
1001
0000
0000
0000
;
