#TITLE:I'm Your Devil;
#SUBTITLE:;
#ARTIST:Loffciamcore;
#TITLETRANSLIT:;
#SUBTITLETRANSLIT:;
#ARTISTTRANSLIT:;
#CREDIT:;
#BANNER:devil-bn.png;
#BACKGROUND:devil-bg.png;
#LYRICSPATH:;
#CDTITLE:;
#MUSIC:I'm Your Devil.ogg;
#OFFSET:0.009;
#SAMPLESTART:8.001;
#SAMPLELENGTH:16.000;
#SELECTABLE:YES;
#DISPLAYBPM:240.000;
#BPMS:0.000=240.000;
#STOPS:;
#BGCHANGES:;
// cache tags:
#FIRSTBEAT:32.000;
#LASTBEAT:579.000;
#SONGFILENAME:Songs/SPEEEDCOOOORE 3/I'm Your Devil - [Garrett]/I'm Your Devil.sm;
#HASMUSIC:1;
#HASBANNER:1;
#MUSICLENGTH:145.750;
// end cache tags

//---------------dance-single - G. Moese----------------
#NOTES:
     dance-single:
     G. Moese:
     Challenge:
     17:
     1.000,1.000,0.213,0.261,1.000,1194.000,31.000,38.000,48.000,0.000:

0000
0000
0000
0000
,
0000
0000
0000
0000
,
0000
0000
0000
0000
,
0000
0000
0000
0000
,
0000
0000
0000
0000
,
0000
0000
0000
0000
,
0000
0000
0000
0000
,
0000
0000
0000
0000
,
1001
0001
0100
0000
0100
0000
0001
0010
,
0100
0100
0100
2000
,
3001
0100
0001
0000
0001
0000
1000
0001
,
1000
1000
0100
0010
,
0011
0001
1000
0000
0001
0000
1000
0010
,
2000
0000
3002
0000
0203
0000
0310
1000
,
0001
0100
0001
0100
0001
0000
0000
0000
0001
0000
0000
0000
0010
0000
0000
0000
,
0100
0100
0100
0100
,
2200
0000
0000
0000
3300
0000
0000
0000
0000
0000
0000
0000
0000
0000
0000
0000
0000
0000
0000
0000
0000
0000
0000
0000
0000
0000
0000
0000
0000
0000
0000
0000
0000
0000
0000
0000
0000
0000
0000
0000
0000
0000
0000
0000
0000
0000
0000
0000
2000
0000
0000
0000
0000
0000
3000
0000
0000
0000
0000
0000
0000
0000
0000
0000
0000
0000
0000
0000
0000
0000
0000
0000
0000
0000
0000
0000
0000
0000
0000
0000
0000
0000
0000
0000
0000
0000
0000
0000
0000
0000
0000
0000
0000
0000
0000
0000
0200
0000
0000
0000
0000
0000
0000
0000
0300
0000
0000
0000
0000
0000
0000
0000
0000
0000
0000
0000
0000
0000
0000
0000
0000
0000
0000
0000
0000
0000
0000
0000
0000
0000
0000
0000
0000
0000
0000
0000
0000
0000
0000
0000
0000
0000
0000
0000
0020
0000
0000
0000
0000
0000
0000
0000
0000
0000
0000
0000
0030
0000
0000
0000
0000
0000
0000
0000
0000
0000
0000
0000
0000
0000
0000
0000
0000
0000
0000
0000
0000
0000
0000
0000
0000
0000
0000
0000
0000
0000
0000
0000
0000
0000
0000
0000
,
0002
0000
0003
0000
0000
0000
2000
0000
0000
3000
0000
0000
0002
0000
0000
0000
0000
0000
MMM3
0000
0000
0M00
0000
0000
,
00M0
000M
M000
00M0
,
0M00
0M00
0M00
0M00
0M00
0M00
0M00
0M00
0M00
0M00
0M00
0M00
0MMM
0000
0000
0000
,
0001
0100
0010
1000
0010
0100
0001
1000
0001
0100
0010
0100
0001
1000
0010
1000
,
0001
0010
0100
1000
0100
0010
0001
1000
0002
0000
1000
0000
0003
0000
0001
0000
,
1000
0100
0010
0001
0010
0100
1000
0001
0010
0001
1000
0100
0010
0001
1000
0100
,
1000
0001
0100
0010
0100
0001
1000
0010
4000
0000
0000
0000
3001
0100
0001
0100
,
0001
1000
0010
1000
0001
0100
0001
1000
0010
1000
0001
0000
0000
0000
0000
0000
,
1000
0100
0010
0100
1000
0001
0010
0001
0000
0000
0000
0000
0000
0000
0000
0000
,
1000
0010
0100
0001
1000
0010
0100
0010
1000
0001
0100
0010
0100
0001
1000
0001
,
0010
0100
1000
0001
1000
0100
0010
0001
1000
0100
1000
0001
0010
0001
1000
0100
,
1000
0001
0100
0010
0100
0001
1000
0001
1000
0100
0010
0001
1000
0100
0010
0100
,
1000
0001
0100
0010
1000
0001
0100
0001
4000
0000
0000
0000
3000
0000
0004
0003
,
1000
0100
0010
0001
1000
0100
0010
0100
1000
0001
0100
0010
1000
0001
0100
0010
,
1000
0001
0010
0100
1000
0001
0010
0001
4000
0000
0000
0000
0000
0000
3000
0000
,
0001
0100
0010
1000
0001
0100
0010
1000
0001
0010
0100
1000
0100
0010
0001
1000
,
0001
0100
0010
0100
0001
1000
0010
0100
0004
0000
0000
0000
0003
0000
4000
3000
,
0001
0100
0010
1000
0001
0100
0001
1000
0010
0100
0001
1000
0010
1000
0001
0100
,
0004
0000
2003
3000
,
0001
0100
0010
1000
0001
0100
0010
0100
0001
1000
0010
0100
0001
1000
0010
1000
,
0001
0010
0100
1000
0001
0010
0001
1000
0004
0000
0043
0000
0430
0000
4300
0000
,
3001
0100
0010
1000
0001
0100
0010
0100
0001
1000
0010
1000
0001
0100
0001
1000
,
0001
0010
0100
1000
0100
0010
0001
1000
0100
1000
0001
0010
0001
1000
0100
1000
,
0001
1000
0010
0100
0004
0000
0000
0000
0003
0000
4000
3000
0400
0300
4000
3000
,
0001
0010
0100
1000
0001
0010
0001
1000
0100
1000
0001
1000
0100
0010
0001
1000
,
0010
0100
0001
1000
0010
1000
0001
0100
0010
0100
0001
1000
0001
0100
0010
0100
,
0001
1000
0001
1000
0001
1000
0000
0000
0000
0000
0000
0000
0004
0000
0000
0000
,
1003
0100
1000
0001
0010
0001
1000
0100
0010
0001
1000
0100
0010
0100
1000
0001
,
1000
0010
0100
0010
1000
0001
0100
0010
0100
0001
1000
0010
0100
0001
1000
0001
,
0010
0100
1000
0001
0010
0001
1000
0100
0010
0100
1000
0001
1000
0100
0010
0001
,
1000
0010
0100
0001
1000
0010
0100
0010
2000
0000
0000
0000
3000
0000
0000
0000
,
0004
0000
0000
0000
0000
0000
0000
0000
1003
0010
1000
0001
0100
0001
1000
0010
,
1000
0001
0010
0100
1000
0100
0010
0001
1000
0100
1000
0001
0010
0100
1000
0001
,
0100
0010
1000
0001
0100
0010
0100
0001
1000
0010
1000
0001
0100
0010
0100
0001
,
4000
0000
0000
0000
3002
0000
0023
0030
,
1001
0001
0000
1000
0000
0010
0000
0100
,
0010
1000
0000
0001
0000
0010
0000
0100
,
1000
0100
1000
0001
0100
0001
0100
0010
,
1000
0001
0000
0001
0000
0001
0000
0001
,
1000
0100
0000
0010
0000
0001
0000
1000
,
0010
0100
0000
0001
0000
1000
0000
0100
,
0010
0001
1000
0100
1000
0010
0100
0001
,
1000
0001
0000
0001
1000
0001
1000
0000
,
1010
0000
0001
0000
,
1000
0001
0000
0100
0000
0100
0001
1000
,
0010
1000
0001
1000
0100
1000
0001
1000
,
0100
0010
0000
0001
0000
1000
0010
0100
,
0001
0001
0001
0001
,
0001
1000
0000
0100
0000
0010
0001
1000
,
0100
0100
0100
0100
,
0100
0010
0000
0001
0000
1000
0010
0100
,
0001
0001
0001
0001
,
1000
0000
1000
0000
1000
0000
1000
0001
,
0100
0100
0100
0100
,
0001
0000
0001
0000
0001
0000
0001
0010
,
0100
0000
1000
0000
0100
0000
1000
0000
0001
0000
0100
0000
0001
0000
0100
0001
,
0100
0000
0001
0000
1000
0000
0001
1000
0001
0000
1000
0010
1000
0000
0001
0000
,
1000
0100
0010
0001
1000
0100
0010
0100
1000
0001
0100
0010
0100
0001
1000
0010
,
2000
0000
3002
0003
,
1010
0010
0110
0100
,
0101
0000
0001
0000
0000
0000
1000
0000
0001
1000
0010
0100
0001
1000
0001
0100
,
0010
1000
1010
1000
,
1100
0100
0000
0010
0000
0001
1000
0010
,
0110
0100
0101
0001
,
0011
0000
0010
0000
0000
0000
0100
0000
1000
0100
0010
0100
1000
0001
0100
0010
,
0100
0000
0001
0000
1000
0000
0010
0000
0100
0001
0100
0001
0100
0001
0100
0001
,
0100
0000
0001
0000
1000
0000
0100
1000
0100
0000
1000
0000
0001
0100
0001
1000
,
0001
1000
0100
0010
0001
1000
0100
0010
,
0001
1000
0010
0100
0001
1000
0010
0100
,
0001
1000
0100
1000
0001
0010
0001
1000
,
0100
0000
1000
0000
0010
0000
0100
0000
0001
0010
0100
1000
0001
0100
0010
1000
,
0001
0100
0001
0000
1000
0000
0010
0000
1000
0001
1000
0000
0001
0000
0010
0000
,
0100
1000
0100
0000
1000
0000
0001
0000
1000
0010
0100
0001
1000
0100
0010
0001
,
1000
0000
0100
1000
0000
0000
0001
0000
0100
0001
0000
0000
,
M000
000M
0000
0M00
0000
0M00
0000
0M00
,
1001
0001
0100
0010
0000
1000
0000
0001
,
0010
0100
1000
1000
0002
0000
1003
0100
,
1000
0001
0100
0001
0000
1000
0000
0010
,
0100
0100
0001
1000
0100
0010
0001
1000
,
0100
0010
0100
1000
0000
0001
0000
0100
,
0001
0001
1000
0010
0100
0001
1000
0100
,
1000
0000
1000
0000
,
1000
0000
1000
0000
1000
1000
0100
0010
,
0011
0001
1000
0000
1000
0000
0010
0100
,
0001
1000
0001
0200
,
0310
1000
0001
0000
1000
0000
0001
0100
,
0001
0000
0200
0000
0320
0000
2030
3000
,
1001
0001
1000
0000
0100
0000
0010
0001
,
1000
0000
0001
0000
1000
0000
0001
0100
,
0001
0000
0000
0000
1001
0000
0001
0100
,
0001
0000
0010
0000
0100
0000
1000
0001
,
2002
0000
0000
0000
3000
0000
0003
0000
0000
0000
0000
0000
0000
0000
0000
0000
0000
0000
0000
0000
0000
0000
0000
0000
0000
0000
0000
0000
0000
0000
0000
0000
0000
0000
0000
0000
0000
0000
0000
0000
0000
0000
0000
0000
0000
0000
0000
0000
2000
0000
0000
0000
0000
0000
3000
0000
0000
0000
0000
0000
0000
0000
0000
0000
0000
0000
0000
0000
0000
0000
0000
0000
0000
0000
0000
0000
0000
0000
0000
0000
0000
0000
0000
0000
0000
0000
0000
0000
0000
0000
0000
0000
0000
0000
0000
0000
0020
0000
0000
0000
0000
0000
0000
0000
0030
0000
0000
0000
0000
0000
0000
0000
0000
0000
0000
0000
0000
0000
0000
0000
0000
0000
0000
0000
0000
0000
0000
0000
0000
0000
0000
0000
0000
0000
0000
0000
0000
0000
0000
0000
0000
0000
0000
0000
0200
0000
0000
0000
0000
0000
0000
0000
0000
0000
0000
0000
0300
0000
0000
0000
0000
0000
0000
0000
0000
0000
0000
0000
0000
0000
0000
0000
0000
0000
0000
0000
0000
0000
0000
0000
0000
0000
0000
0000
0000
0000
0000
0000
0000
0000
0000
0000
,
0002
0000
0003
0000
0000
0000
2000
0000
0000
3000
0000
0000
0200
0000
0000
0000
0300
0000
2000
0000
0000
0001
0000
0000
,
30M0
00M0
M000
000M
,
M000
M000
M000
M000
M000
M000
M000
M000
M000
M000
M000
M000
MMMM
0000
0000
0000
,
1000
0100
0010
0100
1000
0001
0010
0100
0010
0001
1000
0100
0010
0001
1000
0100
,
1000
0001
0100
0010
0100
0001
1000
0001
2000
0000
0001
0000
3000
0000
1000
0000
,
0001
0100
0010
1000
0010
0100
0001
1000
0010
0100
0010
1000
0001
0100
0010
1000
,
0001
0010
0100
1000
0100
0010
0001
1000
0001
0000
0000
0000
1000
0001
1000
0001
,
1000
0001
0100
0001
4000
0000
0000
0000
3001
0010
0100
1000
0004
0000
0000
0000
,
1003
0010
0100
0010
1000
0001
0100
0010
4000
0000
0000
0000
0000
0000
0000
0000
,
3001
0100
0010
0100
0001
1000
0010
1000
0001
0100
0010
0100
0001
1000
0010
1000
,
0001
0010
0100
1000
0001
0010
0001
1000
0100
0010
0100
1000
0001
0010
0100
1000
,
0001
0100
0010
0100
0001
1000
0010
1000
0001
0010
0100
1000
0001
0010
0100
0010
,
0001
1000
0010
0100
0001
1000
0010
1000
0004
0000
0000
0000
0003
0000
4000
3000
,
0001
0100
0010
0100
0001
1000
0100
0010
0100
1000
0001
0010
0100
1000
0001
0010
,
0001
1000
0010
0100
0010
1000
0001
0100
0001
1000
0010
0100
0010
1000
0001
0100
,
0001
1000
0100
1000
0001
0010
0100
1000
0001
0100
0010
1000
0010
0100
0001
1000
,
0001
1000
0100
0010
0001
0010
0100
1000
0004
0000
0000
0000
0003
0000
4000
3000
,
0001
0100
0010
0100
0001
1000
0010
0100
0001
1000
0100
0010
0001
0010
0100
1000
,
0001
0100
0001
1000
0010
0100
0002
0000
0000
0000
0003
0000
0000
0000
0000
0000
,
1001
0000
0001
0100
0001
0000
1000
0000
0100
1000
0100
0000
1000
0000
0001
0000
,
0100
0000
0010
1000
0010
0000
1000
0000
0001
1000
0010
0100
0001
1000
0100
0010
,
0001
0000
1000
0100
1000
0000
0001
0000
0100
0010
0100
0000
0010
0000
1000
0000
,
0001
0000
1000
0001
1000
0000
0001
0000
0100
0001
0100
0010
1000
0001
1000
0001
,
1000
0000
0001
0000
0100
0000
0001
0000
1000
0100
1000
0001
0100
0001
1000
0010
,
1000
0000
0010
0000
0100
0000
0001
0000
1000
0000
1000
0000
0001
1000
0001
1000
,
0001
0100
0100
0000
0001
1000
0000
0000
,
0002
0000
0000
0000
0000
0000
0000
0003
,
1000
0010
0100
0001
1000
0001
0100
0010
0100
0001
1000
0001
0100
0010
0100
0001
,
1000
0100
0010
0001
0010
0100
1000
0001
4000
0000
3400
0000
0340
0000
0034
0000
,
1003
0010
0100
0001
1000
0010
0100
0001
1000
0001
0100
0010
0100
0001
1000
0001
,
1000
0100
0010
0001
1000
0100
0010
0100
1000
0001
0010
0001
1000
0001
1000
0001
,
0100
0010
0100
0001
4000
0000
0000
0000
3000
0000
0004
0003
0400
0300
0004
0000
,
1003
0100
0010
0001
1000
0001
0010
0100
1000
0001
0010
0001
1000
0100
1000
0001
,
0100
0010
1000
0001
1000
0010
0100
0010
1000
0001
0100
0010
0100
0001
1000
0001
,
0100
0010
1000
0001
0100
0001
1000
0000
0001
0000
0000
0000
1000
0000
0000
0000
,
2002
0000
0000
3003
;

//---------------dance-single - Rynker----------------
#NOTES:
     dance-single:
     Rynker:
     Hard:
     15:
     1.000,1.000,0.268,0.549,1.000,1038.000,39.000,80.000,48.000,2.000:


0000
0000
0000
0000
,
0000
0000
0000
0000
,
0000
0000
0000
0000
,
0000
0000
0000
0000
,
0000
0000
0000
0000
,
0000
0000
0000
0000
,
0000
0000
0000
0000
,
0000
0000
0000
0000
,
1001
0001
0100
0000
0100
0000
0001
0010
,
0100
0100
0100
2000
,
3001
0100
0001
0000
0001
0000
1000
0001
,
1000
1000
0100
0010
,
0011
0001
1000
0000
0001
0000
1000
0010
,
2000
0000
3002
0000
0203
0000
0310
1000
,
0001
0100
0001
0100
0000
0000
0001
0000
0000
0010
0000
0000
,
0100
0100
0100
0100
,
2200
0000
0000
0000
3300
0000
0000
0000
0000
0000
0000
0000
0000
0000
0000
0000
0000
0000
0000
0000
0000
0000
0000
0000
0000
0000
0000
0000
0000
0000
0000
0000
0000
0000
0000
0000
0000
0000
0000
0000
0000
0000
0000
0000
0000
0000
0000
0000
2000
0000
0000
0000
0000
0000
3000
0000
0000
0000
0000
0000
0000
0000
0000
0000
0000
0000
0000
0000
0000
0000
0000
0000
0000
0000
0000
0000
0000
0000
0000
0000
0000
0000
0000
0000
0000
0000
0000
0000
0000
0000
0000
0000
0000
0000
0000
0000
0200
0000
0000
0000
0000
0000
0000
0000
0300
0000
0000
0000
0000
0000
0000
0000
0000
0000
0000
0000
0000
0000
0000
0000
0000
0000
0000
0000
0000
0000
0000
0000
0000
0000
0000
0000
0000
0000
0000
0000
0000
0000
0000
0000
0000
0000
0000
0000
0020
0000
0000
0000
0000
0000
0000
0000
0000
0000
0000
0000
0030
0000
0000
0000
0000
0000
0000
0000
0000
0000
0000
0000
0000
0000
0000
0000
0000
0000
0000
0000
0000
0000
0000
0000
0000
0000
0000
0000
0000
0000
0000
0000
0000
0000
0000
0000
,
0002
0000
0003
0000
0000
0000
2000
0000
0000
3000
0000
0000
0002
0000
0000
0000
0000
0000
MMM3
0000
0000
0M00
0000
0000
,
00M0
000M
M000
00M0
,
0M00
0M00
0M00
0M00
0M00
0M00
0M00
0M00
0M00
0M00
0M00
0M00
0MMM
0000
0000
0000
,
0001
0100
0010
1000
0010
0100
0001
1000
0001
0000
0100
0010
1000
0001
1000
0000
,
0001
0010
0100
1000
0100
0010
0001
1000
0002
0000
0000
0000
0003
0000
0001
0000
,
1000
0100
0010
0001
0010
0100
1000
0001
0010
0001
1000
0000
0100
0010
0001
0010
,
0100
1000
0001
0000
0100
0001
1000
0010
4000
0000
0000
0000
3004
0000
0000
0000
,
1003
0010
0100
0001
1000
0010
1000
0001
0100
0001
1000
0000
0000
0000
0000
0000
,
1000
0100
0010
0100
1000
0001
0010
0001
0000
0000
0000
0000
0000
0000
0000
0000
,
2222
0000
0000
0000
,
0000
0000
0000
0000
,
3333
0000
0000
0000
1000
0001
1000
0000
0100
0010
0001
0000
1000
0001
0100
0010
,
1000
0000
0010
0100
0001
0000
0100
0001
4000
0000
0000
0000
3000
0000
0001
0000
,
1000
0100
0010
0001
1000
0000
0100
0010
0001
1000
0001
0000
1000
0001
0100
0010
,
1000
0001
0010
0100
1000
0001
0010
0001
4000
0000
0000
0000
0000
0000
3000
0000
,
0001
0100
0010
1000
0001
0100
0010
1000
0001
0000
1000
0100
0010
0001
1000
0000
,
0001
0100
0010
0100
0001
1000
0010
0100
0004
0000
0000
0000
0003
0000
0001
0000
,
1000
0100
0010
0001
1000
0100
1000
0001
0010
0100
1000
0001
0010
0001
1000
0000
,
0004
0000
1003
0000
,
0001
0100
0010
1000
0001
0100
0010
0100
0001
0000
1000
0010
0100
0001
1000
0000
,
0100
0010
0001
0000
1000
0000
0001
1000
0004
0000
0043
0000
0430
0000
4300
0000
,
3001
0100
0010
1000
0001
0100
0010
0100
0001
1000
0010
0000
0100
0001
1000
0100
,
0010
0000
0001
1000
0100
0010
0001
1000
0004
0000
0000
0000
0000
0000
0000
0000
,
1003
0100
0010
0001
1000
0001
0100
0000
0040
0000
0000
0000
0430
0000
0000
0000
,
0301
1000
0001
0010
0100
1000
0100
0000
0010
0001
0010
0001
1000
0000
0010
0100
,
0010
0100
0001
0000
1000
0010
0100
0001
1000
0000
0001
1000
0001
0010
0100
0010
,
0001
1000
0001
1000
0001
0000
0000
0000
0000
0000
0000
0000
0004
0000
0000
0000
,
1003
0100
1000
0001
0010
0001
1000
0100
0010
0001
1000
0100
0010
0100
1000
0001
,
1000
0010
0100
0010
1000
0001
0100
0010
4000
0000
0000
0000
0000
0000
0000
0000
,
3001
0100
0010
1000
0010
0100
0001
1000
0010
0100
0001
1000
0001
0100
0010
1000
,
0001
0010
0100
1000
0100
0010
0001
1000
0002
0000
0000
0000
0003
0000
0000
0000
,
0004
0000
0000
0000
0000
0000
0000
0000
1003
0010
1000
0001
0100
0001
1000
0010
,
1000
0001
0010
0100
1000
0100
0010
0001
4000
0000
0000
0000
0000
0000
0000
3000
,
0010
0100
0001
1000
0010
0100
0001
1000
0010
1000
0001
0100
0010
0100
0001
1000
,
0004
0000
0000
0003
0002
0000
0023
0030
,
1001
0001
0000
1000
0000
0010
0000
0100
,
0010
1000
0000
0001
0000
0010
0000
0100
,
1000
0100
1000
0001
0100
0001
0100
0010
,
1000
0001
0000
0001
0000
0001
0000
0001
,
1000
0100
0000
0010
0000
0001
0000
1000
,
0010
0100
0000
0001
0000
1000
0000
0100
,
0010
0001
1000
0100
1000
0010
0100
0001
,
1000
0000
0000
0000
0001
0000
0000
0000
0000
0000
0000
0000
0001
0000
0000
0000
2000
3000
0000
0000
0001
0000
0000
0000
2000
3000
0000
0000
0000
0000
0000
0000
,
1010
0000
0000
0000
0000
0000
0000
0000
0000
0000
0000
0000
0000
0000
0000
0000
0002
0003
0000
0000
0000
0000
0000
0000
0000
0000
0000
0000
0000
0000
0000
0000
,
1000
0001
0000
0100
0000
0100
0001
1000
,
0010
1000
0001
1000
0100
1000
0001
1000
,
0100
0010
0000
0001
0000
1000
0010
0100
,
0002
0003
0000
0000
0000
0000
0000
0000
0002
0003
0000
0000
0000
0000
0000
0000
0002
0003
0000
0000
0000
0000
0000
0000
0002
0003
0000
0000
0000
0000
0000
0000
,
0002
0003
0000
0000
1000
0000
0000
0000
0000
0000
0000
0000
0100
0000
0000
0000
0000
0000
0000
0000
0010
0000
0000
0000
0001
0000
0000
0000
1000
0000
0000
0000
,
0100
0100
0100
0100
,
0100
0010
0000
0001
0000
1000
0010
0100
,
0001
0001
0001
0001
,
1000
0000
1000
0000
1000
0000
1000
0001
,
0100
0100
0100
0100
,
0001
0000
0001
0000
0001
0000
0001
0010
,
0100
0000
1000
0000
0100
0000
1000
0000
0001
0000
0100
0000
0001
0000
0100
0001
,
0100
0000
0001
0000
1000
0000
0001
1000
0001
0000
1000
0010
1000
0000
0001
0000
,
1000
0100
0010
0001
1000
0100
0010
0100
1000
0001
0100
0010
0100
0001
1000
0010
,
4000
0000
3002
0003
,
2020
3030
0000
0000
0000
0000
0000
0000
0020
0030
0000
0000
0000
0000
0000
0000
0220
0330
0000
0000
0000
0000
0000
0000
0200
0300
0000
0000
0000
0000
0000
0000
,
0202
0303
0000
0000
0001
0000
0000
0000
0000
0000
0000
0000
1000
0000
0000
0000
0001
0000
1000
0000
0010
0000
0100
0000
0001
0000
1000
0000
0001
0000
0100
0000
,
0020
0030
0000
0000
0000
0000
0000
0000
2000
3000
0000
0000
0000
0000
0000
0000
2020
3030
0000
0000
0000
0000
0000
0000
2000
3000
0000
0000
0000
0000
0000
0000
,
2200
3300
0000
0000
0100
0000
0000
0000
0000
0000
0000
0000
0010
0000
0000
0000
0000
0000
0000
0000
0001
0000
0000
0000
1000
0000
0000
0000
0010
0000
0000
0000
,
0220
0330
0000
0000
0000
0000
0000
0000
0200
0300
0000
0000
0000
0000
0000
0000
0202
0303
0000
0000
0000
0000
0000
0000
0002
0003
0000
0000
0000
0000
0000
0000
,
0022
0033
0000
0000
0010
0000
0000
0000
0000
0000
0000
0000
0100
0000
0000
0000
1000
0000
0100
0000
0010
0000
0100
0000
1000
0000
0001
0000
0100
0000
0010
0000
,
0100
0001
1000
0010
0100
0001
0100
0001
,
0100
0000
0001
0000
1000
0000
0100
1000
0100
0000
1000
0000
0001
0100
0001
1000
,
0001
1000
0100
0010
0001
1000
0100
0010
,
0001
1000
0010
0100
0001
1000
0010
0100
,
0001
1000
0100
1000
0001
0010
0001
1000
,
0100
0000
1000
0000
0010
0000
0100
0000
0001
0010
0100
1000
0001
0100
0010
1000
,
0001
0100
0001
0000
1000
0000
0010
0000
1000
0001
1000
0000
0001
0000
0010
0000
,
0100
1000
0100
0000
1000
0000
0001
0000
1000
0010
0100
0001
1000
0100
0010
0001
,
1000
0000
0000
0000
0000
0100
0000
0000
1000
0000
0000
0000
0000
0000
0000
0000
0001
0000
0000
0000
0000
0100
0000
0000
0001
0000
0000
0000
0000
0000
0000
0000
,
M000
000M
0000
0M00
0000
0M00
0000
0M00
,
1001
0001
0100
0010
0000
1000
0000
0001
,
0010
0100
1000
1000
0002
0000
1003
0100
,
1000
0001
0100
0001
0000
1000
0000
0010
,
0100
0100
0001
1000
0100
0010
0001
1000
,
0100
0010
0100
1000
0000
0001
0000
0100
,
0001
0001
1000
0010
0100
0001
1000
0100
,
2000
3000
0000
0000
0000
0000
0000
0000
0000
0000
0000
0000
0000
0000
0000
0000
2000
3000
0000
0000
0000
0000
0000
0000
0000
0000
0000
0000
0000
0000
0000
0000
,
1000
0000
1000
0000
1000
1000
0100
0010
,
0011
0001
1000
0000
1000
0000
0010
0100
,
0001
0001
0001
0020
,
0130
1000
0100
0000
1000
0000
0001
0100
,
0001
0000
0200
0000
0320
0000
2030
3000
,
1001
0001
1000
0000
0100
0000
0010
0001
,
1000
0000
0010
0000
0100
0000
0001
1000
,
0001
0000
0000
0000
1001
0000
1000
0100
,
1000
0000
0010
0000
0100
0000
0001
0100
,
0202
0000
0000
0000
0303
0000
0000
0000
0000
0000
0000
0000
0000
0000
0000
0000
0000
0000
0000
0000
0000
0000
0000
0000
0000
0000
0000
0000
0000
0000
0000
0000
0000
0000
0000
0000
0000
0000
0000
0000
0000
0000
0000
0000
0000
0000
0000
0000
0002
0000
0000
0000
0000
0000
0003
0000
0000
0000
0000
0000
0000
0000
0000
0000
0000
0000
0000
0000
0000
0000
0000
0000
0000
0000
0000
0000
0000
0000
0000
0000
0000
0000
0000
0000
0000
0000
0000
0000
0000
0000
0000
0000
0000
0000
0000
0000
0200
0000
0000
0000
0000
0000
0000
0000
0300
0000
0000
0000
0000
0000
0000
0000
0000
0000
0000
0000
0000
0000
0000
0000
0000
0000
0000
0000
0000
0000
0000
0000
0000
0000
0000
0000
0000
0000
0000
0000
0000
0000
0000
0000
0000
0000
0000
0000
0020
0000
0000
0000
0000
0000
0000
0000
0000
0000
0000
0000
0030
0000
0000
0000
0000
0000
0000
0000
0000
0000
0000
0000
0000
0000
0000
0000
0000
0000
0000
0000
0000
0000
0000
0000
0000
0000
0000
0000
0000
0000
0000
0000
0000
0000
0000
0000
,
2000
0000
3000
0000
0000
0000
0002
0000
0000
0003
0000
0000
0010
0000
0000
0000
0000
0000
0200
0000
0000
1000
0000
0000
,
03M0
0M00
000M
M000
,
000M
000M
000M
000M
000M
000M
000M
000M
000M
000M
000M
000M
MMMM
0000
0000
0000
,
1000
0100
0010
0100
1000
0001
0010
0100
0010
0001
1000
0100
0010
0001
1000
0100
,
1000
0001
0100
0010
0100
0001
1000
0001
2000
0000
0000
0000
3000
0000
1000
0000
,
0001
0100
0010
1000
0010
0100
0001
1000
0010
0100
0010
1000
0001
0100
0010
1000
,
0001
0010
0100
1000
0100
0010
0001
1000
0001
0000
0000
0000
1000
0001
1000
0001
,
1000
0001
0100
0001
4000
0000
0000
0000
3001
0010
0100
1000
0004
0000
0000
0000
,
1003
0010
0100
0010
1000
0001
0100
0010
4000
0000
0000
0000
0000
3000
0000
0000
,
2222
0000
0000
0000
,
0000
0000
0000
0000
,
3333
0000
0000
0000
0001
1000
0010
1000
0001
0010
0100
1000
0001
0010
0100
0010
,
0001
1000
0010
0100
0001
1000
0010
1000
0004
0000
0000
0000
1000
0000
0003
0000
,
1000
0100
0010
0100
1000
0001
0010
0100
0010
0001
1000
0100
0010
0001
1000
0100
,
1000
0001
0100
0010
0100
0001
1000
0010
4000
0000
0000
0000
0000
0000
0000
0000
,
3001
0010
0001
1000
0001
0010
0100
1000
0001
0100
0010
1000
0010
0100
0001
1000
,
0001
1000
0100
0010
0001
0010
0100
1000
0004
0000
0000
0000
0000
0000
4003
0000
,
3001
0100
0010
0100
0001
1000
0010
0100
0001
1000
0100
0010
0001
0010
0100
1000
,
0004
0000
0000
0003
0000
0000
0000
0000
,
1001
0000
1000
0010
1000
0000
0001
0000
0010
0001
0010
0000
0001
0000
1000
0000
,
0010
0000
0100
0001
0100
0000
0001
0000
1000
0001
0100
0010
1000
0001
0010
0100
,
1000
0000
0001
0010
0001
0000
1000
0000
0010
0100
0010
0000
0100
0000
0001
0000
,
1000
0000
0001
1000
0001
0000
1000
0000
0010
1000
0010
0100
0001
1000
0001
1000
,
0001
0000
1000
0000
0010
0000
1000
0000
0001
0010
0001
1000
0010
1000
0001
0100
,
0001
0000
0100
0000
0010
0000
1000
0000
0001
0000
0001
0000
1000
0001
1000
0001
,
1000
0000
0000
0000
0000
0010
0000
0000
1000
0000
0000
0000
0000
0000
0000
0000
0001
0000
0000
0000
0000
0010
0000
0000
0001
0000
0000
0000
0010
0000
0000
0000
,
0000
0000
0000
0000
,
0001
0100
0010
1000
0001
0010
0100
1000
0100
0010
0001
1000
,
0001
0000
0100
0000
0010
0000
1000
0000
0001
0000
1000
0000
0004
0000
0000
0043
0000
0000
0430
0000
0000
4300
0000
0000
,
3001
0100
0010
1000
0001
0100
0010
1000
0001
1000
0010
0100
0010
1000
0001
1000
,
0001
0010
0100
1000
0001
0010
0100
0010
0001
1000
0100
1000
0001
0000
1000
0000
,
0020
0000
2030
0000
3002
0000
0203
0000
0320
0000
2030
0000
3001
0000
0000
0010
0000
0000
0100
0000
0000
4000
0000
0000
,
3001
0010
0100
1000
0001
1000
0100
0010
0004
0000
0000
0000
0000
0000
0000
0000
,
1003
0010
1000
0001
1000
0010
0100
0010
1000
0001
0100
0010
0100
0001
1000
0001
,
0400
0000
0301
1000
,
2002
3003
0000
0000
;
