#TITLE:大見解;
#SUBTITLE:;
#ARTIST:Des-ROW feat. TSUBOI for ALPHA;
#TITLETRANSLIT:DAIKENKAI;
#SUBTITLETRANSLIT:;
#ARTISTTRANSLIT:;
#CREDIT:;
#BANNER:DAIKENKAI.png;
#BACKGROUND:DAIKENKAI-bg.png;
#LYRICSPATH:;
#CDTITLE:;
#MUSIC:DAIKENKAI.mp3;
#OFFSET:-0.680;
#SAMPLESTART:42.638;
#SAMPLELENGTH:12.000;
#SELECTABLE:YES;
#BPMS:0.000=143.000,114.000=172.000,271.000=344.000;
#STOPS:;
#BGCHANGES:;
// cache tags:
#FIRSTBEAT:0.000;
#LASTBEAT:271.000;
#SONGFILENAME:Songs/cedric step/DAIKENKAI/DAIKENKAI.sm;
#HASMUSIC:1;
#HASBANNER:1;
#MUSICLENGTH:106.239;
// end cache tags

//---------------dance-single - ----------------
#NOTES:
     dance-single:
     :
     Hard:
     10:
     0.799,0.891,0.442,0.047,0.428,542.000,47.000,5.000,4.000,0.000:
1000
1000
0100
0100
0010
0010
0001
0001
,
1100
0000
0100
0010
1000
0000
0100
0010
,
0000
1000
0100
0001
0010
1000
0100
0000
,
1001
0000
0100
0010
0100
0000
1000
0010
,
1000
1000
0100
0100
0001
1000
0100
0000
,
1000
0000
0100
0000
0010
0000
0001
0010
0100
0000
1000
0000
0110
0000
0000
0000
,
0100
0000
0010
0000
1000
0000
0001
0100
0010
0000
1000
0000
0110
0000
0000
0000
,
1000
0000
0100
0000
0010
0000
0001
0010
0100
0000
1000
0000
0100
0000
0010
0000
,
0001
0010
0100
1000
0110
0000
0000
0000
,
1000
0000
0100
0000
0010
0000
0001
0010
1000
0000
0100
0000
1001
0000
0000
0000
,
1000
0000
0010
0000
0001
0000
0010
0001
0100
0000
1000
0000
0110
0000
0000
0000
,
1000
0100
0010
0010
0001
0010
1000
1000
,
0100
0010
1000
0001
0110
0000
0000
0000
,
1000
0000
0100
0000
1001
0000
0010
0001
0010
0000
1000
0100
1000
0000
0100
0010
,
0001
0010
0001
0000
0100
0000
0010
0000
1001
0000
0000
0000
0100
0010
0100
0000
,
1001
0000
0100
0010
0100
0000
1000
0001
1000
0000
0000
0000
1000
0100
0010
0001
,
1000
0100
0010
0001
0010
0100
1000
0000
0110
0000
0000
0000
1001
0000
0000
0000
,
1000
0000
0001
0100
0001
1000
0001
0100
0010
0000
0000
0000
1000
0100
0010
0100
,
1000
0100
0000
0010
0000
0001
0000
0010
0100
0000
1000
0010
1000
0000
0000
0000
,
1000
0000
0000
1000
0010
0000
0100
0000
1000
0100
1000
0100
1000
0000
0000
0000
,
1000
0100
0000
0010
0000
0001
1000
0000
0110
0000
0000
0000
0000
0000
0000
0000
,
1000
0000
0100
0000
1000
0000
0010
0000
0001
0010
1000
0000
0100
0000
1000
0001
,
0010
0000
1000
0000
0110
0000
0001
0010
1000
0010
0001
0000
1100
0000
0110
0000
,
0110
0000
1000
0000
0001
1000
0001
0000
0110
0000
0110
0000
0100
0010
0001
0010
,
0100
1000
0100
0010
0100
0001
0010
0000
0110
0000
1000
0000
1001
0000
0000
0000
,
0110
0000
1000
0100
0010
0001
0010
0100
1000
0000
0000
0000
0001
0010
0100
0000
,
1000
0000
0010
0000
1000
0001
0000
1000
0001
0000
0000
0000
1000
0100
0010
0000
,
1000
0100
1000
0000
0100
0010
0000
0010
0100
0000
0000
0000
1000
0100
0010
1000
,
0001
0010
0100
1000
0010
0100
0001
0000
0110
0000
0000
0000
0101
0000
0000
0000
,
1100
0000
1000
0100
0010
0000
1000
0100
,
0000
1000
0100
0001
0010
1000
0200
0000
,
0000
1000
0301
1000
0100
0100
1000
1000
,
0000
1000
0100
0100
0010
0010
0200
0000
,
1000
0300
1000
0010
1000
0000
0100
0010
,
0000
1000
0100
0010
0001
0010
0200
0000
,
0000
1300
1000
1000
1000
1000
1000
1000
,
0000
0100
0010
0100
0001
0010
0100
0000
,
1000
0000
0100
0000
0010
0000
0001
0010
0100
0000
1000
0000
0110
0000
0000
0000
,
0100
0000
0010
0000
1000
0000
0001
0100
0010
0000
1000
0000
0110
0000
0000
0000
,
1000
0000
0100
0000
0010
0000
0001
0010
0100
0000
1000
0000
0100
0000
0010
0000
,
0001
0010
0100
1000
0110
0000
0000
0000
,
1000
0000
0100
0000
0010
0000
0001
0010
1000
0000
0100
0000
1001
0000
0000
0000
,
1000
0000
0010
0000
0001
0000
0010
0001
0100
0000
1000
0000
0110
0000
0000
0000
,
1000
0100
0010
0010
0001
0010
1000
1000
,
0100
0010
1000
0001
0110
0000
0000
0000
,
1001
0000
0100
0010
0100
0000
1000
0001
1000
0000
0100
0010
0100
0000
0000
0000
,
1001
0000
1000
0100
0001
0000
1000
0010
0001
0000
1000
0100
0001
0000
0000
0000
,
0100
0000
1000
0000
0100
0000
0010
0000
0000
0100
0000
0000
1000
0000
0000
0010
0000
0000
0100
0000
0000
0000
0000
0000
,
1000
0000
0010
0001
0010
0000
1000
0000
0110
0000
0000
0000
0000
0000
0000
0000
,
1000
0000
0100
0001
0100
0000
0100
1000
0100
0000
0100
0001
0100
0000
0000
0000
,
1000
0000
0100
0000
0010
0000
0001
0000
0000
0100
0000
0000
0010
0000
0000
0100
0000
0000
1001
0000
0000
0000
0000
0000
,
1000
0100
0001
0100
1000
0100
0001
0100
,
1000
0100
0001
0100
1000
0100
0001
0000
,
1001
0000
0010
1000
0100
0000
0010
0001
0100
0000
0010
1000
0100
0000
0000
0000
,
1001
0000
0100
0001
0010
0000
0100
1000
0010
0000
0100
0001
0010
0000
0000
0000
,
1000
0000
0100
0000
0001
0000
0100
0000
0000
1000
0000
0000
0100
0000
0000
0001
0000
0000
0110
0000
0000
0000
0000
0000
,
1000
0000
0010
0001
0010
0000
0100
0000
1001
0000
0000
0000
0000
0000
0000
0000
,
1000
0000
1000
0001
1000
0000
0001
1000
0001
0000
1000
0001
1000
0000
0000
0000
,
1000
0000
0100
0000
0010
0000
0001
0000
0000
1000
0000
0000
0010
0000
0000
0100
0000
0000
0001
0000
0000
0000
0000
0000
,
0110
1000
0100
0001
0010
1000
0100
0001
,
0010
1000
0100
0001
0010
1000
0100
0001
,
1001
0001
0110
0010
1001
1000
0110
0100
,
1000
0100
1000
0001
0010
0100
1000
0100
,
1010
0100
0010
1000
0001
0010
0100
1000
,
0001
0010
0001
1000
0100
0010
1000
0001
,
0010
0001
1000
0010
0100
1000
0100
0001
,
0010
0001
0100
0010
1000
0100
0010
0100
,
2MM2
0000
0000
0000
0M00
30M3
0000
0000
;

//---------------dance-single - ----------------
#NOTES:
     dance-single:
     :
     Challenge:
     9:
     0.627,0.732,0.461,0.028,0.000,414.000,49.000,3.000,0.000,0.000:
0000
0000
0000
0000
,
1000
0000
1000
0000
,
1000
0000
1000
0000
,
1000
0000
1000
0000
,
1000
0000
1000
0000
,
1000
0000
0100
0000
0010
0010
0010
0000
,
0001
0000
0010
0000
0100
0100
0100
0000
,
1000
0100
0010
1000
,
0001
0000
0010
0010
0010
0000
0000
0000
,
1000
1000
0010
0010
0001
0001
0110
0000
,
1000
0100
0001
0100
1000
0010
0001
0000
,
1000
1000
0001
0001
0010
0010
0100
0100
,
1000
1000
1000
1000
1000
0000
0000
0000
,
1000
0000
0010
0000
0100
0001
1000
0000
,
0100
1000
0001
0000
0110
0000
1000
0001
,
0010
1000
0100
0001
0010
0000
1000
0100
,
0001
0010
1000
0100
0001
0000
1001
0000
,
1000
0100
0001
0010
1000
0000
1000
0001
,
0100
0010
1000
0001
0100
0010
1001
0000
,
1000
0000
1000
0000
0001
0010
0100
0000
,
1000
0100
1000
0100
0001
0000
0000
0000
,
0100
1000
0100
1000
0010
0001
0010
0001
,
0100
0010
1000
0001
0010
1000
0110
0001
,
1000
0010
0100
0001
0010
0010
0010
0000
,
1000
1000
0001
0001
0010
0010
0010
0000
,
1000
0100
0001
0000
0110
0000
0000
0000
,
1000
0001
0100
0000
1001
0000
0000
0000
,
1000
0001
0010
0000
0110
0000
0000
0000
,
1001
0100
0100
0000
1001
0000
0100
0100
,
0100
0000
0100
0010
0001
0000
0100
0010
,
0000
1000
0100
0010
0001
0010
0200
0000
,
0000
1300
0100
0010
1000
0100
0010
0001
,
0000
0001
0010
0100
0001
0010
0100
0000
,
1001
0000
0010
0100
0010
0000
1000
0001
,
0000
1000
0010
0100
0001
0010
1001
0000
,
0000
1000
0001
1000
0001
1000
0001
1000
,
0000
1000
0100
1000
0001
0010
0001
0000
,
1000
0100
0001
0010
1000
0100
1001
0000
,
1000
0100
0010
0100
1000
0100
0010
0000
,
0001
0010
0100
0010
0001
1000
0100
0010
,
0100
0010
0100
0100
1001
0000
0000
0000
,
0100
0100
0010
0010
0100
0100
0100
0000
,
1000
1000
0001
0001
1000
1000
1000
0000
,
1000
0100
1000
1000
0010
0001
0010
0010
,
1000
0001
0100
0010
1001
0000
0000
0000
,
1000
0001
0110
1001
0100
0010
0110
0000
,
0100
0010
1001
0010
0010
0100
1001
0000
,
1000
0100
0010
0001
0010
0100
1000
0000
,
1100
0010
0001
0010
1100
0000
0000
0000
,
0010
0001
1100
0100
0010
0001
1100
0000
,
0100
1000
0011
0010
0100
1000
0011
0000
,
1100
0100
0011
0010
1100
1000
0011
0001
,
1010
0010
0101
0100
1010
1000
0101
0001
,
1000
0010
0101
0010
1000
0010
0101
0000
,
1000
0100
0011
0010
0100
1000
0011
0000
,
0001
0010
0100
1000
0100
0010
0001
0000
,
0100
0100
0100
0100
0100
0000
0000
0000
,
0100
0010
1001
1001
1000
0001
0110
0000
,
0010
0100
1001
1001
0001
1000
0110
0000
,
0110
1000
0100
0001
0010
1000
0100
0001
,
0010
1000
0100
0001
0010
1000
0100
0001
,
0110
1000
0100
1000
0100
0001
0100
0001
,
0100
1000
0010
1000
0010
0001
0010
0001
,
0110
1000
0100
0001
0010
1000
0010
0001
,
0100
1000
0100
0001
0010
1000
0010
0001
,
0110
1000
0100
0001
0010
0001
0100
1000
,
0100
0001
0010
0001
0010
0100
1000
0001
,
0220
0000
0000
0000
0000
0330
0000
0000
;

//---------------dance-single - ----------------
#NOTES:
     dance-single:
     :
     Edit:
     12:
     1.000,1.000,0.471,0.461,1.000,683.000,50.000,49.000,0.000,9.000:
1100
0101
0110
1100
,
1001
0220
0000
0000
,
0000
0000
0330
2200
0000
0000
0000
0000
,
0000
0000
0000
3300
0022
0000
0000
0000
,
0000
0000
0100
0000
0100
0000
0100
0033
,
1000
0100
0010
1000
0001
0100
0010
1000
0100
0010
0001
0000
1010
0000
0000
0000
,
1000
0100
1000
0001
0100
0010
1000
0100
0010
0001
0000
0000
0101
0000
0000
0000
,
1000
0010
0001
0100
0010
1000
0100
0010
0001
0100
0001
0010
0100
0010
0001
1000
,
0010
0001
1000
0100
1000
0010
0100
0000
1100
0000
0000
0000
0000
0000
0000
0000
,
0001
1000
0010
0100
0001
0001
0100
1000
0010
0001
0100
0000
0110
0000
0000
0000
,
0100
1000
0001
0100
0010
0100
0001
0010
0100
0010
0000
0000
0110
0000
0000
0000
,
1000
0100
0010
1000
0001
0100
0001
0010
0100
0001
0100
0010
0001
1000
0100
1000
,
0100
0001
0010
0100
0010
0100
0000
0000
2200
0000
0000
0000
0000
0000
3300
0000
,
2000
0000
0000
0000
0000
0000
0000
0000
0000
0000
0000
0000
0000
0000
0000
0000
3200
0000
0000
0000
0000
0000
0000
0000
0000
0000
0000
0000
0000
0000
1000
0001
0320
0000
0000
0000
0000
0000
0000
0000
0000
0000
0000
0000
0000
0000
0100
1000
0032
0000
0000
0000
0000
0000
0000
0000
0010
0000
0000
0000
0000
0000
0000
0000
,
0203
1000
0320
0001
2030
0000
3200
0010
,
0320
0000
1000
0000
0032
0000
0100
0000
2003
0000
0000
3000
0100
0000
0010
0001
,
0000
0100
0010
1000
0100
0010
0000
0001
0100
0000
0000
0000
2020
0000
0000
0000
,
0032
3203
0002
2300
,
0010
0010
3023
0000
0032
1000
0100
0013
,
2000
3200
0320
0032
,
1000
0000
0000
0000
0000
0000
0000
0000
0000
0000
0000
0000
0000
0000
0000
0000
0000
0000
0000
0000
0000
0000
0000
0000
0100
0000
0000
0000
0000
0000
0000
0000
0000
0000
0000
0000
0010
0000
0000
0000
0000
0000
0000
0000
0000
0000
0000
0000
0000
0000
0000
0000
0000
0000
0000
0000
0000
0000
0000
0000
0100
0000
0000
0000
0000
0000
0000
0000
0000
0000
0000
0000
0000
0000
0000
0000
0000
0000
0000
0000
0000
0000
0000
0000
0010
0000
0000
0000
0000
0000
0000
0000
0000
0000
0000
0000
0000
0003
0000
0000
0000
0000
0000
0000
0000
0000
0000
0000
0000
0000
0000
0000
0000
0000
0000
0000
0000
0000
0000
0000
0000
0000
0000
0000
0000
0000
0000
0000
0000
0000
0000
0000
0000
0000
0000
0000
0000
0000
0000
0000
0000
0000
0000
0000
0000
0000
0000
0000
0000
0000
0000
0000
0000
0000
0000
0000
0000
0000
0000
0000
0000
0000
0000
0000
0000
0000
0000
0000
0000
0000
0000
0000
0000
0000
0000
0000
0000
0000
0000
0000
0000
0000
0000
0000
0000
0000
0000
0000
0000
0000
0000
0000
,
0100
0000
0010
0000
0001
0000
0100
0010
0000
0000
0100
0001
0000
0000
0010
0100
0000
0000
0001
0000
0000
0100
0010
0000
0000
1000
0000
0100
0000
0000
0010
0000
,
0001
0000
0100
0000
0010
0000
0100
0001
0000
0010
0000
0000
0100
0010
0000
0000
0001
0000
1000
0000
0000
1000
0000
0000
0100
0000
0000
0010
0000
0001
0000
0100
,
0000
0010
0000
0100
0000
0001
0000
0010
0000
0000
0100
0000
0000
1000
0000
0000
0000
0010
0000
0000
0000
0000
0000
1000
0000
0100
0000
0010
0000
0001
0100
0000
,
0000
0010
0000
1000
0000
0100
0000
0010
0000
0001
0000
0000
0100
0000
0010
0000
0000
0000
1000
0000
0000
0100
0000
0000
0000
1100
0000
0000
0000
0000
0000
0000
,
1000
0000
0100
0000
0000
0010
0000
0001
0000
0100
0000
0010
0000
0100
0000
0001
0000
0010
0000
0000
0000
0000
0000
0000
0100
0000
0000
1000
0010
0000
0000
0100
,
0000
0000
0001
0000
0000
0010
0000
0100
0000
0010
0000
0001
0000
0100
0000
0010
0000
0000
0000
0000
1000
0000
0000
0100
0000
1000
0000
0010
0000
0100
0000
0000
,
1000
0000
0000
0100
1000
0000
0000
0010
0000
0100
0000
0001
0000
0000
0010
0000
0000
0100
0000
0000
0000
0010
0000
0000
0000
0000
0010
0000
1000
0000
0000
0100
,
0000
0010
0000
0001
0000
0000
0100
0000
0010
0000
0000
1000
0000
0100
0000
0000
0000
0010
0000
0000
0001
0000
0000
1000
0000
0000
0010
0000
0000
0100
0000
0000
,
0000
0000
0100
0000
0000
0000
0000
0000
0000
1000
0000
0000
0001
0000
0000
0010
0000
0000
0000
0010
0000
0000
0000
0000
0000
0000
0100
0000
0000
0001
0000
0000
,
0000
0000
0000
0001
0000
0000
0010
0000
0000
0100
0000
0000
0000
1000
0000
0000
0000
0010
0000
0000
0200
0000
0000
0002
0000
0000
0000
0000
0000
0000
0000
0000
,
0000
0300
0000
0003
1000
0000
0000
0100
0000
0010
0000
0000
0001
0000
0000
0100
0000
0000
0000
0010
0000
0100
0000
0000
0001
0000
0000
0000
0010
0000
0000
0000
,
0000
0000
0000
0000
0100
0000
0000
1000
0000
0010
0000
0000
0100
0000
0000
0001
0000
0000
2000
0000
0000
0200
0000
0000
0000
0000
0000
3000
0000
0000
0000
0000
,
2300
0000
0000
0000
0000
0000
0000
0000
3200
0000
0000
0000
0000
0000
0000
0000
0020
0300
0000
0000
0000
0000
0000
0000
0002
0030
0000
0000
0000
0000
0000
0000
,
0200
0003
0000
0000
0000
0000
0000
0000
0320
0000
0000
0000
0000
0000
0000
0000
2000
0030
0000
0000
0000
0000
0000
0000
0100
3000
0000
0000
0000
0000
0000
0000
,
0010
0000
0000
0000
0000
0000
0000
0000
0001
0000
0000
0000
0000
0000
0000
0000
0000
0110
0000
0000
0000
0000
0000
1000
0000
0000
0000
0000
0000
0000
0100
0000
,
0000
0010
0000
0001
0000
0000
0100
0000
0010
0000
0000
0100
0000
0000
0000
0001
0000
0000
0000
0010
0000
0000
0100
0000
0000
1000
0000
0000
0000
0000
0000
1000
,
0000
0100
0000
0010
0000
0001
0000
0100
0010
0000
0000
0100
0001
0000
0000
0010
0000
0100
0010
0000
0000
0000
0000
0000
1010
0000
0000
0000
0000
0000
1000
0000
,
0000
0100
0000
0010
0001
0000
0000
0100
0010
0000
0000
0000
1000
0100
0000
0001
0000
0010
0000
0000
0000
0000
0000
0000
0101
0000
0000
0000
0000
0000
0000
0100
,
0000
0010
0000
0001
0000
0000
0100
0000
0010
0000
1000
0000
0100
0000
0010
0000
0001
0000
1000
0000
0000
0010
0100
0000
0000
0001
0000
1000
0000
0000
0010
0000
,
0100
0000
0000
0000
1000
0000
0000
0100
0000
0000
0010
0000
0001
0000
0100
0000
0000
0000
0220
0000
0000
0000
0000
0000
0330
0000
0000
0000
0000
0000
0100
0000
,
0010
0000
0001
0000
0100
0000
0010
0000
0000
1000
0000
0100
0000
0000
0010
0000
0000
0001
0000
0000
0000
0000
0202
0000
0000
0000
0000
0000
0000
0000
0300
0000
,
0003
1000
0000
0100
0000
0010
0000
0001
0000
0100
0000
0000
0010
0000
1000
0000
0100
0000
0000
0010
0000
0000
0000
0001
0000
0000
0101
0000
0000
0000
0000
0000
,
1000
0000
0000
0100
1000
0000
0000
0100
0010
0000
0000
0001
0000
0100
0000
0010
0000
0000
1000
0000
0000
0100
0000
0010
0000
0000
0001
0000
0100
0000
0010
0000
,
0100
0010
0100
0010
0100
0000
0020
0000
0000
0000
0000
0000
0030
0000
0000
0000
,
0100
0000
0010
0000
0001
0000
0000
0100
0000
0010
0000
0100
0000
0000
0001
0000
0010
0000
0100
0000
0010
0000
0000
0000
0010
0000
0000
0000
0000
0000
0000
0000
,
1000
0000
0000
0100
0000
0010
0000
0100
0000
0000
0000
0000
0000
1000
0000
0000
0000
0000
0100
0000
0000
0010
0100
0000
0000
0000
0000
0000
0000
0000
0000
1000
,
0000
0100
0000
0010
0000
0001
0000
0100
0000
0000
0010
0000
0100
0000
0001
0000
0000
0010
0000
0000
0000
0000
0000
1010
0000
0000
0000
0000
0000
0000
0000
1000
,
0000
0000
0100
0000
0010
0000
0001
0000
0100
0000
0000
0000
0000
0001
0000
0000
0000
0000
0000
0101
0000
0000
0000
0000
0000
0000
0000
0000
0000
1000
0000
0000
,
0100
0000
0010
0000
0001
0000
0100
0000
0010
0000
0000
0100
0000
0001
0000
0000
0010
0000
0000
0100
0000
0000
0000
1000
0000
0000
0000
0000
0000
0000
0000
0000
,
0000
1000
0000
0000
0000
0100
0000
0010
0000
0001
0000
0010
0000
0001
0000
0000
0000
0100
0000
0010
0000
0000
0000
1000
0000
0000
0000
0000
0000
0000
0100
0000
,
0000
0010
0000
0001
0000
0000
0100
0010
0000
0000
0100
0001
0000
0000
0010
0000
0100
0000
0000
1000
0000
0010
0000
1000
0000
0000
0100
0000
0000
1000
0000
0000
,
0010
0000
0000
0100
0000
0001
0000
0010
0000
0000
1000
0000
0000
0100
0000
0010
0000
0001
0000
0100
0000
0000
0010
0000
0000
0000
0000
0000
0000
0000
0000
0000
,
1000
0001
1000
0010
1000
0100
1000
0010
1000
0001
1000
0010
1000
0000
0000
0000
,
1000
0000
0000
0001
0000
0100
0000
0001
0000
0000
0010
0000
0001
0000
0000
0010
0000
0001
0000
0000
0100
0000
0001
0000
1000
0000
0000
0001
0000
0000
0000
0000
,
0000
1000
0000
0100
0000
0010
0000
0001
0000
0100
0000
0000
0010
0000
1000
0000
0100
0000
0000
1000
0000
0000
0000
0010
0000
0000
0100
0000
0000
0000
0000
0000
,
0000
1000
0000
0100
0000
0000
1000
0000
0001
0000
0000
1000
0010
0000
0000
1000
0000
0000
0100
0000
0000
0000
0000
0000
0000
0000
0000
0000
0000
0000
0000
0000
,
0100
0010
0001
0010
0100
1000
0100
0010
0100
0010
0001
0100
0010
0001
0010
0100
1000
0100
0010
0100
0010
0001
0010
0100
1000
0000
0000
0000
0000
0000
1000
0000
,
0000
0100
0000
1000
0000
0100
0000
1000
0000
0010
0000
0000
1000
0010
0000
0000
1000
0000
0000
0100
0000
0000
0010
0000
0000
0000
0000
0000
0000
0000
0000
0000
,
0100
0010
0100
1000
0100
0010
1000
0010
1000
0100
0001
0100
1000
0010
1000
0010
,
0100
0001
0010
0100
0010
1000
0001
0010
0100
1000
0010
1000
0010
0100
0001
0010
,
0100
1000
0100
0010
0001
0100
0010
1000
0100
0010
0001
0100
0010
1000
0100
0010
,
0001
0010
0100
1000
0100
0010
0001
0010
0100
1000
0100
0010
0100
1000
0100
0010
,
0100
0010
0001
0010
0100
0010
1000
0010
0001
0100
1000
0010
0100
1000
0001
0010
,
0010
0010
0010
0010
1000
1000
1000
1000
1000
0100
0100
0100
0100
0100
0010
0010
,
0010
0010
0010
0101
0101
0101
0101
0101
1010
1010
1010
1010
1010
0110
0110
0110
,
0110
0110
0100
1001
0110
0001
1010
1001
0110
1001
0110
1001
0110
0001
1100
0001
,
2002
0000
0000
3003
;
