#TITLE:flowerless world;
#SUBTITLE:;
#ARTIST:kameria;
#TITLETRANSLIT:;
#SUBTITLETRANSLIT:;
#ARTISTTRANSLIT:;
#CREDIT:M.L-INS;
#BANNER:../Tachyon DIVA.png;
#BACKGROUND:../Tachyon DIVA-bg.png;
#LYRICSPATH:;
#CDTITLE:;
#MUSIC:flowerless world.ogg;
#OFFSET:0.120;
#SAMPLESTART:100.000;
#SAMPLELENGTH:12.000;
#SELECTABLE:YES;
#BPMS:0.000=202.005;
#STOPS:;
#BGCHANGES:;
// cache tags:
#FIRSTBEAT:16.000;
#LASTBEAT:479.500;
#SONGFILENAME:Songs/Tachyon DIVA/flowerless world[M.L-INS]/flowerless world.sm;
#HASMUSIC:1;
#HASBANNER:1;
#MUSICLENGTH:158.487;
// end cache tags

//---------------dance-single - ----------------
#NOTES:
     dance-single:
     :
     Challenge:
     12:
     0.896,1.000,0.385,0.309,0.861,884.000,61.000,49.000,85.000,0.000:
0000
0000
0000
0000
,
0000
0000
0000
0000
,
0000
0000
0000
0000
,
0000
0000
0000
0000
,
1000
0000
0100
0000
,
0010
0000
0000
0000
0001
1000
0010
0100
,
0010
0000
0000
0000
0000
0000
2000
0000
0000
3001
0000
0000
0100
0000
0010
0000
1000
0000
0010
0000
0100
0000
0001
0000
,
0010
0000
0000
0000
0100
0000
0000
0000
0010
0000
0000
0000
0001
0000
0000
1000
0000
0000
0001
0000
0000
1000
0000
0000
0010
0000
0000
0000
0000
0000
0000
0000
0000
0000
0000
0000
1000
0000
0000
0000
0000
0000
0000
0000
0000
0000
0000
0000
,
1001
0000
0000
0000
0M00
0000
0000
0000
1000
0000
0100
0000
0010
0000
0001
0100
,
0001
2000
0000
0010
3010
0000
0110
0000
,
0101
0000
0000
0000
00M0
0000
0000
0000
1000
0000
0100
0000
1000
0000
0010
0100
,
0010
0200
0000
0001
0301
0000
0110
0000
,
1010
0000
00M0
1000
0010
0100
0001
0010
,
0100
0000
1000
0010
1000
0000
0100
0000
0020
0000
0032
0000
0203
0000
0300
0000
,
0110
0000
0000
0000
0000
0000
0000
0000
0000
0000
0000
0000
1000
0000
0000
000M
0100
0000
0000
0000
0010
M000
0000
0000
0001
0000
0000
00M0
0100
0000
M000
0000
0010
0000
0000
0000
1M00
0000
0000
000M
0010
0000
0000
0000
0100
M000
0000
0000
,
0001
0000
0000
0000
0010
0000
M000
0000
0100
000M
0000
0000
10M0
0000
0000
0000
0100
0000
0000
0000
0010
0M00
0000
0000
0001
0000
0000
0000
0000
0000
0000
0000
0000
0000
0000
0000
0010
0000
0000
0000
0000
0000
0000
0000
0000
0000
0000
0000
,
1100
0000
0000
0000
M000
0000
0000
0000
0001
0000
1000
0010
0100
0000
0001
0000
,
0010
0100
1000
0000
0001
0000
0100
0000
0010
0000
0100
0000
0001
0000
0000
0000
,
0110
0000
0000
0000
0M00
0000
0000
0000
1000
0000
0001
0100
0010
0000
1000
0100
,
0010
0001
0101
0000
1000
0000
0010
0000
,
0101
0000
0000
0000
000M
0000
0000
0000
1000
0000
0001
0010
0100
0000
1000
0000
,
0100
1000
0001
0000
0100
0000
0001
0000
1000
0000
0010
0000
0100
0000
0000
0000
,
0011
0000
0000
0000
00M0
0000
0000
0000
1000
0000
0010
0100
0010
0000
1000
0001
,
1000
0010
0110
0000
M001
0010
0001
0000
,
0101
0000
0000
0000
0001
0000
0100
0010
1000
0000
0001
0010
0100
0000
1000
0100
,
1000
0002
0000
0100
0103
0010
1000
0000
,
1010
0000
0000
0000
00M0
0000
0000
0000
1000
0000
0001
0100
0001
0000
1000
0010
,
1000
0000
0100
0000
0010
0000
0001
0100
0010
0000
0000
0000
1000
0000
0000
0000
,
1001
0000
0000
0000
M000
0000
0000
0000
0001
0000
0010
0100
1000
0000
0001
0000
,
0100
0010
0200
0000
0000
0000
0010
0000
0301
0000
0000
0000
0010
0000
0000
0000
,
1100
0000
0000
0000
M000
0000
0000
0000
1000
0100
0010
0100
0010
0001
1000
0100
,
0010
0001
1000
0010
0100
0001
0000
0001
0100
0000
0000
0000
0001
0000
0000
0000
,
0110
0000
0000
0000
00M0
0000
0000
0000
0001
0000
1000
0010
0100
0000
0001
0010
,
0100
1000
1010
0000
0001
0000
0100
0000
,
1010
0000
0000
0000
M000
0000
0000
0000
0001
0000
1000
0100
0010
0000
0001
0000
,
0010
0001
1000
0000
0010
0000
1000
0000
0001
0000
0100
0000
0010
0000
0000
0000
,
1100
0000
0000
0000
0M00
0000
0000
0000
0001
0000
0100
0010
0100
0000
0001
1000
,
0001
0100
0110
0000
010M
0010
0100
0000
,
1010
0000
0000
0000
1000
0000
0010
0100
0001
0000
1000
0100
0010
0000
0001
0010
,
0001
2000
0000
0010
3010
0100
0001
0000
,
0101
0000
0000
0000
0M00
0000
0000
0000
0001
0000
1000
0010
1000
0000
0001
0100
,
0001
0000
0010
0000
0100
0000
1000
0010
0100
0000
0000
0000
0001
0000
0000
0000
,
1001
0000
0000
0000
000M
0000
0000
0000
1000
0000
0100
0010
0001
0000
1000
0000
,
0010
0100
0001
0000
0010
0000
0100
1000
0200
0000
0000
0000
10M0
0000
0000
0300
,
0110
0000
0100
0000
0010
0000
1000
0000
002M
0000
0000
0000
0100
0000
0031
0010
,
M200
0000
00MM
1000
2300
0000
3001
0000
,
0110
0000
M00M
0000
0000
0000
0010
1000
0100
1000
0001
0100
0001
0010
0001
0100
,
0010
0000
0000
1000
0000
0000
0001
0000
0000
0100
0000
0000
0001
0000
0000
1000
0000
0000
0010
0000
0000
0100
0000
0000
0010
0000
0000
0000
1000
0000
00M0
0000
0100
0000
0000
0000
1000
0000
0000
0M00
0001
0000
00M0
0000
0100
0000
0000
0000
,
M001
0000
0000
0000
0010
0000
0000
0000
0100
000M
0000
0000
M010
0000
0000
0M00
0001
0000
0000
0000
0100
0000
0000
0000
0010
0000
0000
000M
1000
0000
0000
0000
0100
0000
0000
0000
0010
0000
0000
0000
0100
0000
000M
0000
1000
00M0
0000
0000
,
0001
0000
0000
M000
0100
0000
0000
0000
0010
0000
0000
0000
100M
0000
0000
0000
0100
0000
0000
0000
0010
0000
0000
0000
0M02
0000
0000
0000
0000
0000
0000
0000
0000
0000
0000
0000
1003
0000
0000
0000
0000
0000
0100
0000
0000
0000
0000
0000
,
2000
0000
0000
0000
3001
0000
0000
0000
1000
0000
0100
0010
0100
0000
1000
0000
,
0001
0100
0010
1000
0010
0100
0002
0000
,
0013
0000
0000
0000
0100
0000
1000
0010
1000
0000
0100
0000
0010
0001
0010
0000
,
0100
2000
0000
3001
0200
0000
0320
0000
,
0230
0000
0000
0000
030M
0000
0000
0000
0001
0000
1000
0100
0010
0000
0100
0000
,
1000
0010
0100
0000
0001
0000
0100
0000
0020
0030
2000
3000
0002
0003
0000
0000
,
2002
0000
0000
3003
0000
0000
MMMM
0000
0000
0000
0000
0000
1001
0000
0000
0000
1010
0000
0000
0000
0101
0000
0000
0000
,
0220
0000
0000
0000
0300
0000
0000
0000
0000
0000
0000
0000
1030
0000
0000
0000
0000
0000
0000
0000
0000
0000
0000
0000
1000
0000
0000
0000
0000
0000
0001
0000
0000
0010
0000
0000
0001
0000
0000
0100
0000
0000
0010
0000
0000
0000
0000
0000
,
1000
0000
0200
0000
0000
0000
0310
0000
0001
0010
0001
0000
1000
0010
1000
0000
,
0100
0000
1000
0010
0000
0100
0001
0000
0100
0000
0010
0000
1000
0000
0002
0000
,
0000
0000
0103
0000
0010
0100
0010
0100
0001
0010
0001
0100
0001
0010
0001
1000
,
0001
0000
0000
0000
0100
0000
0000
0000
0010
0000
0000
0000
1000
0000
0000
0000
0010
0000
0000
0000
0100
0000
0000
0000
0002
0000
0000
0000
0003
0000
1000
0000
0000
0100
0000
0000
1000
0000
0000
0100
0000
0000
0020
0000
0000
0030
0000
0000
,
0001
0010
0001
0010
0200
0300
1000
0001
1000
0001
0200
0300
0010
1000
0010
1000
,
0002
0003
0010
0000
0010
0000
2000
3000
0100
0000
0100
0000
0010
0000
0010
0000
,
0100
0000
0000
0000
1000
0000
0000
0000
0001
0000
0000
0000
0100
0000
0000
0001
0000
0000
0010
0000
0000
0100
0000
0000
1000
0000
0000
0000
0100
0000
0000
0000
0010
0000
0000
0000
0001
0000
0000
0000
0000
0000
0010
0000
0000
0000
0000
0000
,
0100
0000
0000
0000
1000
0000
0000
0001
0000
0000
0000
0000
2002
0000
0000
0000
0000
0000
3003
0000
0000
0000
0000
0000
,
0000
0000
0000
0000
,
0000
0000
0000
0000
,
0000
0000
0000
0000
,
0000
0000
0000
0000
,
0000
0000
0000
0000
,
0000
0000
0000
0000
,
0000
0000
0000
0000
,
0000
0000
20M0
3100
,
0000
0000
0010
0000
M010
0000
0000
0000
0000
0000
0000
0000
00M0
0000
0100
1000
,
0100
0000
0010
0000
0000
0000
0001
0000
0M01
0000
0000
0000
2000
0000
0000
3000
,
110M
0000
0020
0000
0030
0000
0000
0000
0M00
0000
0000
0000
0000
0000
0001
0100
,
0010
100M
0100
0010
0002
0000
1003
0000
,
0M00
0000
0010
0000
0010
0000
0000
0000
0M00
0000
0000
0000
0000
0000
0001
0100
,
10M0
0000
0100
0000
0000
0000
0001
0000
0002
0000
0000
0003
0110
0000
0000
0000
,
1100
0011
0000
0000
,
1001
0011
1010
1100
,
0101
0000
0000
0012
0000
0000
0000
0000
0000
1000
0M00
00M0
,
1M00
00M0
0M00
00M0
1M03
0000
0000
0000
0001
0000
0010
0000
0100
0000
1000
0010
,
1000
0010
1000
0000
0001
0100
0001
0000
1000
0000
1000
0000
0100
0000
0010
0001
,
0010
0001
0010
0000
0100
1000
0100
0000
1000
0000
1000
0000
0001
0000
0010
0100
,
0010
0100
0010
0000
0001
1000
0001
0000
0100
0000
0100
0000
0010
0000
1000
0001
,
1000
0001
0100
0000
0010
1000
0001
0000
0100
0000
0100
0000
0010
0000
1000
0010
,
0100
0001
0010
0000
0100
1000
0100
0000
0010
0000
0010
0000
0001
0010
0100
0000
,
1000
0000
1000
0000
0100
0010
0001
0000
0100
0000
0100
0000
0010
0100
0010
0000
,
0100
M00M
0100
0000
1000
0001
1000
0000
0100
M00M
0100
0000
0010
0100
0010
0000
,
1000
0100
0010
0100
1000
0010
0100
0001
0100
0000
0010
0000
1000
0100
1000
0010
,
1000
0000
0100
0000
0010
0000
0001
0000
0100
0000
0010
0000
1000
0001
0100
0010
,
1000
0100
0010
0001
0100
0000
0000
0010
0100
0000
0001
0000
1000
0000
0010
0000
,
0100
0001
0100
0001
0100
0000
0010
1000
0010
0000
0100
0001
0100
0000
0010
1000
,
0010
0100
0001
1000
0010
0000
1000
0000
0200
0300
0020
0030
0002
0003
1000
0100
,
0010
0001
0100
0000
0001
0010
0100
1000
0010
0000
0100
0001
0100
0000
0010
1000
,
0001
1000
0001
0010
0100
1000
0000
0001
0100
0000
0010
0000
1100
0000
0100
0000
,
1000
0000
0100
0000
0110
0000
0010
0001
0010
0000
0001
0100
0001
0100
0001
0100
,
0010
0000
1000
0001
0100
0000
0010
1000
0001
0000
0100
0000
0100
0000
0010
0100
,
0001
0000
0010
0000
0010
0000
0100
1000
0001
1000
0100
0010
0001
1000
0001
1000
,
0010
0000
0010
0000
0010
0000
0010
0000
0100
0001
0010
0001
0100
0010
0100
0001
,
0010
0100
1000
0100
0010
0001
1000
0010
0100
0010
1000
0001
0010
0100
1000
0100
,
0010
0000
0001
0100
0010
1000
0100
0010
0001
0000
0001
0000
0011
0000
0000
0000
,
1000
0000
0000
0000
1010
0000
0000
0100
0001
0100
0001
0000
0101
0000
0000
0000
,
0010
0000
0100
0000
1001
0000
0000
0010
0100
0000
0000
0000
1100
0000
0000
0000
,
0001
0000
0100
0000
1010
0000
0000
1000
0001
1000
0001
0000
0101
0000
0000
0000
,
1000
0000
0100
0000
0010
0000
0000
0001
0010
0000
0100
0000
0201
0000
0000
0000
,
1300
0000
0000
1000
0010
0000
0000
0000
0001
0010
0100
0000
1100
0000
0000
0010
,
0100
0000
0001
0010
0001
0010
0000
0010
0100
0000
1000
0000
0110
0000
0000
0000
,
1000
0000
0000
0100
0000
0000
1000
0000
0001
0000
0100
0000
001M
0000
1000
0000
0100
0000
M010
0000
0001
0M00
0010
0000
,
0100
0000
0000
00M0
1000
0000
0M00
0000
0010
000M
0000
0000
0100
0000
0000
0000
0001
0000
M000
0000
0100
0000
0000
0000
0010
0000
0000
0000
0000
0000
0100
0000
0000
0000
0000
0000
0011
0000
0000
0000
0000
0000
0000
0000
0000
0000
0000
0000
,
1000
0000
0100
0000
1001
0000
0000
0010
1000
0010
1000
0000
0101
0000
0000
0000
,
1000
0000
0001
0100
0001
0000
1000
0000
0010
0000
0010
0000
0110
0000
0000
0000
,
1000
0000
0000
0000
0000
0000
0100
0000
0000
0010
0000
0000
0001
0000
0000
0000
0000
0000
0100
0000
0000
0000
0000
0000
0010
0000
0000
0000
0000
0000
1000
0000
0000
0000
0000
0000
0001
0000
0000
0000
0100
0000
M000
0000
0010
0000
0000
0000
,
1000
0000
0000
000M
0100
0000
0000
0000
0010
0000
0000
0000
M001
0000
0000
0000
0100
0000
0000
0000
0010
000M
0000
0000
0100
0000
0000
0000
0000
0000
0100
0000
0000
0000
0000
0000
1200
0000
0000
0000
0000
0000
0000
0000
0000
0000
0000
0000
,
0301
0000
0000
0000
0011
0000
0000
0100
1000
0100
1000
0000
0001
0100
0010
0000
,
1000
0000
0100
0010
0001
0000
0100
0000
0010
0000
1000
0000
0101
0000
0000
0010
,
0100
0000
0000
0000
0000
0000
0001
0000
0000
0000
0000
0000
1000
0000
0000
0000
0001
0000
0000
0000
0100
0000
0000
0000
0001
0000
0000
0000
0010
0000
0000
0000
0100
0000
0000
0000
1000
0000
0000
0001
0000
0000
1000
0000
0000
0010
0000
0000
,
0100
0001
0010
0001
0100
0010
1000
0001
2000
0000
0000
0000
0000
0000
3000
0000
;
