#TITLE:Symphonic Love;
#SUBTITLE:;
#ARTIST:Hashimoto Mayuki;
#TITLETRANSLIT:;
#SUBTITLETRANSLIT:;
#ARTISTTRANSLIT:;
#CREDIT:;
#BANNER:bn.jpg;
#BACKGROUND:bg.jpg;
#LYRICSPATH:;
#CDTITLE:bombastik.png;
#MUSIC:Symphonic Love.mp3;
#OFFSET:-0.540;
#SAMPLESTART:27.420;
#SAMPLELENGTH:12.000;
#SELECTABLE:YES;
#BPMS:0.000=144.010;
#STOPS:;
#BGCHANGES:;
// cache tags:
#FIRSTBEAT:0.000;
#LASTBEAT:255.000;
#SONGFILENAME:Songs/FUCK ANIME PACK/Symphonic Love/Symphonic Love.sm;
#HASMUSIC:1;
#HASBANNER:1;
#MUSICLENGTH:107.023;
// end cache tags

//---------------dance-single - ----------------
#NOTES:
     dance-single:
     :
     Hard:
     8:
     1.000,1.000,1.000,0.215,0.458,539.000,249.000,23.000,0.000,8.000:

0011
0001
1000
0001
0200
0300
0000
1000
,
0010
0000
0001
0000
1100
0000
0010
0000
0200
0000
0000
0300
0001
0000
0001
0000
,
1100
1100
0000
0110
0000
0011
0000
0000
,
1001
1001
0000
1100
0000
0011
0000
0000
,
1110
0000
0001
1000
0002
0003
0000
1000
,
1001
0000
0010
0000
0001
0000
0100
0000
2002
0000
3003
0000
0100
0000
0002
0003
,
0000
2000
3000
0011
0000
0011
0000
0000
,
1110
0001
0100
0010
0001
1000
0010
1000
,
0011
0000
0000
0000
1100
0000
0001
0010
1001
0000
0000
0000
0110
0000
1000
0001
,
0110
0000
0000
0000
1100
0000
0000
0000
0101
0000
0000
0000
0110
0000
0001
0100
,
0011
0000
0000
0000
0110
0000
0000
0000
1100
0000
0000
0000
1001
0000
0010
0100
,
0011
0000
1000
0000
0001
0000
0100
0000
0010
0000
1000
0000
0010
0000
1000
0001
,
1110
0000
0000
0000
0011
0000
0000
0000
1001
0000
0000
0000
1010
0000
0001
0100
,
1010
0000
0000
0000
1100
0000
0000
0000
0011
0000
0000
0000
1001
0000
0100
0001
,
1100
0000
0011
0000
0110
0000
1100
0000
0110
1001
0110
1001
0110
1001
0110
1001
,
0110
0000
1010
0000
0110
0000
1010
0000
0110
0000
1010
0000
0001
0000
1000
0100
,
0010
0000
0001
0010
0100
0000
0010
0100
1000
0000
0001
0000
0110
0000
1000
0010
,
0101
0000
1000
0001
0010
0000
0100
0010
0100
0000
0001
0000
1100
0000
0001
0010
,
0101
0000
0100
0010
0001
0000
0010
0001
1000
0000
0011
0000
0110
0000
0100
0010
,
1001
0100
1001
0000
0010
0000
0100
0000
0001
0000
1100
0000
1100
0000
0010
0100
,
1001
0000
0100
0010
1000
0000
0001
0010
0100
0000
1000
0000
0011
0000
0100
0010
,
1100
0000
1100
0010
0101
0000
1000
0100
0010
0000
1001
0000
1100
0000
0001
1000
,
0001
0000
1000
0000
0100
0000
0000
0000
0001
0000
0020
0000
0030
0000
1000
0100
,
0011
1000
0011
0000
0100
0000
0010
0000
2000
0000
3000
0000
0001
0000
0100
0000
,
1001
0000
0100
0010
1100
0000
0001
0000
0110
0000
0001
0010
1100
0000
0010
0000
,
1100
0000
1100
0000
0000
0000
0011
0000
0000
0000
0110
0000
1001
0000
0100
0010
,
1001
0000
0110
0000
0000
0000
1100
0000
0000
0000
0011
0000
0011
0000
0010
0100
,
1001
0000
0010
0000
0100
0000
0001
0000
2000
0000
3000
0000
0001
0000
0100
1000
,
0011
0000
1000
0000
0000
0000
0100
0000
1001
0000
1001
0000
0011
0000
0100
0010
,
1001
0000
0110
0000
0000
0000
1100
0000
0000
0000
0011
0000
1100
0000
0010
0001
,
0110
0000
1100
0000
0011
0000
0110
0000
1001
0110
1001
0110
1001
0110
1001
0110
,
0001
0000
0001
0000
0010
0000
0010
0000
0100
0000
1001
0000
0110
0001
0010
0100
,
1011
0000
0100
0000
0010
0000
1000
0000
0000
0000
0001
1000
0001
0000
0100
0000
,
0001
0100
0010
1000
1100
0011
0220
0330
,
1010
0000
1010
0000
0011
0000
0022
0000
0033
0000
1000
0100
0010
0000
0001
0000
,
1100
0010
1100
0000
0001
0000
0010
0000
1000
0000
0020
0000
0000
0030
0001
0000
,
1100
0000
0110
0000
0110
0000
2002
0000
3003
0000
0100
0010
1000
0000
0001
0000
,
0110
0110
1000
0010
0001
0100
0010
2000
,
0011
0000
0011
0000
0100
3000
0001
1000
0001
1000
0001
1000
0001
1000
0001
1000
,
0111
0000
1000
0000
0010
0000
0100
0000
0001
0000
0100
0000
2000
0000
3001
0010
,
0101
0000
1000
0000
0110
0000
1000
0100
0011
0000
0010
0100
0011
0000
0001
1000
,
0110
0000
0001
0100
0011
0000
0100
0010
1100
0000
2200
0000
3300
0000
0011
1100
,
0011
0000
1001
0000
0000
0000
0011
1100
0011
0000
1001
0000
0000
0000
0001
0010
,
1100
0010
1100
0001
0110
1000
1000
0011
,
0110
0000
0001
0010
0101
0000
0100
0010
1100
0000
0010
0100
0011
0000
1000
0001
,
0110
0000
1000
0100
0011
0000
1001
0000
0110
0000
2002
0000
3003
0000
0011
1100
,
0011
0000
1001
0000
0000
0000
0011
1100
0011
0000
1001
0000
0000
0000
1000
0100
,
0011
0000
1100
0000
0011
0000
0110
0000
1001
0000
0100
0010
0100
1000
0100
0010
,
1001
0100
0011
1000
0000
0001
0000
1000
,
0000
0000
0010
0000
0000
0000
1000
0000
0100
0000
0010
0000
0000
0000
0110
1001
,
0110
0000
1001
0000
0000
0000
0110
1001
0110
0000
1001
0000
0000
0000
0010
0100
,
1001
0110
0011
0110
1001
0010
0010
1100
,
0011
0000
0100
0010
1100
0000
0001
0000
0000
0000
0100
0000
0000
0000
1000
0000
,
0000
0000
0001
0000
0000
0000
0010
0000
0010
0000
0100
0000
0000
0000
1010
0101
,
1010
0000
1001
0000
0000
0000
1010
0101
1010
0000
1001
0000
0000
0000
0001
0010
,
0100
0000
1000
0000
0010
0000
0100
0000
0001
0000
0100
0010
1001
0100
0010
0100
,
1001
0000
0010
0000
0110
0000
0001
0010
1001
0000
0110
0000
1100
0000
0010
0100
,
0011
0000
1000
0000
0110
0000
0001
0100
0011
0000
1100
0000
0011
0000
0100
0010
,
1100
0000
0010
0000
1100
0000
0010
1000
0011
0000
1000
0000
0110
0000
0001
0010
,
1100
0000
0110
0000
0011
0000
0110
0000
1100
0000
1001
0000
0110
0000
0101
0010
,
1101
0000
0010
0000
1100
0000
0010
0100
0011
0000
0100
0000
0011
0000
0100
1000
,
0110
0000
1000
0000
0011
0000
0100
0001
1100
0000
0010
0000
1100
0000
0001
0010
,
1100
0000
0011
0000
1100
0000
0011
0000
1100
0011
1100
0011
1100
0011
1100
0011
,
1100
0110
1100
0110
1100
0110
1100
0000
;
