#TITLE:Act One - Forest;
#SUBTITLE:Actraiser;
#ARTIST:古代祐三;
#TITLETRANSLIT:;
#SUBTITLETRANSLIT:;
#ARTISTTRANSLIT:Yuzo Koshiro;
#CREDIT:;
#BANNER:Act One - Forest.jpg;
#BACKGROUND:Act One - Forest-bg.jpg;
#LYRICSPATH:;
#CDTITLE:!tsuka.png;
#MUSIC:Act One - Forest.mp3;
#OFFSET:-0.060;
#SAMPLESTART:41.300;
#SAMPLELENGTH:12.000;
#SELECTABLE:YES;
#BPMS:0.000=117.190;
#STOPS:;
#BGCHANGES:;
// cache tags:
#FIRSTBEAT:0.000;
#LASTBEAT:184.000;
#SONGFILENAME:Songs/VGMP 2/Act One - Forest (Tsuka)/Act One - Forest.sm;
#HASMUSIC:1;
#HASBANNER:1;
#MUSICLENGTH:96.000;
// end cache tags

//---------------dance-single - Blank----------------
#NOTES:
     dance-single:
     Blank:
     Hard:
     11:
     1.000,1.000,1.000,1.000,1.000,593.000,162.000,194.000,0.000,0.000:

0100
1000
0110
1001
0010
0100
1001
1010
0100
1000
0101
1010
0100
1000
0011
0110
,
1000
0010
1100
0011
1000
0100
1001
0110
0100
0001
0011
1100
1000
0100
0011
0110
,
1001
0100
0010
1001
0001
0100
1001
0100
0010
1001
0010
0100
1001
0100
1001
0110
,
0001
0000
0010
0000
0100
0000
1000
0000
0001
0000
0010
0000
0100
0000
1000
0000
0001
0000
0110
0000
1100
0000
1010
0000
0001
1000
0001
0000
1010
0000
0101
0000
,
0020
0000
0000
0000
0000
0000
0000
0000
1000
0000
0000
0000
0100
0000
0000
0030
1001
0000
0000
0000
0000
0000
0000
0000
2000
0000
0000
3000
0200
0000
0000
0300
0020
0000
0000
0000
0001
0000
0000
0000
0200
0000
0000
0300
0002
0000
0000
0033
1001
0000
0000
0000
0100
0000
0000
0000
0002
0000
0000
0000
0010
0000
0000
0003
,
1200
0000
0000
0000
0000
0000
0000
0000
1000
0000
0000
0000
0010
0000
0000
0300
1001
0000
0000
0000
0000
0000
0000
0000
2100
0000
0000
0000
0010
0000
0000
0000
0001
0000
0000
0000
0100
0000
0000
0000
0001
0000
0000
0000
0010
0000
0000
3000
0101
0000
0000
0000
0010
0000
0000
0000
2000
0000
0000
3000
0200
0000
0000
0300
,
0021
0000
0000
0000
0000
0000
0000
0000
0100
0000
0000
0000
0001
0000
0000
0030
1100
0000
0000
0000
0000
0000
0000
0000
2000
0000
0000
3000
0200
0000
0000
0300
0021
0000
0000
0000
0100
0000
0000
0000
0002
0000
0000
0003
0200
0000
0000
0330
1001
0000
0000
0000
0100
0000
0000
0000
0020
0000
0000
0000
1000
0000
0000
0030
,
0201
0000
0000
0000
0000
0000
0000
0000
0010
0000
0000
0000
0001
0000
0000
0300
1010
0000
0000
0000
0000
0000
0000
0000
2100
0000
0000
0000
0010
0000
0000
0000
0001
0000
0000
0000
0100
0000
0000
0000
0001
0000
0000
0000
0010
0000
0000
3000
0101
0000
0000
0000
0010
0000
0000
0000
1000
0000
0000
0000
1000
0000
0000
0000
,
0201
0000
0000
0000
0000
0000
0000
0000
0001
0000
0000
0000
0010
0000
0000
0300
1001
0000
0000
0000
0000
0000
0000
0000
2000
0000
0000
3000
0020
0000
0000
0030
0201
0000
0000
0000
0000
0000
0000
0300
2000
0000
0000
3000
0020
0000
0000
0030
0201
0000
0000
0300
0002
0000
0000
0003
0020
0000
0000
0030
0200
0000
0000
0300
,
0020
0000
0000
0000
0000
0000
0000
0000
0001
0000
0000
0000
0100
0000
0000
0030
1001
0000
0000
0000
0000
0000
0000
0000
2000
0000
0000
3000
0200
0000
0000
0300
0020
0000
0000
0000
0000
0000
0000
0030
2000
0000
0000
3000
0200
0000
0000
0300
1020
0000
0000
0030
0002
0000
0000
0003
0020
0000
0000
0030
0200
0000
0000
0300
,
0002
0000
0000
0000
0000
0000
0000
0000
0100
0000
0000
0000
0010
0000
0000
0003
1100
0000
0000
0000
0000
0000
0000
0000
2000
0000
0000
3000
0200
0000
0000
0300
0020
0000
0000
0030
2000
0000
0000
3000
0200
0000
0000
0300
0020
0000
0000
0030
2001
0000
0000
3000
0200
0000
0000
0300
0020
0000
0000
0030
0200
0000
0000
0300
,
0002
0000
0000
0000
0000
0000
0000
0000
0100
0000
0000
0003
0020
0000
0000
0000
0100
0000
0000
0000
0000
0000
0000
0000
2030
0000
0000
0000
0000
0000
0000
0000
3002
0000
0000
0000
0000
0000
0000
0000
1000
0000
0000
0000
0023
0000
0000
0000
0001
0000
0000
0000
0000
0000
0000
0000
0230
0000
0000
0000
0000
0000
0000
0300
,
2001
0000
0000
0000
0000
0000
0000
0000
0100
0000
0000
0000
0010
0000
0000
3000
0101
0000
0000
0000
0000
0000
0000
0000
2000
0000
0000
3000
0020
0000
0000
0030
0201
0000
0000
0000
0000
0000
0000
0300
2000
0000
0000
3000
0020
0000
0000
0030
0201
0000
0000
0300
0002
0000
0000
0003
0020
0000
0000
0030
0200
0000
0000
0300
,
0020
0000
0000
0000
0000
0000
0000
0000
0001
0000
0000
0000
0100
0000
0000
0030
1001
0000
0000
0000
0000
0000
0000
0000
2000
0000
0000
3000
0200
0000
0000
0300
0020
0000
0000
0000
0000
0000
0000
0030
2000
0000
0000
3000
0200
0000
0000
0300
1020
0000
0000
0030
0002
0000
0000
0003
0020
0000
0000
0030
0200
0000
0000
0300
,
0002
0000
0000
0000
0000
0000
0000
0000
0100
0000
0000
0000
0010
0000
0000
0003
1100
0000
0000
0000
0000
0000
0000
0000
2000
0000
0000
0000
3200
0000
0000
0000
0320
0000
0000
0000
2030
0000
0000
0000
3200
0000
0000
0300
0020
0000
0000
0030
2001
0000
0000
0000
3200
0000
0000
0000
0320
0000
0000
0000
0230
0000
0000
0000
,
0302
0000
0000
0000
0000
0000
0000
0000
1000
0000
0000
0000
0023
0000
0000
0000
0100
0000
0000
0000
0000
0000
0000
0000
2030
0000
0000
0000
0000
0000
0000
0000
3002
0000
0000
0000
0000
0000
0000
0000
1000
0000
0000
0000
0023
0000
0000
0000
0001
0000
0000
0000
0000
0000
0000
0000
0032
0000
0000
0000
1000
0000
0000
0003
,
0110
0000
0000
0000
0100
0000
0000
0000
0100
0000
0010
0100
1001
0000
0000
0000
,
1000
0000
0000
0000
1000
0000
0000
0000
1000
0000
0010
1000
0101
0000
0000
0000
,
0010
0000
0000
0000
0010
0000
0000
0000
0010
0000
0100
0010
1001
0000
0000
0000
,
0010
0000
0000
0000
0010
0000
0000
0000
0010
1100
0011
0000
0110
0000
1010
0101
,
1010
0100
0010
0001
0110
1000
0011
1000
0010
0100
0011
1000
0110
0001
0020
0100
,
1030
0100
0010
0001
0110
1000
0011
1000
0010
0100
0011
1000
0110
0001
0200
0010
,
1300
0100
0010
0001
0110
1000
0011
1000
0010
0100
0011
1000
0110
0001
0020
0100
,
1030
0100
0010
0001
0110
1000
0011
1000
0010
0100
0011
1000
0110
1001
0210
0010
,
0301
1000
0110
1001
0010
0100
1001
1010
0100
1000
0101
1010
0100
1000
0011
0110
,
1000
0010
1100
0011
1000
0100
1001
0110
0100
0001
0011
1100
1000
0100
0011
0110
,
1001
0100
0010
1001
0001
0100
1001
0100
0010
1001
0010
0100
1001
0100
1001
0110
,
0001
0000
0010
0000
0100
0000
1000
0000
0001
0000
0010
0000
0100
0000
1000
0000
0001
0000
0110
0000
1100
0000
1010
0000
0001
1000
0001
0000
1010
0000
0101
0000
,
0020
0000
0000
0000
0000
0000
0000
0000
1000
0000
0000
0000
0100
0000
0000
0030
1001
0000
0000
0000
0000
0000
0000
0000
2000
0000
0000
0000
3200
0000
0000
0000
0320
0000
0000
0000
0001
0000
0000
0000
0200
0000
0000
0300
0002
0000
0000
0033
1001
0000
0000
0000
0100
0000
0000
0000
0002
0000
0000
0000
0010
0000
0000
0003
,
1200
0000
0000
0000
0000
0000
0000
0000
1000
0000
0000
0000
0010
0000
0000
0300
1001
0000
0000
0000
0000
0000
0000
0000
2100
0000
0000
0000
0010
0000
0000
0000
0001
0000
0000
0000
0100
0000
0000
0000
0001
0000
0000
0000
0010
0000
0000
3000
0101
0000
0000
0000
0010
0000
0000
0000
2000
0000
0000
0000
3200
0000
0000
0300
,
0021
0000
0000
0000
0000
0000
0000
0000
0100
0000
0000
0000
0001
0000
0000
0030
1100
0000
0000
0000
0000
0000
0000
0000
2000
0000
0000
0000
3200
0000
0000
0300
0021
0000
0000
0000
0100
0000
0000
0000
0002
0000
0000
0003
0200
0000
0000
0330
1001
0000
0000
0000
0100
0000
0000
0000
0020
0000
0000
0000
1000
0000
0000
0030
,
0201
0000
0000
0000
0000
0000
0000
0000
0010
0000
0000
0000
0001
0000
0000
0300
1010
0000
0000
0000
0000
0000
0000
0000
2100
0000
0000
0000
0010
0000
0000
0000
0001
0000
0000
0000
0100
0000
0000
0000
0001
0000
0000
0000
0010
0000
0000
3000
0101
0000
0000
0000
0010
0000
0000
0000
1000
0000
0000
0000
1000
0000
0000
0000
,
0201
0000
0000
0000
0000
0000
0000
0000
0001
0000
0000
0000
0010
0000
0000
0300
1001
0000
0000
0000
0000
0000
0000
0000
2000
0000
0000
0000
3020
0000
0000
0030
0201
0000
0000
0000
0000
0000
0000
0300
2000
0000
0000
0000
3020
0000
0000
0030
0201
0000
0000
0000
0302
0000
0000
0000
0023
0000
0000
0000
0230
0000
0000
0000
,
0320
0000
0000
0000
0000
0000
0000
0000
0001
0000
0000
0000
0100
0000
0000
0030
1001
0000
0000
0000
0000
0000
0000
0000
2000
0000
0000
0000
3200
0000
0000
0000
0320
0000
0000
0000
0000
0000
0000
0000
2030
0000
0000
0000
3200
0000
0000
0300
1020
0000
0000
0000
0032
0000
0000
0000
0023
0000
0000
0000
0230
0000
0000
0000
,
0302
0000
0000
0000
0000
0000
0000
0000
0100
0000
0000
0000
0010
0000
0000
0003
1100
0000
0000
0000
0000
0000
0000
0000
2000
0000
0000
0000
3200
0000
0000
0000
0320
0000
0000
0000
2030
0000
0000
0000
3200
0000
0000
0000
0320
0000
0000
0030
2001
0000
0000
0000
3200
0000
0000
0000
0320
0000
0000
0000
0230
0000
0000
0000
,
0302
0000
0000
0000
0000
0000
0000
0000
0100
0000
0000
0000
0023
0000
0000
0000
0100
0000
0000
0000
0000
0000
0000
0000
2030
0000
0000
0000
0000
0000
0000
0000
3002
0000
0000
0000
0000
0000
0000
0000
1000
0000
0000
0000
0023
0000
0000
0000
0001
0000
0000
0000
0000
0000
0000
0000
0230
0000
0000
0000
0000
0000
0000
0300
,
2001
0000
0000
0000
0000
0000
0000
0000
0100
0000
0000
0000
0010
0000
0000
3000
0101
0000
0000
0000
0000
0000
0000
0000
2000
0000
0000
0000
3020
0000
0000
0030
0201
0000
0000
0000
0000
0000
0000
0000
2300
0000
0000
0000
3020
0000
0000
0030
0201
0000
0000
0000
0302
0000
0000
0000
0023
0000
0000
0000
0230
0000
0000
0000
,
0320
0000
0000
0000
0000
0000
0000
0000
0001
0000
0000
0000
0100
0000
0000
0030
1001
0000
0000
0000
0000
0000
0000
0000
2000
0000
0000
0000
3200
0000
0000
0000
0320
0000
0000
0000
0000
0000
0000
0000
2030
0000
0000
0000
3200
0000
0000
0300
1020
0000
0000
0000
0032
0000
0000
0000
0023
0000
0000
0000
0230
0000
0000
0000
,
0302
0000
0000
0000
0000
0000
0000
0000
0100
0000
0000
0000
0010
0000
0000
0003
1100
0000
0000
0000
0000
0000
0000
0000
2000
0000
0000
0000
3200
0000
0000
0000
0320
0000
0000
0000
2030
0000
0000
0000
3200
0000
0000
0000
0320
0000
0000
0030
2001
0000
0000
0000
3200
0000
0000
0000
0320
0000
0000
0000
0230
0000
0000
0000
,
0302
0000
0000
0000
0000
0000
0000
0000
1000
0000
0000
0000
0023
0000
0000
0000
0100
0000
0000
0000
0000
0000
0000
0000
2030
0000
0000
0000
0000
0000
0000
0000
3002
0000
0000
0000
0000
0000
0000
0000
1000
0000
0000
0000
0023
0000
0000
0000
0001
0000
0000
0000
0000
0000
0000
0000
0032
0000
0000
0000
1000
0000
0000
0003
,
0110
0000
0000
0000
0100
0000
0000
0000
0100
0000
0010
0100
1001
0000
0000
0000
,
1000
0000
0000
0000
1000
0000
0000
0000
1000
0000
0010
1000
0101
0000
0000
0000
,
0010
0000
0000
0000
0010
0000
0000
0000
0010
0000
0100
0010
1001
0000
0000
0000
,
0010
0000
0000
0000
0010
0000
0000
0000
0010
1100
0011
0000
0110
0000
1010
0101
,
1010
0100
0010
0001
0110
1000
0011
1000
0010
0100
0011
1000
0110
0001
0020
0100
,
1030
0100
0010
0001
0110
1000
0011
1000
0010
0100
0011
1000
0110
0001
0200
0010
,
1300
0000
0000
0000
;

//---------------dance-single - ----------------
#NOTES:
     dance-single:
     :
     Challenge:
     12:
     1.000,1.000,1.000,1.000,1.000,611.000,204.000,224.000,0.000,86.000:




0100
1000
0110
1001
0010
0100
1001
1010
0100
1000
0101
1010
0100
1000
0011
0110
,
1000
0010
1100
0011
1000
0100
1001
0110
0100
0001
0011
1100
1000
0100
0011
0110
,
1001
0100
0010
1001
0001
0100
1001
0100
0010
1001
0010
0100
1001
0100
1001
0110
,
0001
0000
0010
0000
0100
0000
1000
0000
0001
0000
0010
0000
0100
0000
1000
0000
0001
0000
0110
0000
1100
0000
1010
0000
0001
1000
0001
0000
1010
0000
0101
0000
,
0020
0000
0000
0000
1000
0000
0100
0000
1031
0000
0000
0000
2000
0000
3200
0000
0320
0000
0001
0000
0200
0000
0302
0003
1031
0000
0100
0000
0002
0000
0010
0000
,
1203
0000
1000
0010
1301
0000
2100
0010
0001
0100
0001
0010
3101
0010
2000
3200
,
0321
0000
0100
0001
1130
0000
2000
3200
0321
0100
0002
0203
1331
0100
0020
1000
,
0231
0000
0010
0001
1310
0000
2100
0010
0001
0100
0001
0010
3101
0010
1000
1000
,
0201
0000
0001
0010
1301
0000
2000
3020
0231
0000
2300
3020
0231
0302
0023
0230
,
0320
0000
0001
0100
1031
0000
2000
3200
0320
0000
2030
3200
1320
0032
0023
0230
,
0302
0000
0100
0010
1103
0000
2000
3200
0320
2030
3200
0320
2031
3200
0320
0230
,
0302
0000
0100
0023
1100
0000
2030
0000
3002
0000
0100
0023
1001
0000
0230
0000
,
2301
0000
0100
0010
3101
0000
2000
3020
0231
0000
2300
3020
0231
0302
0023
0230
,
0320
0000
0001
0100
1031
0000
2000
3200
0320
0000
2030
3200
1320
0032
0023
0230
,
0302
0000
0100
0010
1103
0000
2000
3200
0320
2030
3200
0320
2031
3200
0320
0230
,
0302
0000
1000
0023
1100
0000
2030
0000
3002
0000
1000
0023
1001
0000
0032
1000
,
0123
0000
0000
0200
0031
0000
2000
0000
0301
3200
0010
1000
0321
0000
0230
0000
,
2310
0000
0000
3002
0010
0000
0023
0000
1230
0000
1000
2310
0101
0000
3020
0000
,
1230
0000
0000
0000
1000
0000
0000
0000
1000
0000
0001
0010
1001
0000
0320
0031
,
0102
0000
0000
0000
0100
0000
0000
0000
0013
1100
0011
0000
0110
0000
1010
0101
,
1010
0100
0110
1001
0110
1000
0011
1100
0010
1000
0011
1100
0110
0001
0020
0100
,
1030
0100
0110
1001
0110
1000
0011
1100
0010
1000
0011
1100
0110
0001
0200
0010
,
1300
0100
0110
1001
0110
1000
0011
1100
0010
1000
0011
1100
0110
0001
0020
0100
,
1030
0100
0110
1001
0110
1000
0011
1100
0010
1000
0011
1100
0110
1001
0210
0010
,
0301
1000
0110
1001
0010
0100
1001
1010
0100
1000
0101
1010
0100
1000
0011
0110
,
1000
0010
1100
0011
1000
0100
1001
0110
0100
0001
0011
1100
1000
0100
0011
0110
,
1001
0100
0010
1001
0001
0100
1001
0100
0010
1001
0010
0100
1001
0100
1001
0110
,
0001
0000
0010
0000
0100
0000
1000
0000
0001
0000
0010
0000
0100
0000
1000
0000
0001
0000
0110
0000
1100
0000
1010
0000
0001
1000
0001
0000
1010
0000
0101
0000
,
0020
0000
0000
0000
1000
0000
0100
0000
1031
0000
0000
0000
2000
0000
3200
0000
0320
0000
0001
0000
0200
0000
0302
0003
1031
0000
0100
0000
0002
0000
0010
0000
,
1203
0000
1000
0010
1301
0000
2100
0010
0001
0100
0001
0010
3101
0010
2000
3200
,
0321
0000
0100
0001
1130
0000
2000
3200
0321
0100
0002
0203
1331
0100
0020
1000
,
0231
0000
0010
0001
1310
0000
2100
0010
0001
0100
0001
0010
3101
0010
1000
1000
,
0201
0000
0001
0010
1301
0000
2000
3020
0231
0000
2300
3020
0231
0302
0023
0230
,
0320
0000
0001
0100
1031
0000
2000
3200
0320
0000
2030
3200
1320
0032
0023
0230
,
0302
0000
0100
0010
1103
0000
2000
3200
0320
2030
3200
0320
2031
3200
0320
0230
,
0302
0000
0100
0023
1100
0000
2030
0000
3002
0000
0100
0023
1001
0000
0230
0000
,
2301
0000
0100
0010
3101
0000
2000
3020
0231
0000
2300
3020
0231
0302
0023
0230
,
0320
0000
0001
0100
1031
0000
2000
3200
0320
0000
2030
3200
1320
0032
0023
0230
,
0302
0000
0100
0010
1103
0000
2000
3200
0320
2030
3200
0320
2031
3200
0320
0230
,
0302
0000
1000
0023
1100
0000
2030
0000
3002
0000
1000
0023
1001
0000
0032
1000
,
0123
0000
0000
0200
0031
0000
2000
0000
0301
3200
0010
1000
0321
0000
0230
0000
,
2310
0000
0000
3002
0010
0000
0023
0000
1230
0000
1000
2310
0101
0000
3020
0000
,
1230
0000
0000
0000
1000
0000
0000
0000
1000
0000
0001
0010
1001
0000
0320
0031
,
0102
0000
0000
0000
0100
0000
0000
0000
0013
1100
0011
0000
0110
0000
1010
0101
,
1010
0100
0110
1001
0110
1000
0011
1100
0010
1000
0011
1100
0110
0001
0020
0100
,
1030
0100
0110
1001
0110
1000
0011
1100
0010
1000
0011
1100
0110
0001
0200
0010
,
1300
0000
0000
0000
;
