#TITLE:Clash On The Big Bridge;
#SUBTITLE:The Black Mages (2003);
#ARTIST:The Black Mages;
#TITLETRANSLIT:;
#SUBTITLETRANSLIT:;
#ARTISTTRANSLIT:;
#CREDIT:;
#BANNER:clashbn.jpg;
#BACKGROUND:clashbg.jpg;
#LYRICSPATH:;
#CDTITLE:omegaspike_cdtitle.png;
#MUSIC:the black mages - clash on the big bridge.mp3;
#OFFSET:2.324;
#SAMPLESTART:78.520;
#SAMPLELENGTH:12.000;
#SELECTABLE:YES;
#BPMS:0.000=86.670,32.000=170.004,356.000=85.002,358.000=170.004;
#STOPS:;
#BGCHANGES:;
// cache tags:
#FIRSTBEAT:4.000;
#LASTBEAT:691.500;
#SONGFILENAME:Songs/Astronomic Metal Collection 2/(OMEGAspike) Clash On The Big Bridge/the black mages - clash on the big bridge.sm;
#HASMUSIC:1;
#HASBANNER:1;
#MUSICLENGTH:257.071;
// end cache tags

//---------------dance-single - ----------------
#NOTES:
     dance-single:
     :
     Hard:
     11:
     1.000,1.000,1.000,1.000,0.426,1312.000,402.000,610.000,0.000,243.000:
0000
0000
0000
0000
,
2000
3200
0320
0032
0023
0230
2300
3200
0320
0032
0023
0230
,
2300
3200
0320
0032
0023
0230
0320
0032
0023
0230
2300
3200
,
0320
0032
0023
0230
2300
3200
0320
0032
0023
0230
0320
0032
,
0023
0230
2300
3200
0320
0032
0023
0230
2300
3200
0320
0032
,
0023
0230
0320
0032
0023
0230
2300
3200
0320
0032
0023
0230
,
2300
0000
3200
0000
0320
0000
0032
0000
2003
0000
0000
0000
,
3200
0000
0000
0000
,
1302
0000
0023
0000
1230
0000
0320
0000
0100
0000
0100
0000
1001
0000
0230
0300
,
1002
0000
0203
0000
0321
0000
0230
0000
0010
0000
0010
0000
1001
0000
0320
0030
,
1002
0000
0023
0000
0231
0000
2300
0000
0010
0000
0010
0000
0110
0000
3002
0003
,
1010
0100
0010
1000
0101
0010
0001
0100
,
1002
0000
0023
0000
1230
0000
0320
0000
1000
0000
1000
0000
1001
0000
0230
0300
,
1002
0000
0203
0000
1320
0000
0230
0000
0010
0000
0010
0000
1001
0000
0320
0030
,
1002
0023
0231
2300
0001
0001
0110
3000
,
1010
0000
0202
0000
0010
0000
0303
0000
0011
1000
0010
1000
0110
1000
0010
0100
,
1002
0000
0023
0000
1230
0000
0320
0000
0100
0000
0100
0000
1001
0000
0230
0300
,
1002
0000
0203
0000
0321
0000
0230
0000
0010
0000
0010
0000
1001
0000
0320
0030
,
1002
0023
0231
2300
0010
0010
0101
3000
,
1001
0100
0010
0100
1010
0100
0001
0010
,
1002
0000
0023
0000
0230
0000
0320
0100
1030
0010
0100
1000
0101
0010
0100
1000
,
0012
0000
0203
0000
0320
0000
0230
0000
0310
1000
0100
1000
0010
0100
0010
1000
,
0001
0010
0100
1000
0001
0100
0010
1000
0101
0000
0000
0000
0010
0000
0100
0000
,
1001
0001
2010
0000
3120
0032
2103
0000
,
3102
0010
0100
1000
0100
0010
0100
1000
0010
0100
1000
0100
0010
0100
1000
0010
,
0100
0000
1000
0000
0010
0000
0100
0000
1010
0000
0000
0000
0000
0000
0003
0000
1020
0000
0000
0000
0100
0000
0000
0000
1001
0100
0000
0000
0000
0000
0030
0000
,
1100
0010
0101
1000
0001
1000
0011
0100
,
0010
0000
2200
3300
0011
0000
0100
0000
0010
0000
1000
0000
0011
0000
0100
0000
,
2020
3130
0011
0100
0010
1000
0101
0010
,
0001
1000
0101
0010
0100
0001
0110
1100
,
1001
0100
0011
0100
0001
1000
0110
1000
,
0010
0000
2200
3300
0011
0000
0100
0000
0010
0000
1000
0000
0101
0000
0010
0000
,
0202
1303
0110
1000
0010
0100
1001
0010
,
2000
3200
0321
0230
0302
0123
1230
1320
,
0032
1100
0010
1100
,
0010
0003
2010
3200
0320
0100
0032
0100
,
1023
0000
1100
0001
0100
0001
1100
0000
,
0100
0000
1100
0130
2001
0010
0101
3010
,
1002
0000
1100
0023
0100
0000
0231
0000
,
2300
0000
0101
3020
0100
0001
1230
0010
,
2301
0000
0110
3002
0010
0100
1023
0000
,
0230
0000
1001
0321
1100
0000
1230
0001
,
1320
0000
0000
0000
0231
0000
2300
0000
0010
3000
2000
0000
3201
0000
0000
0000
,
0010
0000
0011
0000
2300
3000
0120
0030
,
0002
0000
0000
0000
1023
0000
0230
0000
0010
0300
0200
0000
0321
0000
0000
0000
,
0100
0000
1001
0100
1100
0100
1031
0012
,
0000
0023
0231
2300
3100
2000
3201
0320
,
0001
0000
1001
0230
0302
0000
0123
0000
,
0230
0000
1001
0000
0010
0010
1001
0300
,
0202
0000
2323
0000
0000
0000
0032
0003
0000
0000
3000
0000
0110
0000
0110
0000
,
1001
0100
0011
0100
0001
1000
0110
1000
,
0010
0000
2200
3300
0011
0000
1000
0000
0010
0000
0100
0000
1001
0000
0010
0000
,
2002
3103
0011
1000
0010
1000
0011
0100
,
0010
1000
0101
0010
0100
0001
1010
1100
,
1001
0100
0011
0100
0001
1000
0110
1000
,
0010
0000
2200
3300
0011
0000
1000
0000
0010
0000
0100
0000
0011
0000
1000
0000
,
0220
1330
0011
0100
0010
1000
0101
0010
,
2000
3200
0321
0230
0302
2013
3201
1320
,
0132
1010
0100
1010
,
0100
0003
2010
3200
0320
1000
0132
1000
,
0123
0000
1001
0100
0001
0100
1001
0000
,
0100
0000
0101
1030
0201
0010
1001
0310
,
0002
0000
1100
0023
0100
0000
0231
0000
,
2300
0000
0101
3020
0100
0001
0231
1000
,
2301
0000
0110
3002
0100
0000
1203
0000
,
0320
0000
1001
1230
0010
0000
0312
0103
,
1020
0000
0000
0000
0231
0000
2300
0000
0010
3000
2000
0000
3201
0000
0000
0000
,
0010
0000
0011
0300
2000
3100
0021
0030
,
0002
0000
0000
0000
1023
0000
0230
0000
0001
0300
0200
0000
1320
0000
0000
0000
,
0100
0000
1001
0000
1100
0030
1100
1002
,
0000
0023
0231
2300
3100
2000
3201
0320
,
0100
0000
1001
0230
0302
0100
1023
0000
,
0230
0000
1010
0000
0001
0001
1010
0300
,
2100
0000
3200
0321
0132
0023
0231
2301
,
3120
0000
2230
3300
0200
0010
0322
0033
,
0002
1000
0013
0100
0022
1000
0133
1000
0200
0010
1300
0001
0220
0000
0330
0000
,
0001
0010
0100
1000
0011
0100
0010
1000
0001
0010
0100
1000
0011
0100
0010
1000
,
0101
0010
0100
1000
0011
0100
0010
1000
0011
0100
0010
1000
0101
0010
0100
1000
,
0210
0300
0200
0000
0300
0000
0200
0000
0322
0000
0233
0000
0300
0000
0200
0000
,
0302
2003
3020
0032
1023
0230
2300
3002
,
0023
0000
1001
0230
0010
0010
2302
3003
,
0000
0020
0230
2300
,
3110
0001
0100
0001
1100
0001
0110
0011
,
0100
0011
0110
0011
1100
0011
0100
1001
,
1001
0010
1000
0010
1100
0010
1001
0011
,
1000
0011
1001
0011
1200
0011
1000
1310
,
0201
0300
0200
0000
0300
0000
0200
0000
0322
0000
0233
0000
1300
0000
0210
0000
,
0302
2003
3020
0032
1023
0230
2300
3012
,
0203
0300
0200
0000
0300
0000
0200
0000
0322
0000
0233
0000
0300
0000
0110
0000
,
1000
0010
0100
0010
0001
0010
0100
1000
0101
0000
0000
0000
0000
0000
0100
0000
,
0021
0000
0100
0000
,
1031
0000
0200
0000
0320
0000
0032
0000
0023
0030
0100
0010
0200
0000
0010
0000
,
1001
0000
0010
0000
1300
0020
0032
0203
,
0011
0300
2000
0000
3200
0000
0320
0000
0032
0000
0023
0000
0000
0000
0032
0000
,
1203
0000
0000
0000
0302
0000
2003
0000
0000
0000
3020
0000
0230
0300
0010
0100
,
1020
0230
0320
2031
3021
0230
2300
3200
,
1301
2000
3200
0320
0030
0200
0300
0020
,
0231
2300
3002
1000
1103
0000
0000
1000
,
0120
0000
1000
0000
,
1031
0000
0200
0000
0320
0000
0032
0000
0023
0030
0100
0010
0200
0000
0010
0000
,
1301
0200
0320
0032
1000
0000
0023
0230
,
1301
0000
0020
0000
0030
0000
0200
0000
1000
0000
0302
0000
0023
0030
0100
0010
,
0201
2300
3002
0203
0310
2000
3200
0000
,
1301
0200
0320
0032
1100
0023
2030
3200
,
1001
0000
0302
0023
0001
1230
0320
0000
,
0101
2030
3200
0320
1031
2000
3200
0320
,
1032
0000
0000
0203
0000
0000
0320
0000
0000
0032
0000
0000
2003
0000
3000
0000
0200
0000
0300
0000
0020
0000
0030
0000
,
0102
0000
0000
0000
0000
0000
0100
0000
0100
0000
0000
0000
0000
0000
0013
0100
,
2001
3020
0032
0203
0310
0200
0320
2030
,
3210
2300
3020
0230
1001
0320
2030
3000
,
0021
0000
0230
0000
0300
0000
0020
0030
2000
0000
3000
0000
0020
0030
0200
0300
,
1001
0000
0020
0030
2000
0000
0110
0000
3002
0000
1023
0000
0030
0000
0002
0000
,
1203
0000
0000
0000
0300
0000
0000
0000
0002
0000
0003
0000
1020
0032
0003
0000
0020
0000
0030
0000
0200
0000
0300
0000
2000
0000
3000
0000
0002
0000
0000
0000
,
1103
0020
1001
1001
0131
2000
3200
2300
,
3120
0032
0203
0320
0032
2003
3200
0320
,
2031
3000
0000
0200
0300
0000
0100
0010
0002
0000
0000
0000
2003
0000
3200
0000
,
1301
0020
0032
0203
0000
0320
2030
3200
,
0011
0000
0000
0000
0000
0000
0300
0000
0000
0000
0000
0000
0002
0000
0000
0000
0023
0000
0000
0000
0230
0000
0000
0000
1310
0000
0000
0001
0000
0000
0010
0000
0000
0100
0000
0000
1000
0000
0000
0000
0001
0000
0000
0000
0100
0000
0000
0000
,
0011
1000
0001
0010
0100
1000
0010
1000
0010
0100
0010
0001
,
0011
0000
0100
0000
1000
0000
0001
0000
0010
0000
0100
0000
1001
0100
0010
1000
0100
0010
0001
0100
0010
1000
0100
0010
,
0001
1000
0100
0010
0001
1000
0100
0010
0001
1000
0010
0100
0002
0000
0000
0010
0000
0000
0100
0000
0000
1000
0000
0000
,
0010
0100
1000
0100
2013
0000
0101
0000
,
0100
0000
0000
0000
3101
0000
0000
2000
3200
0300
0020
0000
1001
0000
0000
0000
,
0100
0100
1001
0000
0100
0000
1031
0200
,
0302
0203
0320
0230
0321
2030
3200
0320
,
0231
2300
3020
0230
0302
0000
1010
0000
,
0100
0000
0000
0000
1013
0000
0000
2000
3200
0300
0020
0000
0101
0000
0000
0000
,
0100
0100
0101
0000
0100
0000
0131
2000
,
3100
0000
0000
0000
0010
0000
0000
0000
0100
0000
0000
0000
1001
0000
0000
0000
0010
0000
0000
0000
0002
0000
0000
0000
1100
0000
0003
0000
0020
0000
0230
0000
2300
0000
3000
0000
0001
0000
0000
0010
0000
0000
0100
0000
0000
1000
0000
0000
,
0011
0000
0100
0000
0010
0000
1000
0000
0000
0100
0000
0000
0001
0000
0000
0100
0000
0000
0010
0000
0000
1000
0000
0000
0012
0000
0000
0000
0000
0000
0000
0000
0000
0000
0000
0000
1010
0000
0000
0000
0000
0000
0000
0000
0000
0000
0000
0000
,
0010
0003
1020
0230
0300
0200
1320
0230
,
0302
0203
0321
2030
3200
0320
0132
0000
,
0100
0000
0000
0000
0000
0000
0023
0000
0000
0030
0000
0000
0011
0000
0000
0000
0100
0000
0000
0000
1000
0000
0000
0000
0101
0000
0000
0000
0010
0000
0000
0000
0100
0000
0000
0000
0011
0000
0000
0000
0100
0000
0000
0000
1000
0000
0000
0000
,
0110
0000
1000
0000
0100
0000
1010
0000
0001
0100
0010
0000
0002
0000
0000
0000
0000
0000
1010
0000
0000
0000
0000
0000
,
0100
0000
0000
0100
0000
0000
1010
0000
0000
0003
0000
0000
1000
0000
0100
0000
0010
0000
1100
0000
0010
0000
0001
0000
,
1000
0100
0010
0101
0010
0001
2000
3020
0230
1320
0230
0302
,
0023
0000
1001
0030
2000
3201
0320
1230
,
0302
1023
1230
0320
1032
0000
1100
0000
,
0010
0000
1100
0000
0010
0003
2010
3200
,
0320
0030
0102
0010
0123
0000
1001
0000
,
0100
0000
1001
0000
0100
0000
1001
0130
,
2010
0100
0011
3100
1002
0000
1100
0023
,
0100
0000
0231
0000
2300
0000
0101
3020
,
0100
0000
0231
0000
2300
0000
0110
3002
,
0100
0000
2013
0000
3200
0000
1001
0320
,
0100
0000
0132
0003
0020
0000
0231
2300
,
0010
3000
2000
0000
3210
0000
0000
0000
0010
0000
0000
0000
1001
0000
0000
0000
,
2300
3000
0120
0030
0002
0000
1023
0230
,
0010
0300
0200
0000
1320
0000
0000
0000
0100
0000
0000
0000
1001
0000
0000
0000
,
0100
0000
1130
0012
0000
0023
0231
2300
,
3010
2000
3201
0320
0001
0000
1001
0230
,
0302
0123
0230
1010
,
0010
0001
1010
0300
2100
0000
3200
1320
,
0132
0023
0231
2301
3012
0000
2203
3300
,
0020
0000
0100
0000
2230
0000
3300
0000
0002
0010
0103
1000
0022
0100
1033
0010
,
0002
0100
0013
1000
0220
0000
0330
0000
0001
0010
0100
1000
0011
0100
0001
1000
,
0001
0010
0100
1000
0011
0100
0010
1000
0101
0010
0100
1000
0110
1000
0010
1000
,
0101
0010
0100
1000
0011
0100
0010
1000
0210
0300
0200
0000
0300
0000
0200
0000
,
0322
0233
0300
0200
0320
0230
0320
0032
,
1023
0230
0320
2130
3012
0000
1100
0023
,
0100
1000
1230
0000
0300
0000
0020
0000
,
0230
0000
2300
0000
3110
0001
0010
0001
,
1010
0001
0110
0101
0110
0101
0110
0101
,
1010
0101
0010
1001
1100
0010
0100
0010
,
1100
0010
0101
0011
0101
0011
0101
0011
,
1100
0011
0100
0011
1010
0102
0000
0100
,
1010
0103
0001
0020
2030
3200
0320
0032
,
1100
0010
0203
2301
3021
0032
0000
0103
,
1020
0000
0100
0000
0000
0000
1000
0030
0200
0000
1000
0000
0010
0000
0001
0000
,
1010
0000
0000
0000
0000
0000
0001
0000
0000
0000
0000
0000
0010
0000
0000
0300
0000
0000
2000
0000
0000
0000
0000
0000
3210
0000
0000
0000
0000
0000
0000
0000
0000
0000
0000
0000
0000
0000
0300
0000
0001
0000
0000
0000
0100
0000
0000
0000
,
0010
0000
1000
0000
0100
0000
0001
0010
0100
1000
0100
1000
0001
0010
0100
1000
0100
1000
0010
0100
0001
0010
0100
1000
,
0100
0010
0100
0010
0002
0000
0000
0000
0000
0000
0003
0000
2000
0000
0000
3021
0000
0000
0231
0000
0000
2300
0000
0000
,
3021
0231
2300
3021
0000
0000
0000
0030
;
