#TITLE:Explosive;
#SUBTITLE:;
#ARTIST:bond;
#TITLETRANSLIT:;
#SUBTITLETRANSLIT:;
#ARTISTTRANSLIT:;
#CREDIT:Darkmage;
#BANNER:explosive-bn.png;
#BACKGROUND:explosive-bg.png;
#LYRICSPATH:;
#CDTITLE:!darkmagetitle2.png;
#MUSIC:explosive.ogg;
#OFFSET:-0.022;
#SAMPLESTART:38.120;
#SAMPLELENGTH:11.900;
#SELECTABLE:YES;
#BPMS:0.000=115.000;
#STOPS:;
#BGCHANGES:0.000=explosive-bg.png=1.000=0=0=1,
99999=-nosongbg-=1.000=0=0=0 // don't automatically add -songbackground-
;
// cache tags:
#FIRSTBEAT:0.000;
#LASTBEAT:197.000;
#SONGFILENAME:Songs/Archmage and Dark0wl Hammer of Thor UltraHyperMegaPack/Explosive/explosive.sm;
#HASMUSIC:1;
#HASBANNER:1;
#MUSICLENGTH:105.000;
// end cache tags

//---------------dance-single - Darkmage----------------
#NOTES:
     dance-single:
     Darkmage:
     Challenge:
     12:
     0.845,0.938,0.933,0.229,1.000,499.000,98.000,24.000,0.000,3.000:
1000
0010
0100
0001
0100
0000
0000
0000
0000
0000
0010
0000
0000
0000
0000
0000
,
1000
0000
0010
0000
0000
0100
0000
0000
,
0001
1000
0000
0000
,
0000
0000
0000
0000
,
1000
0100
0010
0001
1000
0000
0000
0000
0000
0000
0001
0000
0000
0000
0000
0000
,
0100
0000
0001
0000
0000
0010
0000
0000
,
0100
1000
0000
0000
,
0000
0000
0000
0000
1000
0010
0000
1000
0001
0000
0100
0001
0000
0010
0001
0000
,
0101
0000
0001
0000
1010
1000
1010
1000
0000
0000
1010
1000
1010
1000
0000
0000
,
1010
0000
0000
0000
0101
0001
0101
0001
0000
0000
0101
0001
0101
0001
0000
0000
,
0101
0000
0000
0000
1010
0010
1010
0010
0000
0000
1010
0010
1010
0010
0000
0000
,
1010
0000
0000
0000
0011
0001
0011
0001
0000
0000
0011
0001
0011
0001
0000
0000
,
1000
0100
0010
0001
2000
0000
0000
0000
0000
0000
3002
0000
0000
0000
0000
0000
,
0203
0000
0320
0000
0000
2030
0000
0000
,
3002
0000
0000
0000
1103
0100
1100
1000
0000
0000
0011
0010
0011
0001
0000
0000
,
0011
0000
0000
0000
0101
0001
0101
0100
0000
0000
1010
0010
1010
1000
0000
0000
,
1000
0100
0010
0001
2000
0000
0000
0000
0000
0000
3020
0000
0000
0000
0000
0000
,
0230
0000
0302
0000
0000
2003
0000
0000
,
3200
0000
0000
0000
0310
0001
0100
0001
0010
0000
0010
0001
0100
0010
0100
0001
,
1000
0001
0100
0000
0001
0000
1000
0000
0100
0000
0010
0000
0001
0000
1000
0000
0010
0000
0100
0000
0001
0000
0010
0000
0001
0000
0100
0000
0001
0000
0010
0000
,
0001
1000
0001
0000
1000
0000
0100
0000
1000
0000
0010
0000
0100
0000
0001
0000
0010
0000
0001
0000
0100
0000
0010
0000
1000
0000
0100
0000
1000
0000
0001
0000
,
0100
0010
0100
0000
0001
0000
1000
0000
0100
0000
1000
0000
0010
0000
0100
0000
0010
0000
0000
0000
0010
0000
0100
0000
0001
0000
0010
0000
0001
0000
0100
0000
,
0010
1000
0010
0100
0001
0010
0001
0100
0010
0000
0010
0100
0001
0010
0001
0100
,
0010
1000
0010
0000
0100
0000
0010
0000
0100
0000
0001
0000
0010
0000
0001
0000
0010
0000
0000
0000
0001
0000
1000
0000
0100
0000
0010
0000
0100
0000
1000
0000
,
0001
0010
0001
0000
0100
0000
0001
0000
1000
0000
0100
0000
1000
0000
0010
0000
0100
0000
0000
0000
0010
0000
0100
0000
0010
0000
1000
0000
0100
0000
0010
0000
,
0001
1000
0001
0000
0010
0000
0100
0000
0010
0000
0001
0000
0000
0000
0011
0000
0000
0000
0000
0000
0101
0000
0000
0000
0001
0000
1000
0000
0000
0000
0010
0000
,
1000
0000
0001
0000
1000
0100
1000
0010
0100
0000
0010
0100
0010
1000
0100
1000
,
0001
0100
0001
0000
1000
0000
0100
0000
1000
0000
0010
0000
0100
0000
0010
0000
1000
0000
0100
0000
1000
0000
0010
0000
0100
0000
0001
0000
1000
0000
0100
0000
,
0010
0001
1000
0000
0010
0000
1000
0000
0100
0000
0010
0000
0001
0000
1000
0000
0010
0000
0100
0000
1000
0000
0100
0000
0010
0000
1000
0000
0001
0000
0010
0000
,
0100
0010
0100
0000
1000
0000
0001
0000
0100
0000
0010
0000
1000
0000
0010
0000
0100
0000
0000
0000
0100
0000
0001
0000
0010
0000
0001
0000
0100
0000
0010
0000
,
1000
0100
1000
0000
0010
0000
0100
0000
0001
0000
0010
0000
0001
0000
0100
0000
0001
0000
0000
0000
0001
0000
0010
0000
0100
0000
0010
0000
0001
0000
1000
0000
,
0010
1000
0010
0000
1000
0000
0010
0000
0100
0000
0010
0000
1000
0000
0100
0000
0010
0000
0100
0000
1000
0000
0001
0000
0100
0000
0010
0000
1000
0000
0010
0000
,
0100
0001
1000
0000
0100
0000
1000
0000
0010
0000
0100
0000
0001
0000
0010
0000
0001
0000
0010
0000
0100
0000
0001
0000
0100
0000
1000
0000
0010
0000
0100
0000
,
0010
0100
0001
0000
0010
0000
0001
0000
0100
0000
0010
0000
1000
0000
0100
0000
1000
0000
0000
0000
1000
0000
0010
0000
0100
0000
0010
0000
1000
0000
0100
0000
,
0010
0001
0010
0000
0100
0000
1000
0000
0001
0000
1000
0000
0001
0000
0010
0000
0001
0000
0000
0000
0001
0000
0100
0000
0001
0000
0010
0000
0100
0000
0001
0000
,
0100
1000
0100
0000
1000
0000
0010
0000
0100
0000
0010
0000
1000
0000
0100
0000
1000
0000
0000
0000
1000
0000
0010
0000
1000
0000
0100
0000
1000
0000
0001
0000
,
0100
0010
0100
0000
0001
0000
1000
0000
0100
0000
1000
0000
0010
0000
0100
0000
0010
0000
0000
0000
0010
0000
0100
0000
0001
0000
0010
0000
0001
0000
0100
0000
,
0010
0100
0010
0000
1000
0000
0100
0000
1000
0000
0010
0000
0000
0000
1010
0000
0000
0000
0101
0000
0000
0000
0000
0000
0001
0000
0010
0000
0000
0000
0001
0000
,
0100
0000
0000
0000
0101
0101
0101
0101
0000
0000
0101
0101
0101
0101
0000
0000
,
0101
0000
0000
0000
1010
1010
1010
1010
0000
0000
1010
1010
1010
1010
0000
0000
,
1000
0100
0010
0001
2000
0000
0000
0000
0000
0000
3002
0000
0000
0000
0000
0000
,
0203
0000
0320
0000
0000
2030
0000
0000
,
3002
0000
0000
0000
1103
1100
1100
1100
0000
0000
1100
1100
1100
1100
0000
0000
,
1100
0000
0000
0000
0011
0011
0011
0011
0000
0000
0011
0011
0011
0011
0000
0000
,
0001
0010
0100
1000
0002
0000
0000
0000
0000
0000
0203
0000
0000
0000
0000
0000
,
0320
0000
2030
0000
0000
3002
0000
0000
,
0023
0000
0000
0000
0131
0011
0101
0011
0000
0000
0101
0011
0101
0011
0000
0000
,
0101
0000
1010
0000
1100
1010
1100
1010
0000
0000
1100
1010
1100
1010
0000
0000
,
1010
0000
0110
0000
0011
0110
1100
0110
0000
0000
0101
1010
0110
0101
0000
0000
,
1010
0110
1001
0000
0000
0000
0000
0000
;
