#TITLE:Turkey March;
#SUBTITLE:;
#ARTIST:Banya;
#TITLETRANSLIT:;
#SUBTITLETRANSLIT:;
#ARTISTTRANSLIT:;
#CREDIT:;
#BANNER:Turkey March-bn.png;
#BACKGROUND:Turkey March-bg.png;
#LYRICSPATH:;
#CDTITLE:!eldiabloTitle.png;
#MUSIC:Turkey March.mp3;
#OFFSET:-4.348;
#SAMPLESTART:53.400;
#SAMPLELENGTH:12.000;
#SELECTABLE:YES;
#BPMS:0.000=150.000;
#STOPS:;
#BGCHANGES:;
// cache tags:
#FIRSTBEAT:4.000;
#LASTBEAT:224.000;
#SONGFILENAME:Songs/Fresh Flock of Fantastic Files F4/(eldiablo) Turkey March/Turkey March.sm;
#HASMUSIC:1;
#HASBANNER:1;
#MUSICLENGTH:101.642;
// end cache tags

//---------------dance-single - ----------------
#NOTES:
     dance-single:
     :
     Hard:
     10:
     1.000,0.937,1.000,0.089,0.797,539.000,180.000,9.000,0.000,0.000:  // measure 1
0000
0000
0000
0000
,  // measure 2
1000
0000
0100
0000
0010
0001
0010
0001
1000
0000
1000
0000
1000
0100
0010
0100
,  // measure 3
1000
0000
0000
0000
1000
0100
1000
0100
0010
0000
0000
0000
1000
0100
0010
0001
,  // measure 4
1000
0100
0010
0100
1000
0100
0010
0100
0010
0000
0000
0000
1001
0000
0110
0000
,  // measure 5
0101
1100
0110
1001
0110
0101
1100
1001
,  // measure 6
0110
0000
1100
0000
0110
0000
1010
0000
0110
0000
0000
0000
0001
0010
0001
0010
,  // measure 7
0100
0000
0000
0000
1000
0001
0100
0010
1000
0000
0000
0000
1000
0100
0010
0001
,  // measure 8
0010
0100
1000
0100
1000
0100
1000
0100
0010
0000
0000
0000
1100
0000
0011
0000
,  // measure 9
1001
0000
1010
0000
0110
1000
0100
0010
0001
0010
0100
1000
0001
0100
0010
1000
,  // measure 10
0001
0010
0100
1000
0100
0010
0100
1000
0001
0000
0000
0000
1100
0000
0101
0000
,  // measure 11
1010
0000
1010
0000
1000
0010
0100
0001
1000
0000
0000
0000
1001
0000
0110
0000
,  // measure 12
1001
0000
1001
0000
1000
0100
0010
0100
1000
0000
0000
0000
1100
0000
0011
0000
,  // measure 13
0110
0000
0110
0000
1000
0100
0010
0001
0010
0000
0000
0000
1100
0000
1010
0000
,  // measure 14
0101
0000
0101
0000
0001
0010
0100
0010
0001
0000
0000
0000
0100
0001
1000
0010
,  // measure 15
0100
0000
0000
0000
0100
1000
0010
0100
0010
0000
0000
0000
1000
0100
0010
0001
,  // measure 16
0100
0010
1000
0100
0010
0001
0010
0100
1000
0000
0000
0000
0101
0000
1010
0000
,  // measure 17
0110
1010
0101
1001
1100
0110
1100
0011
,  // measure 18
1001
1100
1001
0000
,  // measure 19
2000
0000
0000
0000
0000
0000
0000
3000
0020
0000
0000
0000
0000
0000
0000
0030
,  // measure 20
1100
0000
0011
1001
0110
1010
0011
0110
,  // measure 21
1010
1001
0101
1010
0011
0110
1010
0110
,  // measure 22
1001
0000
1010
1100
0101
1001
0110
1001
,  // measure 23
1010
0011
1100
0101
1001
0000
0011
0110
,  // measure 24
1001
0000
0110
1001
0110
0101
1100
0011
,  // measure 25
0110
1010
0101
0110
0011
1010
0101
1010
,  // measure 26
1100
0000
0011
1010
0101
0110
0011
1100
,  // measure 27
1001
0000
0010
0000
1001
0000
0110
0000
0011
0000
0110
0000
0010
0100
0010
0100
,  // measure 28
0002
0000
0000
0000
0000
0000
0000
0000
0000
0000
0000
0003
0001
0010
0001
1000
,  // measure 29
0100
0010
0001
0100
0010
1000
0100
0010
0001
0000
0000
0010
0001
0000
0011
0000
,  // measure 30
0101
1010
0101
1100
1010
0110
1001
0011
,  // measure 31
1100
0000
0000
0000
1010
0000
0000
0000
0110
0000
0000
0000
1000
0010
0100
0001
,  // measure 32
1000
0010
0100
0001
0010
0100
1000
0010
0100
0001
0010
0100
1000
0100
0010
0100
,  // measure 33
1000
0001
0010
0001
1000
0100
1000
0100
0010
0001
0010
0100
0010
1000
0001
0100
,  // measure 34
0010
1000
0100
0010
0001
1000
0100
0010
0001
0010
0001
0010
0100
1000
0100
1000
,  // measure 35
0100
0010
0001
0010
0100
0010
1000
0001
0200
0000
0000
0000
0000
0000
0000
0300
,  // measure 36
0010
0001
0010
0100
1000
0010
0100
0010
0100
1000
0100
0010
0001
0010
0100
1000
,  // measure 37
0100
0010
0100
1000
0001
0100
0010
1000
0001
0100
0010
1000
0010
0100
1000
0100
,  // measure 38
0010
0100
0010
1000
0100
0010
0001
0100
0010
1000
0100
0010
0001
0010
0100
1000
,  // measure 39
0100
0010
0100
0010
0001
0010
0100
0010
0002
0000
0000
0003
1000
0010
1000
0010
,  // measure 40
1000
0000
0000
0000
0010
0100
1000
0100
0010
0000
0000
0000
1000
0100
0010
0001
,  // measure 41
0010
0100
1000
0100
0010
0100
1000
0100
0010
0000
0000
0000
1100
0000
0011
0000
,  // measure 42
0110
0101
0110
1100
1001
1100
0011
1010
,  // measure 43
0101
0000
0110
0000
0011
0000
1100
0000
0011
0000
0000
0000
1000
0100
0010
0001
,  // measure 44
1000
0000
0000
0000
1000
0010
0100
0001
1000
0000
0000
0000
0010
0001
0010
0001
,  // measure 45
0010
0100
1000
0100
0010
0001
0010
0100
1000
0000
0000
0000
0011
0000
0101
0010
,  // measure 46
0101
0000
1100
0000
0011
0000
1010
0100
0011
0000
0101
0000
0110
0000
1100
0001
,  // measure 47
0110
0000
0011
0000
1100
0000
1001
0000
0220
0000
0000
0330
0011
0000
1001
0000
,  // measure 48
1100
0000
0101
0000
1000
0100
0010
0100
1000
0000
0000
0000
1100
0000
0101
0000
,  // measure 49
0110
0000
1100
0000
0001
0010
0100
1000
0100
0000
0000
0000
1100
0000
0011
0000
,  // measure 50
0110
0000
0110
0000
1000
0100
1000
0100
1000
0000
0000
0000
1100
0000
0011
0000
,  // measure 51
1001
0000
1001
0000
0100
0010
0001
0100
0001
0000
0000
0000
1000
0100
0010
0001
,  // measure 52
1000
0000
0000
0000
1000
0100
1000
0100
0010
0000
0000
0000
0001
0010
0100
1000
,  // measure 53
0100
0010
0001
0100
0010
1000
0001
0100
0001
0000
0000
0000
0110
0000
1001
0000
,  // measure 54
0101
1100
0101
0110
0011
1001
0101
1100
,  // measure 55
0011
0000
0000
0000
1001
0000
0000
0000
2200
0000
0000
0000
0000
0000
0000
3300
,  // measure 56
0011
0000
1100
0000
1000
0100
0010
0001
0010
0000
1100
0000
1100
0010
0001
0010
,  // measure 57
0100
0000
0000
0000
;
