#TITLE:Victoria's Secret;
#SUBTITLE:;
#ARTIST:Sonata Arctica;
#TITLETRANSLIT:;
#SUBTITLETRANSLIT:;
#ARTISTTRANSLIT:;
#CREDIT:;
#BANNER:VS.bmp;
#BACKGROUND:VS- bg.bmp;
#LYRICSPATH:;
#CDTITLE:;
#MUSIC:Sonata Arctica - Victoria's Secret.mp3;
#OFFSET:-0.460;
#SAMPLESTART:64.460;
#SAMPLELENGTH:26.400;
#SELECTABLE:YES;
#BPMS:0.000=150.000,610.000=300.000,738.000=75.000;
#STOPS:416.000=0.200
,417.000=0.200
,483.000=0.400
;
#BGCHANGES:;
// cache tags:
#FIRSTBEAT:32.000;
#LASTBEAT:756.000;
#SONGFILENAME:Songs/toune 4/sonata01/Sonata Arctica - Victoria's Secret.sm;
#HASMUSIC:1;
#HASBANNER:1;
#MUSICLENGTH:292.022;
// end cache tags

//---------------dance-single - ----------------
#NOTES:
     dance-single:
     :
     Challenge:
     9:
     0.615,0.874,0.390,0.356,0.181,1039.000,114.000,104.000,0.000,0.000:
0000
0000
0000
0000
,
0000
0000
0000
0000
,
0000
0000
0000
0000
,
0000
0000
0000
0000
,
0000
0000
0000
0000
,
0000
0000
0000
0000
,
0000
0000
0000
0000
,
0000
0000
0000
0000
,
0002
0010
0100
1003
,
2000
0100
0010
3001
,
0200
0310
0020
0130
,
2000
3001
0002
1003
,
2000
0100
0010
3001
,
0002
0010
0100
1003
,
2000
3010
0200
0301
,
0002
0000
0000
0000
1003
0000
0000
0000
1000
0001
1000
0001
1000
0000
0000
0000
,
1001
0001
1001
1000
,
0110
0010
0110
0100
,
0011
0000
0001
0000
1100
0000
1000
0001
,
1000
0000
1001
0000
0001
0010
0100
1000
,
0110
0100
0110
0010
,
1001
0001
1001
1000
,
0011
0100
1010
0001
,
1001
0000
0100
0000
0010
0100
0001
1000
,
0010
0001
0010
0000
1000
0100
1000
0000
,
0100
0010
0100
0000
0001
1000
0001
0000
,
0010
0001
0100
0000
0010
1000
0100
0000
,
1001
0000
0010
0000
1000
0010
0100
0001
,
1000
0001
1000
0000
0100
0010
0100
0000
,
0001
0010
0001
0000
1000
0100
1000
0000
,
1000
0010
0100
0000
0001
0100
0010
0000
,
1000
0010
0001
0000
0001
0100
1000
0000
,
2001
0000
0010
0000
3100
0000
0001
1000
,
0002
0103
0020
1030
,
1002
0000
0000
0000
0100
0000
0000
0000
0013
0000
1000
0000
0000
0100
0000
0000
,
0001
0000
0000
0100
0000
0000
1000
0000
0001
0000
0000
0000
1000
0000
0000
0000
,
0120
0000
1000
0000
0031
0000
0100
0010
,
0200
0310
0002
1003
,
2001
0000
0000
0000
0100
0000
0000
0000
3010
0000
0001
0000
0000
0010
0000
0000
,
1000
0000
0000
0010
0000
0000
0001
0000
1000
0000
0001
0000
0100
0000
0010
0000
,
2000
0100
0010
3001
,
0002
0010
0100
1003
,
1010
0100
0011
0100
,
1001
1001
0200
0320
,
2030
0010
0100
3001
,
0002
0100
0010
1003
,
0101
0010
1100
0010
,
1001
1001
0020
0130
,
2010
0100
0001
3010
,
0102
0010
1000
0103
,
0210
0310
2001
3001
,
0110
0110
2000
3001
,
0012
0100
1000
0013
,
2100
0010
0001
3100
,
2100
3100
0012
0013
,
1000
0100
0010
0001
1000
0001
0100
0000
,
0110
0100
0110
0010
,
1001
0001
1001
1000
,
0101
0000
0100
0000
1010
0000
0010
0100
,
0010
0000
0110
0000
0100
0001
1000
0010
,
1001
1000
1001
0001
,
0110
0100
0110
0010
,
0101
1000
0011
0100
,
0110
1000
0002
1003
,
0001
0100
0001
1000
0010
0000
0110
0000
,
2000
0100
0010
3001
,
0001
0100
1000
0100
0001
0000
1001
0000
,
1000
0010
0001
0010
1000
0000
1001
0000
,
0010
0100
0010
0000
1000
0001
1000
0000
,
0100
0001
0100
0000
0010
1000
0010
0000
,
0010
0001
1000
0000
0100
1000
0001
0000
,
0010
0001
0100
0000
0100
1000
0010
0000
,
0120
0000
0001
0000
1030
0000
0100
0010
,
0200
1300
0002
0013
,
0210
0000
0000
0000
1000
0000
0000
0000
0301
0000
0010
0000
0000
1000
0000
0000
,
0100
0000
0000
1000
0000
0000
0010
0000
0100
0000
0000
0000
0010
0000
0000
0000
,
1002
0000
0010
0000
0103
0000
1000
0001
,
2000
3001
0200
0310
,
0120
0000
0000
0000
1000
0000
0000
0000
0031
0000
0100
0000
0000
0001
0000
0000
,
0010
0000
0000
0001
0000
0000
0100
0000
0010
0000
0100
0000
1000
0000
0001
0000
,
0020
1000
0001
0130
,
0200
0001
1000
0310
,
0011
1000
0101
1000
,
0110
0110
2000
3002
,
0023
0001
1000
0130
,
0200
1000
0001
0310
,
1100
0001
1010
0001
,
0110
0110
0002
1003
,
0021
1000
0100
0031
,
1200
0001
0010
1300
,
2001
3001
0120
0130
,
1001
1001
0020
0130
,
0201
1000
0010
0301
,
1020
0001
0100
1030
,
1020
1030
0201
0301
,
0010
1000
0001
0100
0010
0100
1000
0000
,
0100
0010
0100
0010
0200
0000
0000
0000
0010
0000
0000
0000
0310
0000
0000
0000
,
1000
0001
1000
0001
1000
0000
0000
0000
0001
1000
0001
1000
0001
0000
0000
0000
,
0010
0100
0010
0100
0020
0000
0100
0000
0100
0000
0000
0000
0130
0000
0000
0000
,
1000
0001
1000
0001
1000
0000
0000
0000
1000
0000
0100
0000
0010
0000
0001
0000
,
0010
0001
0100
0010
2000
0000
0000
0000
0001
0000
0000
0000
3001
0000
0000
0000
,
0100
0010
1000
0100
0001
0000
0000
0000
0001
0100
1000
0010
0100
0000
0000
0000
,
1000
0100
0010
0001
2000
0000
0000
0000
0001
0000
0000
0000
3001
0000
0000
0000
,
0010
1000
0001
0100
0010
0000
0000
0000
1000
0000
0001
0000
0100
0000
0010
0000
,
1001
0000
0000
0000
0110
0000
0000
0000
1001
0000
0000
0000
1000
0010
1000
0000
,
0100
0001
0100
0000
0010
0100
0010
0000
0001
1000
0001
0000
0010
0100
0001
0000
,
0010
1000
0100
0000
0001
1000
0001
1000
0010
0100
0010
0000
0001
0010
0001
0000
,
0010
0100
0010
0000
0100
1000
0100
0000
0001
1000
0001
0000
0100
0010
0100
0000
,
1000
0100
1000
0000
0010
0001
0010
0001
1000
0100
1000
0000
0010
0100
0010
0000
,
1000
0100
1000
0000
0010
0001
0010
0000
0100
0000
0000
0110
0000
0000
0100
0000
,
0010
0000
1000
0000
0100
0000
0010
0000
0001
0000
0000
1001
0000
0000
1000
0000
,
0010
0000
0100
0000
0001
0000
1000
0000
0010
0000
0000
0110
0000
0000
0100
0000
,
1000
0000
0100
0000
0001
0000
0010
0000
1000
0000
0010
0000
0001
0100
0001
0000
,
0010
1000
0010
0000
0100
0010
0100
0000
1000
0001
1000
0000
0100
0010
1000
0000
,
0100
0001
0010
0000
1000
0001
1000
0001
0100
0010
0100
0000
1000
0100
1000
0000
,
0100
0010
0100
0000
0010
0001
0010
0000
1000
0001
1000
0000
0010
0100
0010
0000
,
0001
0010
0001
0000
0100
1000
0100
1000
0001
0010
0001
0000
0100
0010
0100
0000
,
0001
0010
0001
0000
0100
1000
0100
0000
0010
0000
0000
0110
0000
0000
0010
0000
,
0100
0000
0001
0000
0010
0000
0100
0000
1000
0000
0000
1001
0000
0000
0001
0000
,
0100
0000
0010
0000
1000
0000
0001
0000
0100
0000
0000
0110
0000
0000
0010
0000
,
0001
0010
1000
0100
0001
0100
1000
0000
,
1000
0001
1000
0001
0100
0010
0100
0010
1000
0000
0001
0000
0100
0000
0010
0000
,
1000
0001
0100
0010
1000
0100
0001
0100
,
1000
0010
0001
0010
1000
0100
0001
0010
,
1000
0010
0001
0100
1000
0001
0100
1000
,
0100
0001
1000
0010
0001
0010
0100
0010
,
0001
0010
0100
1000
0010
0100
0001
0010
,
0100
1000
0010
0100
0001
0010
0001
0100
,
0001
1000
0001
0100
0002
0000
0010
0000
,
0100
1003
2000
0100
,
0010
0000
3001
0000
1000
0010
0100
0000
,
0100
0001
0010
0000
0100
0010
0001
0000
,
1000
0000
0100
0000
0010
0000
0000
0000
0001
0000
0000
0010
0000
0000
0011
0000
,
1000
0000
0000
0100
0000
0000
1100
0000
1000
0000
0000
0001
0000
0000
1001
0000
,
2000
0000
0000
0000
0000
0000
3000
0000
0001
0100
0001
0100
0010
1000
0010
1000
,
0100
0010
0100
0010
1000
0001
1000
0001
0010
0001
0100
0010
1000
0100
0010
0001
,
1000
0001
0100
0010
1000
0100
0010
0001
0020
0000
0000
0000
1000
0000
0000
0000
,
0001
0130
0200
0001
,
1000
0310
0011
1000
,
0101
1000
0110
0110
,
2000
3002
0023
0001
,
1000
0130
0200
1000
,
0001
0310
1100
0001
,
1010
0001
0110
0110
,
0002
1003
0021
1000
,
0100
0031
1200
0001
,
0010
1300
2001
3001
,
0120
0130
1001
1001
,
0020
0130
0201
1000
,
0010
0301
1020
0001
,
0100
1030
1020
1030
,
0201
0000
0301
0000
0100
1000
0010
0100
,
0001
0010
0100
1000
0002
0000
0010
0000
,
0100
1003
2000
0100
,
0010
3001
0200
0010
,
1000
0301
0020
0100
,
0001
0000
1030
0000
1000
0010
0100
0000
,
0010
0100
0001
0000
1000
0001
0010
0000
,
0010
1000
0001
0000
1000
0100
0001
0000
,
1000
0010
0001
0000
0100
1000
0010
1000
,
0100
0001
0010
0000
0200
0000
0010
0000
,
0001
1300
0020
0100
,
1000
0031
0002
0010
,
0100
1003
2000
0100
,
0010
0000
3001
0000
0010
0100
0001
0000
,
0010
1000
0100
0000
1000
0010
0001
0000
,
0001
0010
1000
0000
1000
0100
0010
0000
,
0100
0010
0001
0000
1000
0010
0100
0010
,
1000
0100
0001
0000
0002
0000
1000
0000
,
0010
0103
2000
0001
,
0100
3010
0200
1000
,
0010
0301
0020
0100
,
0001
0000
1030
0000
0100
0010
0100
0000
,
0001
0010
0001
0000
1000
0100
1000
0000
,
1000
0001
1000
0000
0010
0001
0100
0000
,
0010
1000
0100
0000
0001
0010
0100
1000
,
0010
0100
0001
0000
2000
0000
0010
0000
,
0100
3001
0002
0010
,
0100
1003
0200
1000
,
0010
0301
0020
0001
,
0100
0000
1030
0000
1000
0010
0100
0000
,
0100
0010
1000
0000
0001
0100
0010
0000
,
0010
0100
0001
0000
1000
0100
0010
0001
,
1000
0100
0010
0001
0001
0010
0100
1000
,
0001
0010
0100
1000
2002
3003
1001
0000
,
1000
0000
0001
0000
1001
0000
0000
0000
0100
0000
0010
0000
0110
0000
0010
0100
,
0010
0100
0110
0000
0011
0000
1100
0000
,
0010
0001
0011
0000
1000
0100
0010
0001
,
1000
0001
0000
0100
0000
0010
0000
2000
0002
0000
0000
0000
0000
0000
0000
0000
,
3003
0000
0000
0000
;
