#TITLE:PARANOiA Disconnected Max;
#SUBTITLE:(Hyper Dirty Mix);
#ARTIST:190 vs Inspector K;
#TITLETRANSLIT:;
#SUBTITLETRANSLIT:;
#ARTISTTRANSLIT:;
#CREDIT:;
#BANNER:PARANOiADisconnected-banner.PNG;
#BACKGROUND:PARANOiADisconnected-bg.PNG;
#LYRICSPATH:;
#CDTITLE:CMGtitle.PNG;
#MUSIC:PARANOiA Disconnected Max (Hyper Dirty Mix).mp3;
#OFFSET:0.000;
#SAMPLESTART:40.120;
#SAMPLELENGTH:9.700;
#SELECTABLE:YES;
#BPMS:0.000=190.000,178.000=95.000,180.000=190.000,192.000=95.000,194.000=190.000,206.000=95.000,208.000=190.000,224.000=47.500,226.000=190.000;
#STOPS:160.000=0.260
,162.000=0.300
;
#BGCHANGES:;
// cache tags:
#FIRSTBEAT:32.000;
#LASTBEAT:288.500;
#SONGFILENAME:Songs/juju steps/PARANOiA Disconnected Max (Hyper Dirty Mix)/PARANOiA Disconnected Max (Hyper Dirty Mix).sm;
#HASMUSIC:1;
#HASBANNER:1;
#MUSICLENGTH:97.443;
// end cache tags

//---------------dance-single - ----------------
#NOTES:
     dance-single:
     :
     Beginner:
     3:
     0.205,0.406,0.349,0.000,0.000,106.000,34.000,0.000,0.000,0.000:
0000
0000
0000
0000
,
0000
0000
0000
0000
,
0000
0000
0000
0000
,
0000
0000
0000
0000
,
0000
0000
0000
0000
,
0000
0000
0000
0000
,
0000
0000
0000
0000
,
0000
0000
0000
0000
,
1000
0000
0001
0000
,
1001
0000
0000
0000
,
0100
0000
0010
0000
,
0110
0000
0000
0000
,
0001
0000
1000
0000
,
1001
0000
0000
0000
,
0010
0000
0100
0000
,
0110
0000
0000
0000
,
1000
0000
0001
0000
,
0110
0000
0000
0000
,
0100
0000
0010
0000
,
1001
0000
0000
0000
,
0001
0000
1000
0000
,
0110
0000
0000
0000
,
0010
0000
0100
0000
,
1001
0000
0000
0000
,
1001
0000
0000
0000
,
1000
1000
1000
0000
,
0110
0000
0000
0000
,
0100
0100
0100
0000
,
1001
0000
0000
0000
,
0001
0001
0001
0000
,
0110
0000
0000
0000
,
0010
0010
0010
0000
,
1000
0000
0100
0000
,
0010
0000
0001
0000
,
1000
0000
0001
0000
,
0100
0000
0010
0000
,
0001
0000
0010
0000
,
0100
0000
1000
0000
,
0001
0000
1000
0000
,
0010
0000
0100
0000
,
1001
0000
0110
0000
,
1001
1001
1001
0000
,
1000
0000
0001
0000
,
1000
0000
0001
0000
,
1000
0000
1001
0000
,
0110
0000
0100
0000
,
0010
0000
0100
0000
,
0010
0000
0100
0000
,
0110
0000
1001
0000
,
0001
0000
1000
0000
,
0001
0000
1000
0000
,
0001
0000
1001
0000
,
0110
0000
0010
0000
,
0100
0000
0010
0000
,
0100
0000
0010
0000
,
0110
0000
0000
0000
,
1001
0000
1001
0000
,
0000
0000
1000
0000
,
0001
0000
1001
0000
,
0000
0000
0000
0000
,
0000
0000
0110
0000
,
0000
0000
0100
0000
,
0010
0000
0110
0000
,
0000
0000
0000
0000
,
0000
0000
1001
0000
,
0000
0000
0001
0000
,
1000
0000
1001
0000
,
0000
0000
0000
0000
,
0000
0000
0110
0000
,
0000
0000
0010
0000
,
0100
0000
0110
0000
,
0000
0000
0000
0000
,
1001
0000
0000
0000
;

//---------------dance-single - ----------------
#NOTES:
     dance-single:
     :
     Easy:
     5:
     0.396,0.591,0.431,0.205,0.000,208.000,42.000,20.000,0.000,0.000:
0000
0000
0000
0000
,
0000
0000
0000
0000
,
0000
0000
0000
0000
,
0000
0000
0000
0000
,
0000
0000
0000
0000
,
0000
0000
0000
0000
,
0000
0000
0000
0000
,
0000
0000
0000
0000
,
1000
1000
1000
1000
,
1000
0000
0000
0000
,
0001
0001
0001
0001
,
0001
0000
0000
0000
,
0100
0100
0100
0100
,
0100
0000
0000
0000
,
0010
0010
0010
0010
,
0010
0000
0000
0000
,
0001
0001
1000
1000
,
1001
0000
0000
0000
,
0010
0010
0100
0100
,
0110
0000
0000
0000
,
1000
1000
0001
0001
,
0110
0000
0000
0000
,
0100
0100
0010
0010
,
1001
0000
0000
0000
,
1001
0000
0110
0000
,
1000
1000
1000
0000
,
0110
0000
1001
0000
,
0100
0100
0100
0000
,
1001
0000
0110
0000
,
0001
0001
0001
0000
,
0110
0000
1001
0000
,
0010
0010
0010
0000
,
1000
0100
0010
0001
,
0001
0010
0100
1000
,
1000
0001
0100
0010
,
0001
1000
0010
0100
,
1000
0100
1000
0010
,
0001
0100
0001
0010
,
1000
0100
0001
0010
,
0001
0100
1000
0010
,
1001
0110
1001
0110
,
1001
0110
2001
0001
,
0001
3001
1002
1000
,
1000
1003
2001
3001
,
1002
1003
1001
0000
,
0210
0010
0010
0310
,
0120
0100
0100
0130
,
0210
0310
0120
0130
,
0110
0000
2000
3001
,
1001
0000
0001
1000
0001
1000
0001
0000
,
1001
1001
0002
1003
,
1001
0000
1000
0001
1000
0000
0000
0000
,
0200
0000
0310
0000
0110
0000
0010
0100
,
0010
0100
0010
0000
0110
0000
0110
0000
,
0020
0000
0130
0000
0110
0000
0100
0010
,
0100
0010
0100
0000
0110
0000
1001
0000
,
0110
0000
0000
0000
2000
0002
0000
0000
,
0000
0000
0000
0000
3000
0003
0000
0000
,
0000
0000
0000
0000
0200
0020
0000
0000
,
0000
0000
0000
0000
0300
0030
0000
0000
,
0000
0000
0000
0000
0002
2000
0000
0000
,
0000
0000
0000
0000
0003
3000
0000
0000
,
0000
0000
0000
0000
0020
0200
0000
0000
,
0000
0000
0000
0000
0030
0300
0000
0000
,
0000
0000
0000
0000
1000
0001
0001
0000
,
0100
0010
0010
0000
0001
1000
1000
0000
,
0010
0100
0100
0000
0001
1000
0001
0000
,
0100
0010
0100
0000
1000
0001
1000
0000
,
0010
0100
0010
0000
1000
0000
0001
0000
,
1000
0010
0100
0010
,
0001
1000
0001
0100
,
0010
0100
1001
0110
,
1001
0000
0000
0000
;

//---------------dance-single - ----------------
#NOTES:
     dance-single:
     :
     Medium:
     6:
     0.519,0.850,0.544,0.369,0.000,265.000,53.000,36.000,0.000,0.000:
0000
0000
0000
0000
,
0000
0000
0000
0000
,
0000
0000
0000
0000
,
0000
0000
0000
0000
,
0000
0000
0000
0000
,
0000
0000
0000
0000
,
0000
0000
0000
0000
,
0000
0000
0000
0000
,
1000
0100
0010
0001
,
1001
1100
0101
1001
,
0001
0010
0100
1000
,
1001
0011
1010
1001
,
1000
0001
0100
0010
,
0110
1100
0011
0110
,
0001
1000
0010
0100
,
0110
1010
0101
0110
,
1000
0100
1000
0010
,
1001
1100
1010
1001
,
0001
0010
0001
0100
,
1001
0011
0101
1001
,
1000
0100
0001
0010
,
0110
0011
1100
0110
,
0001
0100
1000
0010
,
0110
0101
1010
0110
,
2000
0000
0000
0000
0002
0000
0000
3000
,
2000
0003
0002
3000
2000
0000
3003
0000
,
0200
0000
0000
0000
0020
0000
0000
0300
,
0200
0030
0020
0300
0200
0000
0330
0000
,
0002
0000
0000
0000
2000
0000
0000
0003
,
0002
3000
2000
0003
0002
0000
3003
0000
,
0020
0000
0000
0000
0200
0000
0000
0030
,
0020
0300
0200
0030
0020
0000
0330
0000
,
1000
0001
1000
0001
1000
0001
0100
0001
,
0100
0001
0100
0000
0000
0000
0000
0000
,
0001
1000
0001
1000
0001
1000
0010
1000
,
0010
1000
0010
0000
0000
0000
0000
0000
,
1000
0001
1000
0001
1000
0001
0010
0001
,
0010
0001
0010
0000
0000
0000
0000
0000
,
0001
1000
0001
1000
0001
1000
0100
1000
,
0100
1000
0100
0000
0000
0000
0000
0000
,
1001
1100
0101
1010
,
0011
0110
1000
0001
,
1000
0000
0001
0001
0001
0000
1000
0000
,
0001
0000
0000
0000
1000
0001
1000
0000
,
0001
1000
0001
0000
2002
0000
3003
0000
,
0100
0000
0010
0000
0100
0000
0010
0010
,
0010
0100
0010
0000
,
0100
0010
0100
0000
0010
0100
0010
0000
,
0220
0330
0001
1000
,
0001
0000
1000
1000
1000
0000
0001
0000
,
1000
0000
0000
0000
0001
1000
0001
0000
,
1000
0001
1000
0000
0220
0000
0330
0000
,
0010
0000
0100
0000
0010
0000
0100
0100
,
0100
0010
0100
0000
,
0010
0100
0010
0000
0100
0010
0100
0000
,
2002
0000
3003
0000
,
2200
3300
0202
0303
0022
0033
2020
3030
0001
0000
0000
0000
0100
0000
0000
0000
,
0010
1000
0001
0100
,
0010
1000
1000
0010
,
0100
0001
1000
0010
,
0100
0001
0001
0010
,
0100
1000
0001
0010
,
0100
1000
1000
0100
,
0010
0001
1000
0100
,
0010
0001
0100
1000
,
0010
0001
0100
1000
,
0010
0001
0100
1000
,
0010
0001
0100
1000
,
0010
0000
0001
0000
1000
0100
1000
0000
,
0001
0100
0001
0000
1000
0010
1000
0000
,
0001
0010
0001
0000
1001
0000
1100
0000
,
0101
0110
1010
0011
,
1001
0000
0000
0000
;

//---------------dance-single - ----------------
#NOTES:
     dance-single:
     :
     Hard:
     8:
     0.711,0.887,0.534,0.657,0.082,369.000,52.000,64.000,0.000,1.000:
0000
0000
0000
0000
,
0000
0000
0000
0000
,
0000
0000
0000
0000
,
0000
0000
0000
0000
,
0000
0000
0000
0000
,
0000
0000
0000
0000
,
0000
0000
0000
0000
,
0000
0000
0000
0000
,
1000
0100
0010
0001
1000
0100
0010
0001
,
1001
1100
0101
1001
,
0001
0010
0100
1000
0001
0010
0100
1000
,
1001
0011
1010
1001
,
1000
0001
0100
0010
1000
0001
0100
0010
,
0110
0101
1100
0110
,
0001
1000
0010
0100
0001
1000
0010
0100
,
0110
1010
0011
0110
,
1000
0100
1000
0010
1000
0100
1000
0010
,
1001
1100
0011
1001
,
0001
0010
0001
0100
0001
0010
0001
0100
,
1001
0101
1010
1001
,
1000
0100
0001
0010
1000
0100
0001
0010
,
0110
1010
1100
0110
,
0001
0100
1000
0010
0001
0100
1000
0010
,
0110
0011
0101
0110
,
2000
0100
0010
3001
,
0200
1000
0001
0310
,
0002
0010
0100
1003
,
0020
0001
1000
0130
,
2000
0001
0010
3100
,
0020
0100
1000
0031
,
0002
1000
0100
0013
,
0200
0010
0001
1300
,
0000
1000
1000
0001
0001
0100
0100
0010
,
0020
1000
0001
1030
,
0000
0001
0001
1000
1000
0010
0010
0100
,
0200
0001
1000
0301
,
0000
0100
0100
0010
0010
1000
1000
0001
,
0002
0100
0010
0103
,
0000
0010
0010
0100
0100
0001
0001
1000
,
2000
0010
0100
3010
,
2001
0000
0000
3000
1020
0000
0000
0030
1002
0000
0000
0003
0201
0000
0000
0300
,
0120
0000
0000
0030
2100
0000
0000
3000
2002
0000
3000
0000
0200
0000
0300
0000
,
0020
0030
1000
1000
2000
3000
0020
0030
,
0200
0000
0300
0000
0020
0030
2000
3000
,
0200
0000
0300
0000
1000
0000
1000
0000
2003
0100
0000
0010
0000
0100
0000
3010
,
0220
0030
0002
0003
2000
3000
0010
0010
,
0020
0030
2000
3000
0002
0000
0003
0000
,
2000
3000
0020
0030
0002
0003
0010
0010
,
0320
0001
0000
1000
0000
0001
0000
1030
2002
0000
0003
0000
0020
0000
0030
0000
,
0200
0300
0001
0001
0002
0003
0200
0300
,
0020
0000
0030
0000
0200
0300
0002
0003
,
0020
0000
0030
0000
0001
0000
0001
0000
3002
0010
0000
0100
0000
0010
0000
0103
,
0220
0300
2000
3000
0002
0003
0100
0100
,
0200
0300
0002
0003
2000
0000
3000
0000
,
0002
0003
0200
0300
2000
3000
0100
0100
,
0230
0010
0020
0030
1000
0000
0001
0000
,
2000
0000
0000
0000
0000
0000
0000
0000
0000
3001
0000
1000
0000
0001
0000
1300
0001
0000
0000
0000
0010
0000
0000
0000
0001
0000
0000
0000
1000
0000
0000
0000
,
0001
0100
0001
1000
0001
0010
0001
1000
,
0001
0100
0001
1000
0010
0100
0010
0001
,
0010
0100
0010
1000
0010
0100
0010
0001
,
0010
0100
0010
0000
1000
0100
1000
0001
,
1000
0010
1000
0001
1000
0100
1000
0001
,
1000
0010
1000
0001
0100
0010
0100
1000
,
0100
0010
0100
0001
0100
0010
0100
1000
,
0100
0010
0100
0000
1000
0100
1100
0000
,
0001
0100
0101
0000
1000
0010
1010
0000
,
0001
0010
0011
0000
1000
0100
0010
0001
,
1000
0010
0100
0001
0010
0100
1000
0001
,
0100
0010
0110
0000
0100
1000
1100
0000
,
0010
0001
0011
0000
0100
0001
0101
0000
,
0010
1000
1010
0000
0001
0010
0100
1000
,
0001
0100
0010
1000
0100
0010
0001
1000
,
1001
0000
0000
0000
;

//---------------dance-single - ----------------
#NOTES:
     dance-single:
     :
     Challenge:
     12:
     0.885,1.000,0.452,0.390,0.549,520.000,44.000,38.000,141.000,43.000:
0000
0000
0000
0000
,
0000
0000
0000
0000
,
0000
0000
0000
0000
,
0000
0000
0000
0000
,
0000
0000
0000
0000
,
0000
0000
0000
0000
,
0000
0000
0000
0000
,
0000
0000
0000
0000
,
1000
0100
0010
0000
0001
0010
0100
0000
1000
0100
0010
0000
0001
0000
0010
0000
,
0011
0000
0001
0010
0100
0010
0001
0011
,
0010
0100
1000
0000
0100
0010
0001
0000
0010
0100
1000
0000
0100
0000
1000
0000
,
1100
0000
1000
0100
0010
0100
1000
1100
,
0001
0010
0001
0000
1000
0100
1000
0000
0001
1000
0001
0000
0100
0000
0010
0000
,
1001
0000
1000
0100
0001
0010
1000
0100
,
0001
0010
1000
0100
0001
0010
1000
0100
,
0001
0000
0010
0100
1000
0000
1000
0100
0010
0000
0010
0100
1000
0000
0000
0000
,
0001
0010
0100
0000
1000
0100
0010
0000
0001
0010
0100
0000
1000
0000
0100
0000
,
0101
0000
0001
0010
0100
0010
0001
0101
,
0100
0010
0001
0000
0010
0100
1000
0000
0100
0010
0001
0000
0010
0000
1000
0000
,
1010
0000
1000
0100
0010
0100
1000
1010
,
0010
1000
0010
0000
0100
0001
0100
0000
0010
0100
0010
0000
0001
0000
1000
0000
,
0110
0000
0001
0100
1000
0010
0001
0100
,
1000
0010
0001
0100
1000
0010
0001
0100
,
1000
0000
0100
0010
0001
0000
0001
0010
0100
0000
0100
0010
0001
0000
1000
0000
,
0001
0100
0010
1000
0001
0000
0000
0000
,
2M2M
0000
0000
3030
0000
0000
M22M
0000
0000
0330
0000
0000
M2M2
0000
0000
0303
0000
0000
0000
0000
1000
0000
0000
0000
,
0001
0000
0100
0000
0010
0000
1000
0000
0001
0000
0000
0000
,
MM22
0033
M22M
0330
22MM
3300
0000
1000
,
0100
0001
0010
1000
0100
0000
0000
0000
,
2M2M
0000
0000
3030
0000
0000
2MM2
0000
0000
3003
0000
0000
MM22
0000
0000
0033
0000
0000
0000
0000
0001
0000
0000
0000
,
0010
0000
1000
0000
0100
0000
0001
0000
0010
0000
0000
0000
,
22MM
3300
2MM2
3003
M2M2
0303
0000
0000
,
1000
0100
0010
0001
1000
0100
0010
0001
,
1000
0100
0010
0001
1000
0010
0100
1000
,
0001
0010
0100
1000
0001
0010
0100
1000
,
0001
0010
0100
1000
0001
0100
0010
0001
,
1000
0100
0001
0010
1000
0100
0001
0010
,
1000
0100
0001
0010
0001
0100
0001
0010
,
0001
0100
1000
0010
0001
0100
1000
0010
,
0001
0100
1000
0010
1000
0100
1000
0010
,
1010
0100
0011
1000
0101
0010
1100
0000
,
0220
0000
1001
0330
1000
0001
0100
MMMM
,
0001
1000
0100
MMMM
1000
0001
0100
MMMM
,
0001
1000
0100
MMMM
100M
01M0
0M10
M001
,
0M10
0000
01M0
0000
100M
0000
MMMM
0000
1000
0001
0100
0010
0001
1000
0010
0100
,
0010
0001
0100
MMMM
0010
1000
0100
MMMM
,
0010
0001
0100
MMMM
0010
1000
0100
MMMM
,
M001
0M10
01M0
100M
01M0
0M10
M001
MMMM
,
1000
0001
0100
0010
1000
0001
0100
0010
1000
0000
0001
0000
0010
0000
MMMM
0000
,
0001
1000
0010
MMMM
1000
0001
0010
MMMM
,
0001
1000
0010
MMMM
100M
01M0
0M10
M001
,
0M10
0000
01M0
0000
100M
0000
MMMM
0000
0001
0010
1000
0100
0001
0010
1000
0100
,
0010
1000
0100
MMMM
0010
0001
0100
MMMM
,
0010
1000
0100
MMMM
0010
0001
0100
MMMM
,
M001
0M10
01M0
100M
01M0
0M10
M001
0M10
,
01M0
100M
01M0
0M10
M001
0M10
01M0
100M
,
2002
0000
0000
0000
0000
0000
0220
0000
0000
0000
0000
0000
3333
0000
0000
0000
0000
0000
1000
0000
0001
0000
1000
0000
0001
1000
0001
1000
0001
1000
0001
1000
0001
0000
0000
0000
0000
0000
0000
0000
1000
0000
0000
0000
0001
0000
0000
0000
1000
0000
0000
0000
0000
0000
0000
0000
0001
0000
0000
0000
1000
0000
0000
0000
,
0001
0000
0100
0010
0100
0000
0010
0100
0010
0000
1000
0001
1000
0001
1000
0010
,
0100
0010
0100
0010
0110
0000
0000
0000
1001
0000
1000
0100
1000
0000
0001
0100
,
0001
0000
0010
1000
0010
0000
0100
0001
0100
0000
1000
0100
1000
0100
1000
0100
,
0001
0100
0001
0100
0001
0000
0000
0000
1001
0000
0010
0100
0010
0000
0100
0010
,
0100
0000
1000
0001
1000
0000
0001
1000
0001
0000
0010
0100
0010
0100
0010
1000
,
0001
1000
0001
1000
1001
0000
0000
0000
0110
0000
0100
1000
0100
0000
0100
0001
,
0100
0000
0010
1000
0010
0000
0010
0001
0010
0000
1000
0010
1000
0010
1000
0010
,
0001
0010
0001
0010
0001
0000
0000
0000
1100
0000
2200
0000
0000
0000
0000
0000
,
0010
0001
0010
0001
0010
0000
0000
0000
0001
0010
0001
0010
0001
0000
0000
0000
,
0000
0000
3300
0000
0101
0202
0000
0000
,
0010
1000
0010
1000
0010
0000
0000
0000
1000
0010
1000
0010
1000
0000
0000
0000
,
0000
0000
0303
0000
0011
0022
0000
0000
,
0100
1000
0100
1000
0100
0000
0000
0000
1000
0100
1000
0100
1000
0000
0000
0000
,
0000
0000
0000
0000
0033
0000
0000
0000
1010
0000
2020
0000
0100
0001
0100
0001
,
0100
0000
0000
0000
0001
0100
0001
0100
0001
0000
0000
0000
3030
0000
0000
0000
,
1111
MMMM
0000
0000
0000
0000
0000
0000
;
