#TITLE:Euphorium;
#SUBTITLE:;
#ARTIST:DM Ashura;
#TITLETRANSLIT:;
#SUBTITLETRANSLIT:;
#ARTISTTRANSLIT:;
#CREDIT:;
#BANNER:../Zeppelin_bn.png;
#BACKGROUND:../bg_Zeppelin.png;
#LYRICSPATH:;
#CDTITLE:../cdtitle_ZAiA.png;
#MUSIC:DM Ashura - Euphorium.ogg;
#OFFSET:-0.220;
#SAMPLESTART:86.220;
#SAMPLELENGTH:24.600;
#SELECTABLE:YES;
#DISPLAYBPM:158.000;
#BPMS:0.000=158.000;
#STOPS:;
#BGCHANGES:;
// cache tags:
#FIRSTBEAT:16.000;
#LASTBEAT:326.000;
#SONGFILENAME:Songs/Cirque du Zeppelin/Euphorium - [Zaia]/Euphorium.sm;
#HASMUSIC:1;
#HASBANNER:1;
#MUSICLENGTH:128.966;
// end cache tags

//---------------dance-single - 19/16----------------
#NOTES:
     dance-single:
     19/16:
     Challenge:
     13:
     1.000,1.000,0.008,0.225,1.000,911.000,1.000,29.000,0.000,0.000:
0000
0000
0000
0000
,
0000
0000
0000
0000
,
0000
0000
0000
0000
,
0000
0000
0000
0000
,
0001
0010
0100
0010
0001
1000
0001
0100
,
0010
0100
0001
0010
0100
1000
0001
1000
,
0010
0100
0001
1000
0001
0010
0100
1000
0001
1000
0010
0100
0001
1000
0100
1000
,
0001
0010
0100
0010
0001
1000
0010
0100
0001
1000
0001
1000
0100
0010
0100
1000
,
0001
0100
0001
0010
0001
1000
0010
0100
,
0001
1000
0100
1000
0001
0100
0010
0100
,
0001
0010
0001
1000
0100
1000
0010
1000
,
0001
0100
0001
1000
0001
0010
0100
1000
,
0001
0010
0001
0100
0001
1000
0100
0010
,
0001
1000
0010
1000
0001
0100
0010
1000
,
0100
0010
0001
1000
0001
0100
0010
1000
0001
1000
0100
0010
0001
1000
0010
1000
,
0001
0100
0010
0100
0001
1000
0100
0010
0001
1000
0001
1000
0010
0100
0010
1000
,
0002
0003
0000
0020
0030
0000
0002
0003
0000
0200
0300
0000
0000
0000
0000
0010
0000
0000
1000
0000
0000
0001
0000
0000
,
1000
0000
0000
0100
0000
0000
0010
0000
0001
0000
0000
1000
0000
0000
0010
0000
,
0100
0000
0010
1000
0000
0000
0000
0000
,
0002
0003
0000
0020
0030
0000
0200
0300
0000
2000
3000
0000
0000
0000
0000
0100
0000
0000
0010
0000
0000
0001
0000
0000
,
2000
3000
0000
0020
0030
0000
0200
0300
0000
0002
0003
0000
0000
0000
0000
1000
0000
0000
0100
0000
0000
1000
0000
0000
,
0010
0000
0000
0100
0000
0000
0001
0000
0010
0000
0000
0100
0000
0000
1000
0000
,
0001
0000
1000
1000
0000
0000
0010
0100
,
0002
0003
0000
2000
3000
0000
0200
0300
0000
0020
0030
0000
0000
0000
0000
0100
0000
0000
1000
0000
0000
0001
0000
0000
,
0200
0300
0000
0020
0030
0000
2000
3000
0000
0002
0003
0000
0000
0000
0000
0010
0000
0000
0100
0000
0000
0010
0000
0000
,
0001
0000
0000
1000
0000
0000
0010
0000
0100
0000
0000
0001
0000
0000
1000
0000
,
0100
0000
0010
0010
0000
0000
0001
0000
,
2000
3000
0000
0020
0030
0000
2000
3000
0000
0002
0003
0000
0000
0000
0000
0010
0000
0000
0100
0000
0000
1000
0000
0000
,
0002
0003
0000
0200
0300
0000
0020
0030
0000
2000
3000
0000
0000
0000
0000
0100
0000
0000
0010
0000
0000
0001
0000
0000
,
1000
0010
0100
0010
1000
0001
0010
0001
1000
0100
1000
0001
0100
0010
1000
0001
,
0010
0100
1000
0100
1000
0010
0100
0010
1000
0001
0100
0001
0010
0100
1000
0001
,
0010
0001
0100
0010
1000
0001
1000
0100
0010
0100
1000
0001
0010
0001
1000
0001
,
0100
0010
1000
0001
1000
0100
1000
0001
0010
0100
1000
0100
0010
0001
1000
0001
,
0100
0010
1000
0100
1000
0001
0010
0001
0100
0010
1000
0001
0100
0001
0010
0100
,
1000
0010
0100
0001
0010
0001
1000
0100
1000
0010
0100
0001
1000
0100
0010
0001
,
0100
0010
1000
0001
1000
0100
1000
0001
0100
0001
0010
0001
1000
0010
0100
0001
,
0010
0100
1000
0001
1000
0010
1000
0001
0100
0010
1000
0010
0100
0001
1000
0001
,
0010
0100
1000
0010
1000
0001
0100
0001
0010
0100
1000
0001
0010
0001
0100
0010
,
1000
0100
0010
0001
0100
0001
1000
0010
1000
0100
0010
0001
1000
0010
0100
0001
,
0010
0100
1000
0001
1000
0010
1000
0001
0010
0001
0100
0010
1000
0001
1000
0100
,
0010
0001
1000
0001
0010
0001
1000
0100
0010
0001
0010
0100
1000
0001
1000
0010
,
0100
0001
0010
0001
1000
0100
1000
0010
0100
0001
1000
0010
1000
0100
0010
0001
,
0100
0010
1000
0100
1000
0001
0010
0001
0100
0010
1000
0001
0010
0100
1000
0010
,
0100
0001
1000
0001
0010
0001
1000
0010
1000
0100
1000
0001
0100
0010
1000
0100
,
0010
0001
1000
0001
0100
0001
1000
0010
0100
0001
0100
0010
1000
0001
1000
0100
,
0010
0001
0100
0001
1000
0010
1000
0100
0010
0001
1000
0100
1000
0010
1000
0001
,
0010
0100
1000
0010
1000
0001
0100
0001
0010
0100
1000
0001
0010
0001
0100
0010
,
1000
0100
0010
0001
0100
0001
1000
0010
1000
0100
0010
0001
1000
0010
0100
0001
,
0010
0000
0100
0000
1000
0000
0001
0000
0000
0000
0100
0000
0010
1000
0001
1000
,
0100
0000
0010
0000
0100
0000
1000
0000
0001
0000
0000
0000
0100
0000
0000
0010
,
1000
0000
0001
0000
0100
0000
0001
0000
0000
0000
0100
0001
1000
0001
0010
0100
,
1000
0000
0001
0100
0000
0010
0000
0000
,
1000
0000
0001
0000
0010
0000
0100
0000
0000
0000
1000
0000
0001
0100
0010
1000
,
0001
0000
0010
0000
0100
0000
1000
0000
0001
0000
0100
0010
1000
0100
1000
0001
,
0100
0010
1000
0100
0000
0010
0000
0001
,
1000
0000
0010
0000
1000
0000
0100
0010
0001
0000
0000
0000
1000
0000
0000
0000
,
1001
0000
0000
0000
0000
0001
0100
0010
,
1000
0000
0001
0000
0100
0000
0010
1000
0001
0000
1000
0100
0010
0001
1000
0010
,
0100
0001
0010
0001
1000
0100
1000
0010
0100
0001
0100
0010
1000
0001
0010
0100
,
1000
0001
0100
0001
1000
0100
0010
0100
1000
0001
0100
0010
1000
0100
1000
0001
,
0010
0001
1000
0010
0100
0010
1000
0001
0010
0001
1000
0100
1000
0001
0100
0010
,
1000
0100
1000
0001
0010
0001
1000
0001
0100
0010
0100
0001
1000
0010
1000
0100
,
0010
0001
0100
0001
1000
0010
1000
0100
0010
0001
0010
0100
1000
0001
0100
0010
,
1000
0001
0010
0001
1000
0010
0100
0010
1000
0001
0010
0100
1000
0010
1000
0001
,
0100
0001
1000
0100
1000
0010
1000
0001
0100
0001
1000
0100
0010
0001
1000
0010
,
0100
0001
1000
0001
0010
0001
1000
0100
0010
0001
0010
0100
1000
0001
1000
0010
,
0100
0001
0010
0001
1000
0100
1000
0010
0100
0001
1000
0010
1000
0100
0010
0001
,
0100
0010
1000
0100
1000
0001
0010
0001
0100
0010
1000
0001
0010
0100
1000
0010
,
0100
0001
1000
0001
0010
0001
1000
0010
1000
0100
1000
0001
0100
0010
1000
0100
,
0010
0001
1000
0001
0100
0001
1000
0010
0100
0001
0100
0010
1000
0001
1000
0100
,
0010
0001
0100
0001
1000
0010
1000
0100
0010
0001
1000
0100
1000
0010
0100
0001
,
0010
0100
1000
0010
1000
0001
0100
0001
0010
0100
1000
0001
0100
0010
1000
0100
,
0010
0001
1000
0001
0100
0001
1000
0100
1000
0010
0100
0001
1000
0001
0010
0100
,
1000
0010
1000
0100
1000
0001
0100
0010
,
1000
0001
0010
0001
1000
0010
0100
0010
,
1000
0100
1000
0001
0010
0001
0100
0001
,
1000
0010
1000
0001
1000
0100
0010
0001
,
1000
0100
1000
0010
1000
0001
0010
0100
,
1000
0001
0100
0001
1000
0010
0100
0001
,
0010
0100
1000
0001
1000
0010
0100
0001
1000
0001
0010
0100
1000
0001
0100
0001
,
1000
0010
0100
0010
1000
0001
0010
0100
1000
0001
1000
0001
0100
0010
0100
0001
,
2000
0000
3000
0000
;

//---------------dance-single - 11/2/2/4----------------
#NOTES:
     dance-single:
     11/2/2/4:
     Hard:
     12:
     0.929,1.000,0.008,0.295,0.965,800.000,1.000,38.000,0.000,0.000:
0000
0000
0000
0000
,
0000
0000
0000
0000
,
0000
0000
0000
0000
,
0000
0000
0000
0000
,
0001
0010
0100
0010
0001
1000
0001
0100
,
0010
0100
0001
0010
0100
1000
0001
1000
,
0010
0100
0001
1000
0001
0010
0100
1000
0001
1000
0010
0100
0001
1000
0100
1000
,
0001
0010
0100
0010
0001
1000
0010
0100
0001
1000
0001
1000
0100
0010
0100
1000
,
0001
0100
0001
0010
0001
1000
0010
0100
,
0001
1000
0100
1000
0001
0100
0010
0100
,
0001
0010
0001
1000
0100
1000
0010
1000
,
0001
0100
0001
1000
0001
0010
0100
1000
,
0001
0010
0001
0100
0001
1000
0100
0010
,
0001
1000
0010
1000
0001
0100
0010
1000
,
0100
0010
0001
1000
0001
0100
0010
1000
0001
1000
0100
0010
0001
1000
0010
1000
,
0001
0100
0010
0100
0001
1000
0100
0010
0001
1000
0001
1000
0010
0100
0010
1000
,
0002
0003
0000
0020
0030
0000
0002
0003
0000
0200
0300
0000
0000
0000
0000
0010
0000
0000
1000
0000
0000
0001
0000
0000
,
1000
0000
0000
0100
0000
0000
0010
0000
0001
0000
0000
1000
0000
0000
0010
0000
,
0100
0000
0010
1000
0000
0000
0000
0000
,
0002
0003
0000
0020
0030
0000
0200
0300
0000
2000
3000
0000
0000
0000
0000
0100
0000
0000
0010
0000
0000
0001
0000
0000
,
2000
3000
0000
0020
0030
0000
0200
0300
0000
0002
0003
0000
0000
0000
0000
1000
0000
0000
0100
0000
0000
1000
0000
0000
,
0010
0000
0000
0100
0000
0000
0001
0000
0010
0000
0000
0100
0000
0000
1000
0000
,
0001
0000
1000
1000
0000
0000
0010
0100
,
0002
0003
0000
2000
3000
0000
0200
0300
0000
0020
0030
0000
0000
0000
0000
0100
0000
0000
1000
0000
0000
0001
0000
0000
,
0200
0300
0000
0020
0030
0000
2000
3000
0000
0002
0003
0000
0000
0000
0000
0010
0000
0000
0100
0000
0000
0010
0000
0000
,
0001
0000
0000
1000
0000
0000
0010
0000
0100
0000
0000
0001
0000
0000
1000
0000
,
0100
0000
0010
0010
0000
0000
0001
0000
,
2000
3000
0000
0020
0030
0000
2000
3000
0000
0002
0003
0000
0000
0000
0000
0010
0000
0000
0100
0000
0000
1000
0000
0000
,
0002
0003
0000
0200
0300
0000
0020
0030
0000
2000
3000
0000
0000
0000
0000
0100
0000
0000
0010
0000
0000
0001
0000
0000
,
1000
0010
0100
0010
1000
0001
0010
0001
1000
0100
1000
0001
0100
0010
1000
0001
,
0010
0100
1000
0100
1000
0010
0100
0010
1000
0001
0100
0001
0010
0100
1000
0001
,
0010
0001
0100
0010
1000
0001
1000
0100
0010
0100
1000
0001
0010
0001
1000
0001
,
0100
0010
1000
0001
1000
0100
1000
0001
0010
0100
1000
0100
0010
0001
1000
0001
,
0100
0010
1000
0100
1000
0001
0010
0001
0100
0010
1000
0001
0100
0001
0010
0100
,
1000
0010
0100
0001
0010
0001
1000
0100
1000
0010
0100
0001
1000
0100
0010
0001
,
0100
0010
1000
0001
1000
0100
1000
0001
0100
0001
0010
0001
1000
0010
0100
0001
,
0010
0100
1000
0001
1000
0010
1000
0001
0100
0010
1000
0010
0100
0001
1000
0001
,
0010
0100
1000
0010
1000
0001
0100
0001
0010
0100
1000
0001
0010
0001
0100
0010
,
1000
0100
0010
0001
0100
0001
1000
0010
1000
0100
0010
0001
1000
0010
0100
0001
,
0010
0100
1000
0001
1000
0010
1000
0001
0010
0001
0100
0010
1000
0001
1000
0100
,
0010
0100
1000
0001
0100
0001
0010
0001
,
1000
0010
1000
0001
0010
0100
1000
0010
,
1000
0001
0010
0001
0100
0010
1000
0001
,
0010
0100
1000
0100
0010
0001
0100
0010
,
1000
0001
0010
0001
1000
0100
0010
0001
,
0100
0001
1000
0100
1000
0001
0100
0001
,
0010
0100
1000
0010
1000
0001
0100
0001
0010
0100
1000
0001
0010
0001
0100
0010
,
1000
0100
0010
0001
0100
0001
1000
0010
1000
0100
0010
0001
1000
0010
0100
0001
,
0010
0000
0100
0000
1000
0000
0001
0000
0000
0000
0100
0000
0010
1000
0001
1000
,
0100
0000
0010
0000
0100
0000
1000
0000
0001
0000
0000
0000
0100
0000
0000
0010
,
1000
0000
0001
0000
0100
0000
0001
0000
0000
0000
0100
0001
1000
0001
0010
0100
,
1000
0000
0001
0100
0000
0010
0000
0000
,
1000
0000
0001
0000
0010
0000
0100
0000
0000
0000
1000
0000
0001
0100
0010
1000
,
0001
0000
0010
0000
0100
0000
1000
0000
0001
0000
0100
0010
1000
0100
1000
0001
,
0100
0010
1000
0100
0000
0010
0000
0001
,
1000
0000
0010
0000
1000
0000
0100
0010
0001
0000
0000
0000
1000
0000
0000
0000
,
1001
0000
0000
0000
0000
0001
0100
0010
,
1000
0000
0001
0000
0100
0000
0010
1000
0001
0000
1000
0100
0010
0001
1000
0010
,
0100
0001
0010
0001
1000
0100
1000
0010
0100
0001
0100
0010
1000
0001
0010
0100
,
2000
0000
0000
0000
3002
0000
0203
0000
0000
0000
0000
0000
0300
0000
0010
1000
,
0001
0000
0000
0010
0000
0000
0100
0000
0000
0000
1000
0000
0100
0000
0010
0000
,
0001
0100
0001
1000
0010
1000
0001
1000
0100
0010
0100
1000
0001
0010
0001
0100
,
0010
1000
0100
1000
0001
0010
0001
0100
0010
1000
0010
0100
0001
1000
0100
0010
,
0002
0000
1003
2000
0000
0000
3010
0100
,
0001
0000
0010
0100
1000
0000
0001
0000
0100
0000
0001
0000
1000
0000
0010
0000
,
0100
0001
1000
0001
0010
0001
1000
0100
0010
0001
0010
0100
1000
0001
1000
0010
,
0100
0001
0010
0001
1000
0100
1000
0010
0100
0001
1000
0010
1000
0100
0010
0001
,
0200
0000
0310
2000
0000
0000
3002
0000
,
0203
0000
0300
0000
0000
0001
1000
0100
,
0010
0001
1000
0001
0100
0001
1000
0010
0100
0001
0100
0010
1000
0001
1000
0100
,
0010
0001
0100
0001
1000
0010
1000
0100
0010
0001
1000
0100
1000
0010
0100
0001
,
0010
0100
1000
0010
1000
0001
0100
0001
0010
0100
1000
0001
0100
0010
1000
0100
,
0010
0001
1000
0001
0100
0001
1000
0100
1000
0010
0100
0001
1000
0001
0010
0100
,
1000
0010
1000
0100
1000
0001
0100
0010
,
1000
0001
0010
0001
1000
0010
0100
0010
,
1000
0100
1000
0001
0010
0001
0100
0001
,
1000
0010
1000
0001
1000
0100
0010
0001
,
1000
0100
1000
0010
1000
0001
0010
0100
,
1000
0001
0100
0001
1000
0010
0100
0001
,
0010
0100
1000
0001
1000
0010
0100
0001
1000
0001
0010
0100
1000
0001
0100
0001
,
1000
0010
0100
0010
1000
0001
0010
0100
1000
0001
1000
0001
0100
0010
0100
0001
,
2000
0000
3000
0000
;

//---------------dance-single - 2/2/3/2/2/2----------------
#NOTES:
     dance-single:
     2/2/3/2/2/2:
     Medium:
     10:
     0.917,1.000,0.008,1.000,0.489,677.000,1.000,150.000,0.000,0.000:
0000
0000
0000
0000
,
0000
0000
0000
0000
,
0000
0000
0000
0000
,
0000
0000
0000
0000
,
0001
0010
0100
0010
0001
1000
0001
0100
,
0010
0100
0001
0010
0100
1000
0001
1000
,
0010
0100
0001
1000
0001
0010
0100
1000
0001
1000
0010
0100
0001
1000
0100
1000
,
0001
0010
0100
0010
0001
1000
0010
0100
0001
1000
0001
1000
0100
0010
0100
1000
,
0001
0100
0001
0010
0001
1000
0010
0100
,
0001
1000
0100
1000
0001
0100
0010
0100
,
0001
0010
0001
1000
0100
1000
0010
1000
,
0001
0100
0001
1000
0001
0010
0100
1000
,
0001
0010
0001
0100
0001
1000
0100
0010
,
0001
1000
0010
1000
0001
0100
0010
1000
,
0100
0010
0001
1000
0001
0100
0010
1000
0001
1000
0100
0010
0001
1000
0010
1000
,
0001
0100
0010
0100
0001
1000
0100
0010
0001
1000
0001
1000
0010
0100
0010
1000
,
0002
0003
0000
0020
0030
0000
0002
0003
0000
0200
0300
0000
0000
0000
0000
0010
0000
0000
1000
0000
0000
0001
0000
0000
,
1000
0000
0000
0100
0000
0000
0010
0000
0001
0000
0000
1000
0000
0000
0010
0000
,
0100
0000
0010
1000
0000
0000
0000
0000
,
0002
0003
0000
0020
0030
0000
0200
0300
0000
2000
3000
0000
0000
0000
0000
0100
0000
0000
0010
0000
0000
0001
0000
0000
,
2000
3000
0000
0020
0030
0000
0200
0300
0000
0002
0003
0000
0000
0000
0000
1000
0000
0000
0100
0000
0000
1000
0000
0000
,
0010
0000
0000
0100
0000
0000
0001
0000
0010
0000
0000
0100
0000
0000
1000
0000
,
0001
0000
1000
1000
0000
0000
0010
0100
,
0002
0003
0000
2000
3000
0000
0200
0300
0000
0020
0030
0000
0000
0000
0000
0100
0000
0000
1000
0000
0000
0001
0000
0000
,
0200
0300
0000
0020
0030
0000
2000
3000
0000
0002
0003
0000
0000
0000
0000
0010
0000
0000
0100
0000
0000
0010
0000
0000
,
0001
0000
0000
1000
0000
0000
0010
0000
0100
0000
0000
0001
0000
0000
1000
0000
,
0100
0000
0010
0010
0000
0000
0001
0000
,
2000
3000
0000
0020
0030
0000
2000
3000
0000
0002
0003
0000
0000
0000
0000
0010
0000
0000
0100
0000
0000
1000
0000
0000
,
0002
0003
0000
0200
0300
0000
0020
0030
0000
2000
3000
0000
0000
0000
0000
0100
0000
0000
0010
0000
0000
0001
0000
0000
,
1000
0010
0100
0010
1000
0001
0010
0001
1000
0100
1000
0001
0100
0010
1000
0001
,
0010
0100
1000
0100
1000
0010
0100
0010
1000
0001
0100
0001
0010
0100
1000
0001
,
0010
0001
0100
0010
1000
0001
1000
0100
0010
0100
1000
0001
0010
0001
1000
0001
,
0200
0300
0000
0000
0000
0000
0000
0000
0020
0000
0030
0000
0000
0000
0000
0000
2000
0000
0000
3000
0000
0000
0000
0000
0002
0000
0000
0000
0003
0000
0000
0000
2000
0000
3000
0000
0000
0000
0000
0000
0200
0000
0000
0300
0000
0000
0000
0000
0020
0000
0000
0000
0030
0000
0000
0000
0200
0000
0000
0000
0000
0300
0000
0000
,
2000
0000
0000
3000
0000
0000
0000
0000
0002
0000
0000
0000
0003
0000
0000
0000
0200
0000
0000
0000
0000
0300
0000
0000
0020
0000
0000
0000
0000
0000
0030
0000
0200
0000
0000
0000
0300
0000
0000
0000
0002
0000
0000
0000
0000
0003
0000
0000
2000
0000
0000
0000
0000
0000
3000
0000
0002
0000
0000
0000
0000
0000
0000
0003
,
0020
0000
0000
0000
0000
0000
0000
0000
0230
0000
0000
0000
0000
0000
0000
0300
2000
0000
0000
0000
0000
0000
3000
0000
0002
0000
0000
0000
0000
0003
0000
0000
2000
0000
0000
0000
3000
0000
0000
0000
0020
0000
0000
0000
0000
0000
0000
0030
0200
0000
0000
0000
0000
0000
0300
0000
0002
0000
0000
0000
0000
0003
0000
0000
,
2000
0000
0000
0000
3000
0000
0000
0000
0020
0000
0000
0000
0000
0000
0030
0000
2000
0000
0000
0000
0000
3000
0000
0000
0200
0000
0000
0000
0300
0000
0000
0000
2000
0000
0000
0000
0000
3000
0000
0000
0002
0000
0000
0000
0003
0000
0000
0000
0020
0000
0000
0030
0000
0000
0000
0000
0002
0000
0003
0000
0000
0000
0000
0000
,
0200
0300
0000
0000
0000
0000
0000
0000
0020
0000
0030
0000
0000
0000
0000
0000
2000
0000
0000
3000
0000
0000
0000
0000
0200
0000
0000
0000
0300
0000
0000
0000
2000
0000
3000
0000
0000
0000
0000
0000
0020
0000
0000
0030
0000
0000
0000
0000
0200
0000
0000
0000
0300
0000
0000
0000
0020
0000
0000
0000
0000
0030
0000
0000
,
2000
0000
0000
3000
0000
0000
0000
0000
0002
0000
0000
0000
0003
0000
0000
0000
0020
0000
0000
0000
0000
0030
0000
0000
0200
0000
0000
0000
0000
0000
0300
0000
0020
0000
0000
0000
0030
0000
0000
0000
0002
0000
0000
0000
0000
0003
0000
0000
2000
0000
0000
0000
0000
0000
3000
0000
0002
0000
0000
0000
0000
0000
0000
0003
,
0200
0000
0000
0000
0000
0000
0000
0000
0320
0000
0000
0000
0000
0000
0000
0030
2000
0000
0000
0000
0000
0000
0000
3000
0002
0000
0000
0000
0000
0003
0000
0000
2000
0000
0000
0000
0000
0000
0000
3000
0200
0000
0000
0000
0000
0000
0300
0000
0020
0000
0000
0000
0000
0000
0030
0000
0002
0000
0000
0000
0003
0000
0000
0000
,
2000
0000
0000
0000
0000
0000
3000
0000
0200
0000
0000
0000
0000
0300
0000
0000
2000
0000
0000
0000
3000
0000
0000
0000
0020
0000
0000
0030
0000
0000
0000
0000
2000
0000
0000
0000
0000
3000
0000
0000
0002
0000
0000
0000
0003
0000
0000
0000
0200
0000
0000
0300
0000
0000
0000
0000
0002
0000
0003
0000
0000
0000
0000
0000
,
0020
0030
0000
0000
0000
0000
0000
0000
0200
0000
0300
0000
0000
0000
0000
0000
2000
0000
0000
3000
0000
0000
0000
0000
0002
0000
0000
0000
0003
0000
0000
0000
0200
0000
0300
0000
0000
0000
0000
0000
0002
0000
0000
0003
0000
0000
0000
0000
0020
0000
0000
0000
0030
0000
0000
0000
0002
0000
0000
0000
0000
0003
0000
0000
,
2000
0000
0000
3000
0000
0000
0000
0000
0020
0000
0000
0000
0030
0000
0000
0000
2000
0000
0000
0000
0000
3000
0000
0000
0002
0000
0000
0000
0000
0000
0003
0000
0020
0000
0000
0000
0030
0000
0000
0000
0200
0000
0000
0000
0000
0300
0000
0000
2000
0000
0000
0000
0000
0000
3000
0000
0020
0000
0000
0000
0000
0000
0000
0030
,
2000
0000
0000
0000
0000
0000
0000
0000
3002
0000
0000
0000
0000
0000
0000
0003
0020
0000
0000
0000
0000
0000
0030
0000
0002
0000
0000
0000
0000
0003
0000
0000
0200
0000
0000
0000
0000
0000
0000
0300
0020
0000
0000
0000
0000
0000
0030
0000
2000
0000
0000
0000
0000
3000
0000
0000
0002
0000
0000
0000
0003
0000
0000
0000
,
0020
0000
0000
0000
0000
0000
0030
0000
0200
0000
0000
0000
0000
0300
0000
0000
2000
0000
0000
0000
3000
0000
0000
0000
0200
0000
0000
0300
0000
0000
0000
0000
0020
0000
0000
0000
0000
0030
0000
0000
0002
0000
0000
0000
0003
0000
0000
0000
0200
0000
0000
0300
0000
0000
0000
0000
0020
0000
0030
0000
0000
0000
0000
0000
,
2000
3000
0000
0000
0000
0000
0000
0000
0002
0000
0003
0000
0000
0000
0000
0000
0020
0000
0000
0000
0030
0000
0000
0000
0002
0000
0000
0000
0000
0000
0003
0000
2000
0000
0000
3000
0000
0000
0000
0000
0200
0000
0000
0000
0000
0300
0000
0000
0020
0000
0000
0000
0000
0000
0000
0030
0002
0000
0000
0000
0000
0000
0000
0000
,
0203
0000
0000
0000
0000
0000
0000
0000
0302
0000
0000
0000
0000
0003
0000
0000
2000
0000
0000
3000
0000
0000
0000
0000
0200
0000
0300
0000
0000
0000
0000
0000
2000
0000
0000
0000
0000
0000
3000
0000
0002
0000
0000
0000
0003
0000
0000
0000
0200
0000
0300
0000
0000
0000
0000
0000
0002
0003
0000
0000
0000
0000
0000
0000
,
0010
0100
1000
0010
1000
0001
0100
0001
0010
0100
1000
0001
0010
0001
0100
0010
,
1000
0100
0010
0001
0100
0001
1000
0010
1000
0100
0010
0001
1000
0010
1000
0001
,
0010
0000
0100
0000
1000
0000
0001
0000
0000
0000
0100
0000
0010
1000
0001
1000
,
0100
0000
0010
0000
0100
0000
1000
0000
0001
0000
0000
0000
0100
0000
0000
0010
,
1000
0000
0001
0000
0100
0000
0001
0000
0000
0000
0100
0001
1000
0001
0010
0100
,
1000
0000
0001
0100
0000
0010
0000
0000
,
1000
0000
0001
0000
0010
0000
0100
0000
0000
0000
1000
0000
0001
0100
0010
1000
,
0001
0000
0010
0000
0100
0000
1000
0000
0001
0000
0100
0010
1000
0100
1000
0001
,
0100
0010
1000
0100
0000
0010
0000
0001
,
1000
0000
0010
0000
1000
0000
0100
0010
0001
0000
0000
0000
1000
0000
0000
0000
,
1001
0000
0000
0000
0000
0001
0100
0010
,
1000
0000
0001
0000
0100
0000
0010
1000
0001
0000
1000
0000
0100
0000
1000
0000
,
0010
0100
0001
0010
0001
1000
0001
0100
,
0020
0000
0000
0000
2030
0000
3200
0000
0000
0000
0000
0000
0300
0000
0010
0001
,
1000
0000
0000
0010
0000
0000
0100
0000
0000
0000
0001
0000
0010
0000
0100
0000
,
1000
0010
0100
0001
0010
0001
1000
0100
,
1000
0001
0100
0010
1000
0100
0010
0001
,
2000
0000
3001
0002
0000
0000
0103
0010
,
1000
0000
0100
0010
0001
0000
1000
0000
0010
0000
1000
0000
0001
0000
0100
0000
,
0010
1000
0100
0010
0001
1000
0010
0100
,
0001
0010
0100
1000
0010
1000
0001
0010
,
0200
0000
0310
0002
0000
0000
2003
0000
,
3020
0000
0030
0000
0000
1000
0001
0010
,
0100
1000
0010
1000
0001
0010
0001
0100
,
0010
1000
0001
1000
0010
0100
0001
0010
,
0100
0010
0001
0100
0001
1000
0010
1000
0100
0010
0001
1000
0010
0100
0001
0010
,
0100
1000
0001
1000
0010
1000
0001
0010
0001
0100
0010
1000
0001
1000
0100
0010
,
0001
0100
0001
0010
0001
1000
0010
0100
,
0001
1000
0100
1000
0001
0100
0010
0100
,
0001
0010
0001
1000
0100
1000
0010
1000
,
0001
0100
0001
1000
0001
0010
0100
1000
,
0001
0010
0001
0100
0001
1000
0100
0010
,
0001
1000
0010
1000
0001
0100
0010
1000
,
0100
0010
0001
1000
0001
0100
0010
1000
0001
1000
0100
0010
0001
1000
0010
1000
,
0001
0100
0010
0100
0001
1000
0100
0010
0001
1000
0001
1000
0010
0100
0010
1000
,
0002
0000
0003
0000
;
