#TITLE:PARANOIA Clean Remix;
#SUBTITLE:("C.R.PARANOiA" foonmix edit);
#ARTIST:Spelunker;
#TITLETRANSLIT:;
#SUBTITLETRANSLIT:;
#ARTISTTRANSLIT:;
#CREDIT:;
#BANNER:paracr.png;
#BACKGROUND:paracr-bg.png;
#LYRICSPATH:;
#CDTITLE:cdtitle.png;
#MUSIC:paracr.mp3;
#OFFSET:-0.040;
#SAMPLESTART:33.333;
#SAMPLELENGTH:12.000;
#SELECTABLE:YES;
#BPMS:0.000=180.000,173.000=199.900,300.000=240.060;
#STOPS:28.000=0.083
,28.250=0.083
,28.500=0.083
,28.750=0.084
,29.000=0.166
,29.500=0.167
,172.000=0.160
,172.500=0.160
,299.000=0.160
,299.500=0.140
;
#BGCHANGES:;
// cache tags:
#FIRSTBEAT:16.000;
#LASTBEAT:431.000;
#SONGFILENAME:Songs/Japanese Collaboration Mix/paracr/paracr.sm;
#HASMUSIC:1;
#HASBANNER:1;
#MUSICLENGTH:137.377;
// end cache tags

//---------------dance-single - Copied from Copied f----------------
#NOTES:
     dance-single:
     Copied from Copied f:
     Hard:
     9:
     0.688,0.706,0.961,0.167,0.015,507.000,132.000,23.000,0.000,0.000:
0000
0000
0000
0000
,
0000
0000
0000
0000
,
0000
0000
0000
0000
,
0000
0000
0000
0000
,
0001
0000
1000
0000
0010
1000
0010
0000
,
1000
0000
0001
0000
0100
0001
0100
0000
,
0010
0100
0001
1000
0010
0100
0001
1000
,
0010
0100
0001
1000
0010
0000
1100
0000
0010
0000
0000
0000
1000
0000
0000
0000
,
0010
0101
1000
0001
,
0100
0000
1010
0000
0001
0010
0001
0000
,
0100
0000
0011
0000
1000
0100
1000
0000
,
0010
0000
1100
0000
0010
0001
0010
0001
,
0010
0001
0010
0000
0100
1000
0100
1000
,
0100
1000
0100
0000
0001
1000
0020
0000
,
0130
0001
2000
0000
3001
0010
0200
0000
,
0310
0100
2000
0000
3000
0000
0110
0000
,
0000
1100
0000
0110
,
0000
0011
0000
1001
,
0000
1100
0000
1001
,
0000
0011
0200
1000
,
0000
1300
0002
0010
,
0000
0013
2000
0100
,
0000
3100
0020
0001
,
0000
0001
0030
0001
1000
0000
1000
0000
,
0110
1000
0001
0001
,
0110
0001
1000
1000
,
0001
0001
1100
1100
,
0101
0000
0000
0001
0100
0000
0001
0100
0000
0000
0011
0000
0000
0000
1000
0000
,
0100
0000
0010
0001
0000
1000
0100
0000
,
0110
0000
0100
0010
0000
1010
0000
0100
,
0001
0000
1000
0010
0000
0100
0001
0000
,
0110
0000
0010
0100
0000
0101
0000
1010
,
0000
1000
0010
0000
0100
0001
0000
0010
,
0001
0000
1000
0100
0000
0011
0000
1100
,
0000
1000
0100
0000
0010
0001
0000
0001
,
0010
0000
0100
1000
0000
1001
0000
0001
,
1000
0000
1000
0001
0000
0001
1000
0000
,
0110
0000
0101
0001
0000
1001
0000
1000
,
0001
0000
0001
1000
0000
1000
0001
0000
,
0110
0000
0110
0010
0000
0110
0000
0110
,
0000
0100
0010
0000
0100
0010
0000
0100
,
0010
0000
1001
1000
0000
1001
0000
1001
,
0000
0001
1000
0000
1000
0001
0000
0001
,
1000
0110
0000
1000
0000
1100
0000
1000
,
0000
1100
0000
0001
0000
0011
0000
0001
,
0000
0011
0000
0100
0000
0101
0000
0100
,
0000
1100
0000
0010
0000
0011
0000
0010
,
0000
1010
0000
0100
0000
1001
0000
0100
,
0000
1001
0000
0010
0000
1001
0000
0010
,
0000
1001
0000
0001
0000
0110
0000
1000
,
0000
0110
0000
0001
0000
0110
0000
1000
,
0000
0110
0000
0011
0000
1010
0000
0100
,
0000
0110
0000
1010
0000
0011
0000
0100
,
0000
0110
0000
0101
0000
1100
0000
0010
,
0000
0110
0000
1100
0000
0101
0000
0010
,
0000
0110
0000
1010
0000
1010
0000
0101
,
0000
0110
0000
0101
0000
0101
0000
1100
,
0000
0110
0000
1010
0000
1010
0000
0011
,
0000
0110
0000
0001
0010
0001
1000
0100
,
1000
0001
0010
0000
0000
0120
0000
0100
,
0130
0000
0001
0000
0000
0210
0000
0010
,
0310
0000
0100
0000
0000
2001
0000
0001
,
3001
0000
1000
0000
0000
1002
0000
1000
,
1003
0000
0010
0000
0000
0210
0000
0010
,
0310
0000
0100
0000
0000
0120
0000
0100
,
0130
0000
1000
0000
0000
2002
0003
0001
,
3001
0000
0001
0000
0000
2002
3000
1000
,
1003
0000
0110
0000
0000
0101
0000
0000
,
1100
0000
0110
0000
0000
1010
0000
0000
,
0011
0000
1100
0000
0000
1010
0000
0000
,
1001
0000
0011
0000
0000
0101
0000
0000
,
1001
0000
0110
0000
0000
1001
0000
0000
,
0110
0000
1001
0000
0000
0110
0000
0000
,
1001
0000
1000
0001
1000
0000
0001
1000
,
0001
0000
0100
0010
0100
0010
0100
1001
,
0110
0110
0110
0110
,
1001
1001
1001
1001
,
0110
0110
0110
0110
,
1001
1001
1001
1001
,
0010
0100
0010
0000
0100
0000
0100
0000
,
0100
0010
0100
0000
0010
0000
0010
0000
,
0001
1000
0001
0000
1000
0001
1000
0000
,
0001
0100
1000
0100
0001
0100
1000
0100
,
0010
0000
0010
0000
0010
1000
0010
0000
,
0100
0000
0100
0000
0100
0001
0100
0000
,
1000
0000
1000
0000
1000
0010
1000
0000
,
0001
0000
0001
0000
0001
0100
0001
0000
,
1000
0001
1000
0000
1001
0000
1001
0000
,
0001
1000
0001
0000
1001
0000
1001
0000
,
1000
0010
1000
0000
1001
0000
1001
0000
,
0001
0100
0001
0000
1001
0000
1001
0000
,
1000
0100
1000
0100
1000
0100
1000
0100
,
1000
0100
1000
0100
1000
0100
1000
0000
,
0001
0010
0001
0010
0001
0010
0001
0010
,
0001
0010
0001
0010
0001
0010
0001
0000
,
1000
0100
0010
0100
1000
0100
0010
0100
,
1000
0001
0010
0001
1000
0001
0010
0001
,
0100
0010
0001
0010
0100
0010
1000
0001
,
0100
0010
1000
0000
0010
1000
0010
0000
,
0001
1000
0002
0000
0013
0100
0020
0000
,
0130
0010
0200
0000
0310
1000
0010
0000
,
1000
0100
1000
0000
0100
0001
0100
0000
,
0001
0010
0001
0000
0010
0000
1001
0000
,
0010
0100
0010
0100
0010
0100
0010
0100
,
0001
1000
0001
1000
0001
1000
0010
0100
,
0001
1000
0000
0001
1000
0000
0001
1000
,
0000
0001
1000
0100
0010
0000
0101
0000
,
2020
0000
0000
3030
;
