#TITLE:Grasslands;
#SUBTITLE:;
#ARTIST:Kirby 64;
#TITLETRANSLIT:;
#SUBTITLETRANSLIT:;
#ARTISTTRANSLIT:;
#CREDIT:;
#BANNER:grasslands-banner.png;
#BACKGROUND:grasslands-bg.png;
#LYRICSPATH:;
#CDTITLE:!fsTitle.png;
#MUSIC:Grasslands.mp3;
#OFFSET:-0.731;
#SAMPLESTART:44.321;
#SAMPLELENGTH:11.980;
#SELECTABLE:YES;
#BPMS:0.000=169.888;
#STOPS:208.000=0.120
;
#BGCHANGES:;
// cache tags:
#FIRSTBEAT:3.000;
#LASTBEAT:241.625;
#SONGFILENAME:Songs/Bemani.se Megapack/(fsFreak) Grasslands/steps.sm;
#HASMUSIC:1;
#HASBANNER:1;
#MUSICLENGTH:92.055;
// end cache tags

//---------------dance-single - fsFreak----------------
#NOTES:
     dance-single:
     fsFreak:
     Hard:
     10:
     0.900,1.000,0.250,0.521,0.652,509.000,23.000,48.000,0.000,0.000:
0000
0000
0000
0000
0000
0000
1000
0001
,
0010
0000
0100
0000
1000
0000
0001
0000
0010
0100
0010
0000
0001
0000
1000
0000
,
0010
0000
0100
0000
0001
0000
0011
0000
0110
0000
0010
0001
1000
0000
0010
0000
,
0100
0000
0001
0000
0010
0000
0100
0000
1000
0100
1000
0000
0001
0000
0100
0000
,
0001
0000
0010
0000
0100
0000
1000
0001
1000
0000
0010
0100
0002
0000
0003
1000
,
0100
0000
1000
0000
0001
0000
0010
0000
0200
0000
0300
0000
1000
0000
0000
0001
,
0010
0000
0100
0000
1000
0000
0001
0000
0010
0000
0000
0000
0001
1000
0000
0010
,
1000
0000
0001
0000
1000
0000
0100
0000
0010
0000
0001
0000
1000
0000
1000
0001
,
1000
0000
0000
0000
0000
0000
0001
0000
0000
1000
0000
0000
0001
0000
0000
0000
0000
0000
1000
0000
0000
0000
0000
0000
1000
0000
0000
0000
0000
0000
0010
0000
0100
0000
0001
0000
1000
0000
0000
0000
0000
0000
1000
0000
0000
0000
0000
0000
,
0100
0000
0010
0000
0001
0000
0010
0000
0001
1000
0100
0000
1000
0000
0100
0000
,
1000
0000
0000
0010
0000
0000
0100
0000
0000
0110
0000
0000
1100
0000
0000
1000
0001
1000
0100
0000
0000
1000
0000
0000
,
0001
0000
0010
0000
0100
0000
1000
0000
0100
0010
0001
0000
1000
0000
0001
0000
,
0010
0000
0000
0000
0000
0000
0100
0000
0000
0000
0000
0000
1000
0000
0000
0000
0000
0000
0100
0000
0000
1000
0000
0000
0001
0000
0000
0000
0000
0000
0100
0000
0010
0000
0100
0000
0020
0000
0000
0000
0030
0000
0000
0000
0000
1000
0000
0000
,
0100
0000
0010
0000
0001
0000
1000
0000
2000
0000
3000
0000
0100
0010
0000
0010
,
0001
0000
1000
0000
0001
0000
1000
0000
0002
0000
0003
0000
1000
0001
0000
1000
,
0100
0000
1000
0000
0001
0000
0001
0000
0010
0000
0100
0000
1000
0100
0000
1000
,
0100
0000
0000
1000
0000
0000
0000
0000
0000
0100
0000
0000
2000
0000
0000
0000
0000
0000
3000
0000
0000
0000
0000
0000
0000
0000
0000
0000
0000
0000
1000
0000
0100
0000
0010
0000
0001
0000
0000
0000
0000
0000
0000
0000
0000
0001
0000
0000
,
1000
0010
0100
0010
0100
0010
1000
0001
,
0000
0000
0000
0000
0000
0000
0001
0000
0000
0000
0000
0000
1000
0000
0001
0000
1000
0000
0000
0000
0000
0000
0000
0000
0000
0000
0000
0000
0000
0000
0100
0000
0000
0010
0000
0000
0100
0000
0000
0000
0000
0000
0000
0000
0000
1000
0000
0000
,
0010
1000
0001
0010
0100
0010
0100
1000
,
0000
0000
0000
0000
0000
0000
1000
0000
0000
0000
0000
0000
1000
0000
0000
0001
0000
0000
1000
0000
0000
0001
0000
0000
1000
0000
0000
0000
0000
0000
0001
0000
0010
0000
0100
0000
1000
0000
0000
0000
0000
0000
0000
0000
0000
0001
0000
0000
,
1000
0100
0010
0100
1000
0001
0010
0100
,
1000
0000
0000
0000
0000
0000
0010
0000
0000
0000
0000
0000
0100
0000
0000
0000
0000
0000
0001
0000
1000
0000
0100
0000
1000
0000
0000
0000
0000
0000
0010
0000
0000
0100
0000
0000
0020
0000
0000
0030
0000
0000
0000
0000
0000
0100
0000
0000
,
0001
0000
1000
0001
1000
0000
0001
0000
0001
0000
0100
0010
0200
0000
0000
0000
,
0300
0000
0000
0000
0000
0000
0001
0000
0000
1000
0000
0000
0001
0000
0000
0000
0000
0000
1000
0000
0000
0000
0000
0000
0100
0000
0000
0000
0000
0000
0010
0000
0001
0000
0010
0000
0001
0000
0000
0000
0000
0000
1000
0000
0000
0000
0000
0000
,
0001
0000
1000
0000
0010
0000
0100
0000
0001
1000
0100
0000
1000
0000
0001
0000
,
0010
0000
0000
0100
0000
0000
0100
0000
0000
1000
0000
0000
1000
0000
0000
0100
0010
0100
0010
0000
0000
0001
0000
0000
,
0010
0000
0100
0000
1000
0000
0100
0000
1000
0100
1000
0000
0001
0000
0100
0000
,
0010
0000
1000
0000
0001
0000
1000
0001
0100
0000
0001
1000
0100
0000
0000
0100
,
1000
0000
0001
0000
1000
0000
0100
0000
0010
0000
0000
0000
0002
0000
0003
1000
,
0100
0000
1000
0000
0100
0000
0010
0000
0200
0000
0300
0000
1000
1000
0000
1000
,
0001
0000
0010
0000
0100
0000
1000
0000
0001
0000
0100
0000
0100
0000
0100
0010
,
0100
0000
0000
0000
0000
0000
0100
0000
0000
0010
0000
0000
0100
0000
0000
0000
0000
0000
0100
0000
0000
0000
0000
0000
0100
0000
0000
0000
0000
0000
0001
0000
1000
0000
0001
0000
0100
0000
0000
0000
0000
0000
0100
0000
0000
0000
0000
0000
,
0100
0000
0100
0000
0100
0000
0100
0000
0100
0001
0001
0000
1000
0000
1000
0000
,
0010
0000
0000
0010
0000
0000
0100
0000
0000
0110
0000
0000
1010
0000
0000
0100
0001
0100
0001
0000
0000
0001
0000
0000
,
0001
0000
0001
0000
0001
0000
0001
0000
0001
1000
0001
0000
0001
0000
0001
0000
,
0001
0000
0001
0000
0002
0003
1000
0001
1000
0000
0100
0010
0200
0300
0000
1000
,
1000
0000
1000
0000
1000
0000
1000
0000
1000
0000
0000
0000
0001
0001
0000
0001
,
0001
0000
1000
0000
1000
0000
1000
0000
2000
0000
3000
0000
0010
0010
0000
0010
,
0010
0000
0010
0000
0010
0000
0010
0000
0100
0000
0100
0000
0010
0100
0000
0010
,
0100
0000
0000
0010
0000
0000
0000
0000
0000
0100
0000
0000
0010
0000
0000
0000
0000
0000
0000
0000
0000
0000
0000
0000
0000
0000
0000
0000
0000
0000
1000
0000
0001
0000
1000
0000
0001
0000
0000
0000
0000
0000
0000
0000
0000
0100
0000
0000
,
0010
0000
1000
0000
0002
0000
0000
0000
0003
0000
1000
0001
1000
0000
1000
0000
,
0001
0000
0000
1000
0000
0000
0002
0000
0000
0000
0000
0000
0003
0000
0000
1000
0001
1000
0001
0000
0000
1000
0000
0000
,
0001
1000
0010
0100
0010
0100
0001
1000
,
0001
0000
0000
0000
0000
0000
1000
0000
0001
0000
1000
0000
0002
0000
0000
0000
0000
0000
0000
0000
0000
0000
0000
0000
0003
0000
0000
0000
0000
0000
1000
0000
0100
0000
0010
0000
0001
0000
0000
0000
0000
0000
0000
0000
0000
0100
0000
0000
,
0010
0000
0100
0000
0002
0000
0000
0000
0003
0000
1000
0100
1000
0000
0001
0000
,
1000
0001
1000
0100
0000
0000
2000
0000
0000
0000
0000
0000
3000
0000
0000
0001
0010
0100
1000
0000
0000
1000
0000
0000
,
0001
0001
1000
1000
0010
0010
0100
0100
,
0100
0000
0010
0000
0100
0000
0010
0000
0000
0000
0000
0000
0200
0000
0000
0000
0000
0000
0000
0000
0000
0000
0000
0000
0300
0000
0000
0000
0000
0000
0001
0000
1000
0000
0100
0000
0010
0000
0000
0000
0000
0000
0000
0000
0000
0010
0000
0000
,
0100
0000
1000
0000
0200
0000
0000
0000
0300
0000
1000
0001
1000
0000
1000
0000
,
0001
0000
1000
0000
0010
0000
0100
0000
0000
0000
0000
0000
0010
0000
0000
0000
0000
0000
0100
0000
0000
0000
0000
0000
0010
0000
0000
0000
0000
0000
1000
0000
0000
0001
0000
0000
0010
0000
0000
0000
0000
0000
0000
0000
0000
0001
0000
0000
,
0010
0000
0001
0000
0200
0000
0000
0000
0300
0000
0010
1000
0001
0000
1000
0000
,
0001
0000
1000
0000
1000
0000
1000
0000
1000
0000
1000
0000
0000
1000
0001
0000
,
1000
0000
0010
0000
0100
0000
0210
0000
0300
0000
0100
0000
0000
0010
1000
0000
,
0001
0000
1000
0000
0001
0000
1000
0000
0100
0000
2100
0000
0000
0000
0000
3000
,
0000
0001
2000
0000
0000
0000
0000
0000
3000
0000
2002
0000
0000
3003
0000
0000
,
0000
1000
1010
0000
0000
0000
0000
0000
0100
0001
1002
0000
0000
0000
0000
0003
,
0000
0100
0201
0000
0000
0000
0000
0000
0300
0000
0120
0000
0000
0000
0030
0000
,
0000
0000
1000
0000
2100
0000
0000
0000
0000
0000
0000
0000
3000
0000
0000
0000
0100
0000
0001
0000
2002
3003
0000
0000
0000
0000
1000
0000
2200
3300
0000
0000
,
0000
0000
0100
0000
0220
0330
0000
0000
0000
0000
0010
0000
0022
0033
0000
0000
0000
0000
0001
0000
0202
0303
0000
0000
0000
0000
0100
0000
0220
0330
0000
0000
,
0000
0000
0100
0000
0220
0330
0000
0000
0202
0303
0000
0000
2002
3003
0000
0000
0000
0000
0000
0000
0000
0000
0000
0000
0000
0000
0000
0000
0000
0000
0000
0000
;
