#TITLE:Strangeprogram;
#SUBTITLE:;
#ARTIST:DJ Sharpnel;
#TITLETRANSLIT:;
#SUBTITLETRANSLIT:;
#ARTISTTRANSLIT:;
#CREDIT:;
#BANNER:Banner.jpg;
#BACKGROUND:Background.jpg;
#LYRICSPATH:;
#CDTITLE:cdtitle.jpg;
#MUSIC:Strangeprogram.mp3;
#OFFSET:-3.890;
#SAMPLESTART:61.689;
#SAMPLELENGTH:12.000;
#SELECTABLE:YES;
#BPMS:0.000=215.000;
#STOPS:64.000=3.320
;
#BGCHANGES:;
// cache tags:
#FIRSTBEAT:0.000;
#LASTBEAT:423.000;
#SONGFILENAME:Songs/toune 2/Strangeprogam/Strangeprogram.sm;
#HASMUSIC:1;
#HASBANNER:1;
#MUSICLENGTH:126.720;
// end cache tags

//---------------dance-single - ----------------
#NOTES:
     dance-single:
     :
     Hard:
     9:
     0.847,0.709,0.347,0.039,0.205,702.000,44.000,5.000,0.000,0.000:
1010
0000
1000
0010
0000
0010
0100
0000
,
0110
0000
0100
0001
0000
0001
1000
0000
,
1100
0000
0100
1000
0000
1000
0001
0000
,
0011
0000
0010
0100
0000
0100
1000
0000
,
1001
0000
0001
1000
0000
1000
0100
0000
,
0110
0000
0010
0001
0000
0001
0100
0000
,
0101
0000
0100
0010
0000
0010
1000
0000
,
0010
0100
0010
0100
0010
0100
0010
0100
,
0001
0010
0100
1000
0010
0100
0010
0000
,
0100
0001
0010
0100
1000
0001
1000
0000
,
0001
1000
0100
0010
0001
0100
0010
0000
,
0100
0010
1000
0001
1000
0010
0100
0000
,
0001
1000
0100
1000
0001
0010
0100
0000
,
0010
0001
1000
0010
1000
0001
0100
0000
,
0001
0010
0100
1000
0001
0100
0010
0000
,
0100
0010
0100
0010
0100
0010
0100
0010
,
0110
0000
0000
0000
,
0001
0010
0100
1000
0001
0100
0010
1000
,
0010
0100
0010
1000
0100
0010
0100
1000
,
0001
0010
0001
1000
0001
1000
0010
1000
,
0100
0010
0001
0100
0010
0100
0001
0001
,
1000
0100
1000
0001
0010
0100
0010
0001
,
0100
0010
1000
0100
0010
0001
1000
0001
,
0010
0100
1000
0001
1000
0100
0010
0001
,
0100
0010
0100
0010
0100
0010
0100
0010
,
1000
0100
0001
0100
1000
0100
0010
0100
,
0001
0100
0010
0100
0001
0100
0001
0100
,
1000
0010
0100
0010
1000
0010
0001
0010
,
0001
0010
0100
0010
1000
0010
1000
1000
,
0001
0100
1000
0100
1000
0100
0000
0100
,
0001
0010
0100
0010
0000
0010
0100
0000
,
0100
1000
0000
1000
0001
0000
0001
0010
,
0000
0010
0100
0000
0100
0000
1100
0000
,
1000
0100
0000
0000
0100
0010
0000
0000
0010
0001
0000
0000
0001
0100
0000
0000
,
0100
0010
0000
0000
0010
1000
0000
0000
1000
0001
0000
0000
0001
0100
0000
0000
,
0100
0010
0000
0000
0010
0100
0000
0000
0100
0001
0000
0000
0001
0010
0000
0000
,
0010
0100
0000
0000
0100
1000
0000
0000
1000
0010
0000
0000
0001
0000
0010
0000
,
1000
0100
0000
0000
0100
0010
0000
0000
0010
0001
0000
0000
0001
0100
0000
0000
,
0100
0001
0000
0000
0001
1000
0000
0000
1000
0010
0000
0000
0010
0100
0000
0000
,
0100
0001
0000
0000
0001
0010
0000
0000
0010
0100
0000
0000
0100
1000
0000
0000
,
1000
0001
0000
0000
0001
1000
0000
0000
0010
0000
0001
0000
0010
0000
1000
0000
,
0100
0010
0000
0000
0010
0001
0000
0000
0001
1000
0000
0000
1000
0001
0000
0000
,
0001
0100
0000
0000
0100
0010
0000
0000
0010
1000
0000
0000
1000
0010
0000
0000
,
0010
0100
0000
0000
0100
0001
0000
0000
0001
0010
0000
0000
0010
0001
0000
0000
,
0001
1000
0000
0000
1000
0010
0000
0000
0010
0100
0000
0000
0100
0000
0001
0000
,
1000
0010
1000
0100
1000
0001
1000
0010
,
1000
0100
1000
0001
1000
0100
1000
0001
,
0100
0010
0100
1000
0100
0010
0100
0001
,
0100
0010
0000
0010
2000
0000
3001
0010
,
0110
0000
1100
0000
1001
0000
1000
0010
,
0000
0010
1000
0100
0001
0100
0000
0100
,
1100
0000
1010
0000
1001
0000
0100
0001
,
0000
0001
0100
1000
0100
0010
1000
0001
,
0101
0000
1010
0000
0110
0000
0100
1000
,
0000
1000
0100
0001
0000
1000
0100
0001
,
0000
0001
0100
1000
0000
0001
0010
0100
,
0000
0100
1000
0000
0000
1000
0010
0100
,
1010
0000
0110
0000
0101
0000
0001
1000
,
0000
1000
0100
0001
0100
1000
0010
0100
,
0110
0000
1001
0000
0110
0000
0010
0100
,
0000
1000
0100
0001
0010
0100
1000
0100
,
1100
0000
0110
0000
0011
0000
0001
0100
,
0000
1000
0100
0001
0000
1000
0100
0001
,
0000
1000
0010
0001
0000
0001
0010
0100
,
0000
1000
2002
0000
0000
0000
3003
0000
,
1000
0000
0000
0100
1000
0000
0010
0000
0100
0000
0000
0001
0100
0000
0001
0000
,
1000
0100
0010
0001
0010
0100
1000
0001
,
1000
0000
0000
0010
0100
0000
0010
0000
1000
0000
0000
0001
0010
0000
0001
0000
,
1000
0010
0100
0001
0010
0100
1000
0001
,
1000
0000
0000
0001
0010
0000
0100
0000
0010
0000
0000
0100
1000
0000
0010
0000
,
0100
0001
0010
0001
0100
0010
1000
0001
,
0100
0000
0000
0010
0100
0000
0001
0000
0010
0000
0000
0010
0100
0000
1000
0000
,
0010
0100
0000
0100
0000
0100
0000
0100
,
0001
0000
0101
0000
0000
0001
0010
0100
,
1000
0000
1010
0000
0000
1000
0100
0010
,
0001
0000
0011
0000
0000
0001
0100
0010
,
1000
0000
1010
0000
0000
1000
0010
0100
,
0001
0000
1001
0000
0000
0010
1000
0100
,
0010
0000
1001
0000
0000
0010
0001
0100
,
0010
0000
1010
0000
0000
0100
0001
0010
,
0001
0000
0110
0000
0000
0001
1000
0010
,
0100
0000
0110
0000
0000
0010
0100
0010
,
1000
0000
0011
0000
0000
1000
0001
0010
,
0001
0000
1010
0000
0000
0100
0010
1000
,
0001
0000
1001
0000
0000
0001
1000
0001
,
0010
0000
1100
0000
0000
0100
1000
0010
,
1000
0000
0101
0000
0000
0010
1000
0001
,
1000
0000
1100
0000
0000
1000
0001
0010
,
0100
0010
0000
0010
0000
0010
0000
0010
,
0001
1000
0001
0010
0100
0010
0001
1000
,
0100
0010
0100
1000
0001
0100
0001
1000
,
0010
1000
0100
1000
0010
0100
0010
1000
,
0001
0010
0001
1000
0100
0010
0001
0100
,
0010
0100
0001
0010
0100
1000
0010
0100
,
0001
1000
0001
0010
0100
1000
0010
1000
,
0001
1000
0100
0010
0100
1000
0001
0010
,
0001
0100
0010
0100
0010
1000
0001
0100
,
0001
0010
0001
0100
0010
0100
0010
1000
,
0100
1000
0001
0010
0100
1000
0001
0010
,
0001
1000
0100
0010
0100
1000
0001
1000
,
0001
0010
0001
1000
0100
1000
0100
0010
,
0001
0100
0010
0100
0001
1000
0001
0100
,
0001
1000
0100
0010
0001
0100
0010
1000
,
0001
0100
1000
0100
0001
0100
1000
0100
,
0001
0100
0000
0100
0000
0100
0010
0100
,
2002
0000
0000
3003
;

//---------------dance-single - ----------------
#NOTES:
     dance-single:
     :
     Medium:
     8:
     0.657,0.751,0.813,0.055,0.000,473.000,103.000,7.000,0.000,0.000:
1100
0000
0000
0100
0000
0000
0010
0000
,
0011
0000
0000
0001
0000
0000
1000
0000
,
1010
0000
0000
0010
0000
0000
0100
0000
,
0101
0000
0000
0001
0000
0000
0010
0000
,
1001
0000
0000
0010
0000
0000
0100
0000
,
0110
0000
0000
0100
0000
0000
0001
0000
,
0101
0000
0000
0010
0000
0000
0001
0000
,
0011
0010
0010
0010
,
0110
0000
0010
0100
0000
0100
1000
0000
,
1010
0000
1000
0010
0000
0010
0100
0000
,
0110
0000
0100
0001
0000
0001
1000
0000
,
1001
0000
1000
0100
0000
0100
0010
0000
,
0011
0000
0001
0100
0000
0100
0010
0000
,
0110
0000
0010
1000
0000
1000
0001
0000
,
0011
0000
0001
0010
0000
0010
0100
0000
,
0010
0010
0010
0010
,
0110
0000
0000
0000
,
0021
0100
0001
0100
,
1000
1000
0100
0100
,
0001
0100
1000
0100
,
1000
0000
0100
0000
0001
0000
0031
0100
,
1020
0100
1000
0100
,
0100
0001
0100
0001
,
0001
0100
1000
1030
,
0010
0010
0010
0010
,
0010
1000
0010
0100
0010
1000
0010
0000
,
0100
0001
0100
0010
0100
0001
0100
0000
,
0001
0010
0100
0010
0001
0010
0100
0000
,
1000
0100
0010
0100
1000
0100
0010
0001
,
1000
0001
1000
0001
1000
0000
0000
0001
,
1000
0000
0001
1000
0001
0000
0010
0000
,
0010
0100
0000
0100
1000
0000
1000
0001
,
0000
0001
2000
0000
0000
0000
3001
0000
,
1001
0101
1001
1100
,
1001
0011
1001
1010
,
0110
1010
0110
0101
,
0110
0000
1010
0000
0110
0000
0100
0010
,
0110
0101
0110
1010
,
1100
0110
0011
0110
,
1100
1001
0110
1001
,
0110
0000
1001
0000
1000
0100
0010
0001
,
1001
1100
0101
0110
,
1001
0101
1100
0110
,
1001
1010
0011
0110
,
1001
0011
1010
0110
,
1000
0100
0001
0010
,
1000
0100
0001
0010
,
1000
0100
0001
0010
,
1000
0001
0000
0001
2000
0000
3001
0010
,
0001
0000
1000
0000
1001
0000
1000
0100
,
0000
0100
0010
0001
0100
0010
0000
1000
,
0001
0000
0010
0000
0101
0000
0100
0010
,
0000
0010
1000
0100
0010
0001
0000
0001
,
1000
0000
0010
0000
0110
0000
0010
1000
,
0000
1000
0001
1000
0000
0001
1000
0001
,
0000
1000
0001
1000
0000
0001
1000
0001
,
0000
1000
0001
0000
0000
1000
0010
0100
,
0001
0000
0010
0000
1001
0000
0010
1000
,
0000
1000
0001
0010
0100
1000
0000
1000
,
0001
0000
1000
0000
1010
0000
0100
0001
,
0000
0001
0010
0100
1000
0000
0000
0001
,
0010
0000
1000
0000
0110
0000
0001
0100
,
0000
0010
0100
0010
0000
0100
0010
0100
,
0000
0010
0100
0010
0000
0100
0010
0100
,
0000
0100
0002
0000
0000
0000
0003
0000
,
1000
0000
0000
1100
0000
0000
0010
0000
,
0001
0100
0010
1000
,
0001
0000
0000
0011
0000
0000
0010
0000
,
0100
1000
0010
1000
,
0010
0000
0000
0110
0000
0000
0100
0000
,
0001
0010
0001
1000
,
0001
0000
0000
0101
0000
0000
0100
0000
,
0010
0100
0000
0100
0000
0100
0000
0100
,
0001
0000
1001
0000
0000
0001
1000
0000
,
0010
0000
1010
0000
0000
0010
1000
0000
,
0100
0000
0110
0000
0000
0100
0010
0000
,
0001
0000
0101
0000
0000
0001
0100
0000
,
0010
0000
1010
0000
0000
0010
1000
0000
,
0001
0000
1001
0000
0000
1000
0001
0000
,
0100
0000
1010
0000
0000
1000
0010
0000
,
0100
0000
0110
0000
0000
0001
1000
0000
,
0010
0000
1001
0000
0000
0100
0001
0000
,
0100
0000
1010
0000
0000
1000
0001
0000
,
0010
0000
0011
0000
0000
0001
0010
0000
,
0100
0000
1100
0000
0000
1000
0001
0000
,
0010
0000
1001
0000
0000
0100
0001
0000
,
1000
0000
1100
0000
0000
1000
0100
0000
,
0010
0000
0110
0000
0000
0100
1000
0000
,
0001
0010
0000
0010
0000
0010
0000
0010
,
0001
0000
0101
0000
0000
0001
0010
0100
,
1000
0000
1010
0000
0000
1000
0100
0010
,
0001
0000
0011
0000
0000
0001
0100
0010
,
1000
0000
1010
0000
0000
1000
0010
0100
,
0001
0000
0101
0000
0000
0100
0010
1000
,
0100
0000
0110
0000
0000
0010
0001
0100
,
0010
0000
0110
0000
0000
0010
1000
0001
,
0010
0000
1100
0000
0000
0100
1000
0010
,
1000
0000
0101
0000
0000
0100
0001
0010
,
0001
0000
0011
0000
0000
0001
0100
0010
,
1000
0000
1001
0000
0000
1000
0001
0010
,
0001
0000
0101
0000
0000
0010
0100
0001
,
0010
0000
0110
0000
0000
0100
1000
0100
,
0010
0000
0011
0000
0000
0001
0100
0010
,
1000
1000
0001
0001
,
1000
1000
0001
0001
,
2002
0000
0000
3003
;

//---------------dance-single - ----------------
#NOTES:
     dance-single:
     :
     Easy:
     6:
     0.462,0.459,0.268,0.110,0.000,362.000,34.000,14.000,0.000,0.000:
1000
0000
0000
1000
0000
0000
1000
0000
,
0100
0000
0000
0100
0000
0000
0100
0000
,
0010
0000
0000
0010
0000
0000
0010
0000
,
0001
0000
0000
0001
0000
0000
0001
0000
,
1000
0000
0000
1000
0000
0000
1000
0000
,
0010
0000
0000
0010
0000
0000
0010
0000
,
0100
0000
0000
0100
0000
0000
0100
0000
,
0001
0001
0001
0001
,
1001
0000
0000
0001
0000
0000
0100
0000
,
0110
0000
0000
0010
0000
0000
1000
0000
,
1100
0000
0000
0001
0000
0000
1000
0000
,
1010
0000
0000
0010
0000
0000
0100
0000
,
0101
0000
0000
0001
0000
0000
0010
0000
,
0011
0000
0000
0001
0000
0000
1000
0000
,
1010
0000
0000
0010
0000
0000
1000
0000
,
0010
0010
0010
0010
,
0110
0000
0000
0000
,
1000
0100
0001
0100
,
1000
0010
0001
0010
,
1000
0100
0001
0100
,
1000
0000
0010
0000
0001
0000
0010
1000
,
0001
0100
1000
0100
,
0001
0010
1000
0010
,
0001
0100
1000
0100
,
0001
0001
0001
0001
,
0010
0100
0010
0110
,
0100
1000
0100
1100
,
1000
0010
1000
1010
,
0100
0010
0100
0110
,
0001
0000
0001
0000
0001
0000
0000
0001
,
0000
0001
0001
1000
,
0000
1000
0000
0000
1000
0000
0000
0001
,
0000
0001
1000
0000
0000
0000
1001
0000
,
1000
1000
2000
3001
,
0001
0001
0002
1003
,
0010
0010
0020
0130
,
0100
0100
0200
0310
,
1000
0100
2000
3010
,
0100
0001
0200
0310
,
1000
0001
0020
0031
,
0100
0001
2000
3010
,
0100
0001
2000
3001
,
0010
0100
2000
3001
,
1000
0010
0100
0002
,
1003
0010
1000
0200
,
1300
0000
1000
0000
,
0001
0000
0001
0000
,
0010
0000
0010
0000
,
0001
0000
0000
0001
0010
0000
0000
0000
,
0001
0000
1000
0000
1001
0000
0000
0100
,
0000
0010
0100
0000
,
1000
0000
0010
0000
0110
0000
0000
0100
,
0000
0001
0001
0000
,
0010
0000
0100
0000
1100
0000
0000
0001
,
0000
0001
0000
1000
0000
1000
0000
0010
,
0000
0010
0000
0100
0000
0100
0000
0001
,
0000
0001
1000
0000
0000
0000
0000
0000
,
0001
0000
1000
0000
0101
0000
0000
1000
,
0000
0010
0010
0000
,
0100
0000
0001
0000
1010
0000
0000
1000
,
0000
0001
0010
0000
,
0100
0000
1000
0000
1001
0000
0000
0100
,
0000
0100
0000
0010
0000
0010
0000
0100
,
0000
0100
0000
1000
0000
1000
0000
0001
,
0000
0001
1000
0000
0000
0000
0000
0000
,
1000
0000
0000
1000
0000
0000
1000
0000
,
0001
0100
1000
0100
,
0001
0000
0000
0001
0000
0000
0001
0000
,
1000
0010
0001
0010
,
0100
0000
0000
0100
0000
0000
0100
0000
,
1000
0100
0001
0100
,
0010
0000
0000
0010
0000
0000
0010
0000
,
0010
0100
0000
0100
0000
0100
0000
0100
,
0001
0000
1000
0000
0000
1000
0000
0000
,
0010
0000
0100
0000
0000
0100
0000
0000
,
0001
0000
0010
0000
0000
0010
0000
0000
,
0100
0000
1000
0000
0000
1000
0000
0000
,
0001
0000
1000
0000
0000
1000
0000
0000
,
0010
0000
0100
0000
0000
0100
0000
0000
,
0001
0000
0010
0000
0000
0010
0000
0000
,
0001
0000
1000
0000
0000
1000
0000
0000
,
0001
0000
0010
0000
0000
0010
0000
0000
,
0100
0000
0010
0000
0000
0010
0000
0000
,
0001
0000
0100
0000
0000
0100
0000
0000
,
0010
0000
1000
0000
0000
1000
0000
0000
,
0100
0000
0010
0000
0000
0010
0000
0000
,
0010
0000
0100
0000
0000
0100
0000
0000
,
1000
0000
0010
0000
0000
0010
0000
0000
,
0010
1000
0000
1000
0000
1000
0000
1000
,
0001
0000
1001
0000
0000
0001
1000
0000
,
0010
0000
1010
0000
0000
1000
0100
0000
,
0010
0000
0011
0000
0000
0001
0100
0000
,
0010
0000
0110
0000
0000
0100
0001
0000
,
1000
0000
0101
0000
0000
0010
0100
0000
,
0010
0000
1001
0000
0000
0010
0100
0000
,
0001
0000
0110
0000
0000
0010
1000
0000
,
0001
0000
1100
0000
0000
1000
0001
0000
,
1000
0000
1001
0000
0000
0010
0100
0000
,
0010
0000
0011
0000
0000
0001
1000
0000
,
0010
0000
1010
0000
0000
0100
0010
0000
,
0001
0000
1100
0000
0000
0100
0010
0000
,
0001
0000
1001
0000
0000
1000
0001
0000
,
0100
0000
0110
0000
0000
0100
0010
0000
,
1000
0000
0001
0000
,
0010
0000
0100
0000
,
2002
0000
0000
3003
;
