#TITLE:Sunshine;
#SUBTITLE:;
#ARTIST:Triple J;
#TITLETRANSLIT:;
#SUBTITLETRANSLIT:;
#ARTISTTRANSLIT:;
#CREDIT:;
#BANNER:Sunshine-banner.png;
#BACKGROUND:Sunshine-bg.png;
#LYRICSPATH:;
#CDTITLE:;
#MUSIC:music.ogg;
#OFFSET:0.004;
#SAMPLESTART:45.100;
#SAMPLELENGTH:11.920;
#SELECTABLE:YES;
#BPMS:0.000=170.103;
#STOPS:237.500=0.705
;
#BGCHANGES:-10000.000=songbackground=1.000=0=0=1,
0.000=Sunshine-bg.png=1.000=0=0=1,
16.000=In The Groove 2/930_JumpBack.mpg=1.000=0=0=1,
32.000=In The Groove 2/906_JumpBack.mpg=1.400=0=0=1,
64.000=In The Groove 2/931_JumpBack.mpg=1.000=0=0=1,
96.000=In The Groove 2/604_JumpBack.mpg=1.000=0=0=1,
128.000=In The Groove 2/931_JumpBack.mpg=1.000=0=0=1,
192.000=In The Groove 2/747_JumpBack.mpg=1.000=0=0=1,
208.000=In The Groove 2/453_JumpBack.mpg=1.000=0=0=1,
238.000=In The Groove 2/961_JumpBack.mpg=1.000=0=0=1,
270.000=In The Groove 2/747_JumpBack.mpg=1.000=0=0=1,
286.000=Sunshine-bg.png=1.000=0=0=1,
99999=-nosongbg-=1.000=0=0=0 // don't automatically add -songbackground-
;
// cache tags:
#FIRSTBEAT:15.500;
#LASTBEAT:287.000;
#SONGFILENAME:Songs/In The Groove 2 (Official)/Sunshine/Sunshine.sm;
#HASMUSIC:1;
#HASBANNER:1;
#MUSICLENGTH:104.407;
// end cache tags

//---------------dance-single - R. McKanna----------------
#NOTES:
     dance-single:
     R. McKanna:
     Hard:
     7:
     0.539,0.618,0.306,0.096,0.115,352.000,32.000,10.000,6.000,0.000:

0000
0000
0000
0000
,
0000
0000
0000
0000
,
0000
0000
0000
0000
,
0000
0000
0000
0000
,
1001
0000
0000
0000
,
0101
0000
0000
0000
,
1010
0000
0000
0000
0000
0000
0000
1000
,
0110
0000
0000
0000
,
0010
0000
0001
0000
0001
0000
0000
1000
0000
1000
0000
0000
0001
0000
0010
0000
,
0100
0000
1000
0000
1000
0000
0000
0001
0000
0001
0000
0000
1000
0000
0100
0000
,
0010
0000
0001
0000
0001
0000
0000
0010
0000
0010
0000
0000
0100
0000
1000
0000
,
0010
0000
0100
0000
0100
0000
0000
0100
0000
0100
0000
0000
0100
0000
0001
0000
,
0010
0000
0100
0000
0100
0000
0000
1000
0000
1000
0000
0000
0100
0000
0010
0000
,
0001
0000
0100
0000
0100
0000
0000
0001
0000
0001
0000
0000
0100
0000
0001
0000
,
0010
0000
0100
0000
0100
0000
0000
1000
0000
1000
0000
0000
0100
0000
0010
0000
,
0001
0000
1000
0000
1000
0000
0000
0100
0000
0100
0000
0000
0010
0000
0000
0000
,
1001
0000
1001
0000
0000
1000
0100
0010
,
0001
0100
1000
0100
0000
0001
0100
0000
,
0101
0000
0101
0000
0000
0001
0010
1000
,
0010
0100
1000
0010
0000
1000
0000
0000
,
1010
0000
1010
0000
0000
0010
1000
0100
,
0001
0100
1000
0010
0000
0100
0010
0000
,
0110
0110
0010
1000
,
2002
0000
0000
3003
,
0000
0000
0001
0000
0000
0000
0001
0000
0000
0000
0001
0000
0001
0000
0100
000M
,
0000
0000
0001
0000
0000
0000
0001
0000
0000
0000
0001
0000
0001
0000
0010
000M
,
0000
0001
0000
0001
0000
0001
0001
0100
,
000M
0100
0000
0100
0000
0100
0001
0010
,
0100
0000
1000
0000
0000
0000
1000
0000
0000
0000
1000
0000
1000
0000
0100
M000
,
0000
0000
1000
0000
0000
0000
1000
0000
0000
0000
1000
0000
1000
0000
0010
M000
,
0000
1000
0000
1000
0000
1000
1000
0100
,
M000
0100
0000
0100
0010
0001
0010
0100
,
0110
0000
0110
0000
0000
0010
0001
0010
,
1000
0010
0001
0100
0000
0001
1000
0000
,
1001
0000
1001
0000
0000
1000
0100
0001
,
0100
0010
0001
0100
0000
0100
0000
0000
,
0101
0000
0101
0000
0000
0001
0010
0100
,
0010
1000
0010
0100
0000
1000
0010
0000
,
1010
0000
1010
0000
0000
0000
0010
0001
,
0010
1000
0100
0010
0000
0000
0000
0000
,
0011
0000
0011
0000
0000
0001
0010
1000
,
0010
0100
0001
0100
0000
1000
0100
0000
,
1100
0000
1100
0000
0000
1000
0100
0010
,
0001
0100
1000
0100
0000
0001
0000
0000
,
1001
0000
1001
0000
0000
1000
0100
0001
,
0100
1000
0010
1000
0000
0100
0010
0000
,
0110
0110
0010
0001
,
2002
0000
0000
3003
,
0010
1000
0100
0002
0000
0003
0001
0000
,
0001
0100
1000
0010
0000
0000
0100
0000
,
0100
0001
0010
2000
0000
3000
1000
0010
,
0001
0010
0100
1000
0000
1000
1000
1000
,
1000
0010
0100
0001
1000
0010
0100
0001
,
1000
0010
0100
0001
0001
0100
0010
1000
,
0001
0010
0100
1000
0001
0010
0100
1000
,
0001
0010
1000
0010
0010
0001
1000
0001
,
1000
0100
0010
0001
1000
0100
0010
0001
,
1000
0100
0010
0001
0001
0010
0100
1000
,
0001
1000
0001
0000
1000
0001
1000
0000
0001
1000
0001
0000
1000
0001
1000
0000
,
0001
0010
0100
1000
0001
0000
0200
0000
,
0000
0000
0001
0000
0010
0000
0000
0001
,
0000
0300
0001
0000
2000
0000
0010
0000
,
0000
0000
0010
0000
0001
0000
0000
0010
,
0000
3001
0000
0000
0020
0000
0100
0000
,
0000
0000
0001
0000
0100
0000
0000
0001
,
0030
0100
1000
0020
,
0000
0100
0001
0100
,
0001
0000
0130
0000
0010
1000
0000
0001
,
0000
1000
1000
1000
0000
0001
0000
1000
,
0000
0001
0001
0001
0000
0010
0000
0100
,
0000
0010
0010
0010
0000
0100
0000
0010
,
0001
0100
0010
1000
1010
0000
1100
0000
;

//---------------dance-single - K. Ward----------------
#NOTES:
     dance-single:
     K. Ward:
     Medium:
     5:
     0.375,0.411,0.278,0.220,0.000,222.000,29.000,23.000,0.000,0.000:

0000
0000
0000
0000
,
0000
0000
0000
0000
,
0000
0000
0000
0000
,
0000
0000
0000
0000
,
1001
0000
0000
0000
,
0011
0000
0000
0000
,
1100
0000
0000
0000
0000
0000
0000
0010
,
0100
0000
0000
0000
,
0001
0000
0001
0000
1000
0010
0100
0000
,
0001
0000
1000
0000
0000
0100
1000
0000
,
0100
0000
0100
0000
0010
0100
0010
0000
,
0001
0100
0010
1000
,
2000
0000
3100
0000
,
0020
0000
0130
0000
,
2000
0001
3001
0000
,
0100
0010
0100
0000
0010
0000
0000
0000
,
1001
0110
0000
0001
,
0020
0000
0000
0130
0000
0000
0000
0000
,
1100
0110
0000
0010
,
0100
0001
0000
1001
0000
0000
0000
0000
,
0010
0100
0010
0000
0000
0000
0001
0000
,
2000
0000
0000
3100
0000
0000
0000
0000
,
0110
0011
0000
0100
,
2002
0000
0000
3003
,
0000
0010
0000
0001
0000
1000
1000
0000
,
0000
0001
0000
0100
0000
0010
0010
0000
,
0000
1000
0000
0001
0000
0010
0010
0000
,
0000
0001
0000
0100
0000
0000
1001
0000
,
0000
0100
0000
0010
0000
1000
1000
0000
,
0000
0010
0000
0100
0000
0001
0001
0000
,
0000
1000
0000
0100
0000
0200
0000
0000
,
0310
0000
0000
0000
,
1000
0010
1000
0000
0001
0100
0001
0000
,
0020
0000
0000
0031
0000
0000
0000
0000
,
1000
0010
0100
0000
0100
0000
0001
0000
,
0020
0000
0000
0031
0000
0000
0000
0000
,
0110
1100
0000
0001
,
1000
1000
0000
0010
0000
0000
0000
0000
,
0010
0100
0001
0000
0010
0000
0100
0000
,
1100
0000
0000
0110
0000
0000
0000
0000
,
0010
0100
0001
0000
1000
0000
0010
0000
,
0200
0010
0000
0310
0000
0000
0000
0000
,
0001
0100
0010
0000
1000
0000
0001
0000
,
0020
0000
0000
0100
0000
0130
0000
0000
,
0110
1001
0000
0100
,
0010
1000
0000
1001
0000
0000
0000
0000
,
0010
0100
0001
0000
1000
0000
0100
0000
,
0110
0000
0000
0011
0000
0000
0000
0000
,
2000
0000
0000
0000
,
3002
0000
0000
0000
,
0203
0000
0010
0001
,
0310
0000
0000
0000
,
1000
0100
1000
0000
0001
0010
0001
0000
,
0100
0010
2000
0001
,
3001
0010
0001
0000
1000
0100
1000
0000
,
0020
0100
1000
0130
,
0001
0010
0001
0000
1000
0100
1000
0000
,
0010
0100
0001
0000
0020
0000
0000
0000
,
0031
0000
1100
0000
,
0220
0000
0000
0330
1000
0000
0001
0000
,
0000
0000
0100
0010
0100
0010
0000
1001
,
0000
0000
0001
0010
,
0000
0000
0100
1000
0100
1000
0000
1001
,
0000
0000
0110
0011
,
0000
0000
1000
0000
0020
0100
0000
0130
,
0000
0000
0001
0000
0010
0100
0010
0000
,
0000
0000
0001
0000
0100
0010
0000
2002
,
0000
0000
3003
0000
0000
1000
0000
0100
,
0000
1000
1000
0000
0000
0001
0000
0010
,
0000
0001
0001
0000
0000
1000
0000
0010
,
0000
0100
0100
0000
0000
0000
0001
0000
,
0010
0100
1001
0000
;

//---------------dance-single - C. Foy----------------
#NOTES:
     dance-single:
     C. Foy:
     Challenge:
     10:
     0.839,0.790,0.278,0.115,0.637,572.000,29.000,12.000,0.000,0.000:

0000
0000
0000
0000
,
0000
0000
0000
0000
,
0000
0000
0000
0000
,
0000
0000
0000
0000
0000
0000
0000
0010
,
1000
0100
1000
1000
0000
0000
0000
0000
,
0001
0010
0001
0100
0000
0000
0000
0000
,
0010
1000
0100
0200
0000
0000
0000
1300
,
0000
0010
0000
0100
0000
0020
0000
0030
,
1000
0000
0100
0000
0010
0000
0001
0010
0000
0010
0000
0001
1000
0000
0010
1000
,
0010
0000
0100
0000
0100
0000
0010
1000
0000
0100
0000
0010
0001
0000
0001
0000
,
1000
0000
0010
0000
0100
0000
0010
1000
0000
1000
0000
0010
0100
0000
0010
1000
,
0001
0000
0010
0000
0100
0000
0100
1000
0000
0010
0000
1000
0001
0100
0010
0000
,
0100
0000
0001
0000
0010
0000
0001
0010
0000
0100
0000
0100
1000
0000
0001
0010
,
0100
0000
1000
0000
0010
0000
0010
1000
0000
0001
0000
0100
0010
0000
1000
0000
,
0100
0000
0010
0000
0010
0000
0001
0010
0000
0001
0000
0100
0010
0000
1000
0001
,
0010
0000
0010
0000
0001
0000
0100
0001
0000
0001
0000
1000
0001
0100
0010
0000
,
0010
0000
1000
0000
0100
0000
1000
0100
1000
0001
0100
0010
1000
0000
0001
1000
,
0010
0000
0100
0000
0100
0000
0010
1000
0000
0001
1000
0010
0100
0000
0010
0000
,
1000
0000
0100
0000
0010
0000
0001
0010
0000
0100
1000
0100
0010
0000
0001
0010
,
0100
0010
0001
0000
0010
0000
0001
1000
0010
0000
1000
0000
0100
0000
1000
0000
,
0010
0000
0100
0000
0001
0000
0100
0001
1000
0010
1000
0001
0010
0000
0100
1000
,
0001
0000
0100
0000
0100
0000
0010
1000
0000
0010
0100
0010
1000
0000
0100
0000
,
1000
0000
0100
0000
0010
0000
0001
0010
0000
0001
0100
0010
1000
0000
0100
0010
,
0001
0000
0000
0000
,
0000
1001
0000
1001
0000
0010
1000
0100
,
0000
0110
0000
0110
0000
0100
0010
0010
,
0000
1001
0000
0110
0000
0100
0001
0010
,
0000
0011
0000
0110
0000
1000
0010
0100
,
0000
1001
0000
1100
0000
1000
0100
0010
,
0000
1100
0000
1001
0000
0010
0100
1001
,
0000
0101
0000
0110
0000
0010
1000
0100
,
0000
1100
0000
1000
0100
0010
0100
1000
,
0010
0000
0100
0000
0010
0000
1000
0100
0010
0001
0010
0100
1000
0000
0001
0100
,
0010
0000
0100
0000
0001
0000
0001
0010
0000
0100
1000
0100
0010
0000
0001
0000
,
0100
0000
0010
0000
1000
0000
0100
1000
0000
0100
1000
0001
0100
0000
0010
0100
,
0010
1000
0010
0000
1000
0000
0100
0010
0001
0000
0100
0000
0001
0000
0010
0000
,
0100
0000
0010
0000
0001
0000
1000
0010
1000
0001
1000
0100
1000
0000
0100
1000
,
0100
0000
0010
0000
0001
0000
1000
0001
0000
1000
0001
0100
0001
0000
0100
0000
,
0010
0000
0100
0000
0010
0000
0010
1000
0000
0001
1000
0100
1000
0000
0100
0010
,
0100
1000
0100
0000
0010
0000
0001
1000
0010
0000
0100
0000
0001
0000
0010
0000
,
0001
0000
0100
0000
0010
0000
0100
0010
1000
0010
0100
0010
1000
0000
0001
0010
,
0100
0000
1000
0000
0010
0000
0010
1000
0000
0100
1000
0100
0010
0000
0100
0000
,
1000
0000
0100
0000
0010
0000
0010
0001
0000
0010
0001
1000
0010
0000
1000
0010
,
1000
0100
1000
0000
1000
0000
0010
0100
0010
0000
1000
0000
0100
0000
0010
0000
,
0100
0000
1000
0000
0010
0000
1000
0100
0010
0100
1000
0001
0100
0000
0010
1000
,
0100
0000
0010
0000
0100
0000
0100
1000
0000
0001
0100
0001
0010
0000
0100
0000
,
0010
0000
0001
0000
0100
0000
0010
1000
0000
0001
1000
0010
1000
0000
0001
0010
,
0200
0000
0000
0000
0000
0300
0000
0000
,
1000
0010
0010
2002
0000
3003
0100
0000
,
0010
1000
0100
2200
0000
3300
1000
0000
,
0001
0100
0010
2002
0000
3003
1000
0100
,
0010
0100
1000
0020
0000
0100
0100
0130
,
0010
1000
0100
0100
0010
0001
0100
0100
,
0010
1000
0100
0100
1000
0100
0010
0001
,
0001
0100
0001
0010
0100
1000
0010
0100
,
0001
0001
1000
1000
0010
0010
0100
0100
,
0001
1000
0010
0100
0001
1000
0010
0100
,
0100
0010
1000
0001
0100
0010
1000
0001
,
1000
0100
0010
0000
0001
1000
0010
0000
0100
0001
1000
0000
0100
0010
0002
0000
,
1000
0000
0000
0000
0000
0000
0000
0000
1000
0000
0000
0000
0000
0000
0000
0000
1000
0000
0000
0000
0000
0000
0000
0000
1000
0003
0000
0000
0000
0000
0000
0000
0001
0000
0000
0000
0000
0000
0000
0000
1000
0000
0000
0000
0000
0000
0000
0000
0010
0000
0000
0000
0000
0000
0000
0000
1000
0000
0000
0000
0100
0000
0000
0000
,
1000
0001
1000
0010
1000
0000
0010
0100
0001
0000
0010
0000
0100
0000
0100
1000
,
0000
0100
1000
0001
0100
0000
0010
0000
0100
0000
0010
0000
1000
0000
1000
0100
,
0000
1000
0100
0010
0100
0000
1000
0100
0010
0001
0010
0000
0010
0000
0100
1000
,
0010
0000
1000
0000
0100
0000
0010
0000
0100
0000
1000
0000
0010
0000
0100
0010
,
1000
0010
0100
0010
1000
0000
0100
1000
0010
0000
1000
0000
0100
0000
0100
0010
,
0000
0100
0010
0001
0010
0000
0100
0000
1000
0000
0010
0000
0100
0000
0100
0010
,
0000
1000
0100
1000
0001
0000
0010
0100
0010
0001
0010
0000
0100
0000
1000
0000
,
0100
0010
0010
0001
0001
0101
0000
1001
,
0000
0010
0010
1001
0000
0110
0000
1001
,
0000
0100
0100
1001
0000
0011
0000
1100
,
0000
0100
0100
0100
0000
1001
0000
0010
,
0010
0100
0100
0010
0120
0000
1030
0000
;

//---------------dance-double - M. Emirzian----------------
#NOTES:
     dance-double:
     M. Emirzian:
     Easy:
     3:
     0.137,0.241,0.019,0.038,0.000,94.000,2.000,4.000,0.000,0.000:
00000000
00000000
00000000
00000000
,
00000000
00000000
00000000
00000000
,
00000000
00000000
00000000
00000000
,
00000000
00000000
00000000
00000000
,
10000000
00000000
00000000
00000000
,
00000000
00000000
00000000
00000000
,
00010000
00000000
00000000
00000000
,
00000000
00000000
00000000
00000000
,
00001000
00000000
00000000
00000000
,
00010000
00000000
00000000
00000000
,
00000100
00000000
00000000
00000000
,
00000010
00000000
00000000
00000000
,
00000001
00000000
00000000
00000000
,
00010000
00000000
00000000
00000000
,
00001000
00000000
01000000
00000000
,
00010000
00000000
10000000
00000000
,
01000000
01000000
00000000
00000000
,
00000000
00000000
00000000
00000000
,
00010000
00010000
00000000
00000000
,
00000000
00000000
00000000
00000000
,
00000100
00000100
00000000
00000000
,
00000000
00000000
00000000
00000000
,
00000001
00000001
00000000
00000000
,
00002002
00000000
00000000
00003003
,
00001000
00000000
00000000
00000000
,
00000100
00000000
00000000
00000000
,
00010000
00000000
00000000
00000000
,
00001000
00000000
00000000
01000000
,
01000000
00000000
00000000
00000000
,
00100000
00000000
00000000
00000000
,
10000000
00000000
00000000
00000000
,
01000000
00000000
00000000
00010000
,
00010000
00000000
00001000
00000000
,
00010000
00000000
00000000
00000000
,
00000100
00000000
00001000
00000000
,
00000100
00000000
00000000
00000000
,
00000001
00000000
00001000
00000000
,
00000100
00000000
00000000
00000000
,
00010000
00000000
00001000
00000000
,
00100000
00000000
00000000
00000000
,
10000000
00000000
00010000
00000000
,
10000000
00000000
00000000
00000000
,
00010000
00000000
01000000
00000000
,
00100000
00000000
00000000
00000000
,
00001000
00000000
00010000
00000000
,
00000100
00000000
00000000
00000000
,
00001000
00000000
00000010
00000000
,
00000202
00000000
00000000
00000303
,
00001000
00000000
00000000
00000000
,
00000000
00000000
00000000
00000000
,
00000001
00000000
00000100
00000000
,
00000010
00000000
00000000
00001000
,
00001000
00000000
00000100
00000000
,
00000010
00001000
00000010
00000000
,
00010000
00000000
00001000
00000000
,
01000000
00010000
01000000
00000000
,
00100000
00000000
10000000
00000000
,
01000000
00100000
01000000
00000000
,
00100000
00000000
00010000
00000000
,
00100000
00000000
00000000
00001000
00010000
00000000
00010000
00000000
,
00000000
00000000
00000000
00000000
,
00000000
00000000
00000100
00000100
,
00000000
00000000
00000000
00000000
,
00000000
00000000
00000001
00000001
,
00000000
00000000
00000000
00000000
,
00000000
00000000
00010000
00010000
,
00000000
00000000
00000000
00000000
,
00000000
00000000
10000000
00000000
,
00000000
00000000
01000000
00000000
,
00000000
00000000
00100000
00000000
,
00000000
00000000
00010000
00000000
,
00001000
00000000
00000010
00000010
;

//---------------dance-double - M. Emirzian----------------
#NOTES:
     dance-double:
     M. Emirzian:
     Medium:
     5:
     0.287,0.344,0.029,0.038,0.000,203.000,3.000,4.000,0.000,0.000:

00000000
00000000
00000000
00000000
,
00000000
00000000
00000000
00000000
,
00000000
00000000
00000000
00000000
,
00000000
00000000
00000000
00000000
,
10000000
00000000
00000000
00000000
,
00010000
00000000
00000000
00000000
,
00001000
00000000
00000000
00000000
,
00000001
00000000
00000000
00000000
,
00001100
00000000
00000000
00000000
,
00000000
00000000
00000000
00000000
,
00010000
00000000
00000000
00000000
,
00000000
00000000
00000000
00000000
,
00001000
00000000
01000000
00000000
,
00010000
00000000
10000000
00000000
,
00100000
00000000
01000000
00000000
,
00010000
10000000
01000000
00100000
,
00010000
10000000
00000000
00010000
,
00010000
00000000
00000000
00001000
,
00010000
00001000
00000000
00000100
,
00000100
00000000
00000000
00000001
,
00000100
00000001
00000000
00000010
,
00000010
00000000
00000000
00000100
,
00001000
00000100
00000000
00010000
,
00022000
00000000
00000000
00033000
,
01000000
00000000
00010000
01000000
,
00010000
00000000
10000000
01000000
,
10000000
00000000
00100000
00010000
,
00100000
00000000
00000000
00000000
10000000
00010000
10000000
00000000
,
01000000
00000000
00001000
00010000
,
00001000
00000000
00000100
00000010
,
00000001
00000000
00001000
00000010
,
00000100
00000000
00000000
00000000
00000001
00001000
00000001
00000000
,
00000100
00000000
00000010
00001000
,
00000100
00000000
00010000
00001000
,
01000000
00000000
00010000
01000000
,
00100000
00000000
00000000
00000000
10000000
00100000
10000000
00000000
,
01000000
00000000
00010000
00100000
,
00010000
00000000
01000000
10000000
,
01000000
00000000
00100000
00010000
,
00100000
00000000
00000000
00000000
00001000
00010000
00001000
00000000
,
00000100
00000000
00000001
00001000
,
00000100
00000000
00000001
00000100
,
00001000
00000000
00000010
00000100
,
00000001
00000000
00000000
00000000
00000100
00000010
00001000
00000000
,
00000100
00000000
00010000
00001000
,
00100000
00000000
00010000
00100000
,
01000000
00000000
10000000
00100000
,
20020000
00000000
00000000
30030000
,
00100000
10000000
00100000
00000000
01000000
00000000
00000000
00000000
,
00010000
10000000
00010000
00000000
01000000
00000000
00000000
00000000
,
00100000
00010000
00100000
00000000
00001000
00000000
00010000
00000000
,
00000100
00001000
00000100
00000000
00000010
00000000
00000000
00000000
,
00000001
00001000
00000001
00000000
00000100
00000000
00000000
00000000
,
00000010
00001000
00000010
00000000
00000100
00000000
00000001
00000000
,
00000100
00000010
00000100
00000000
00000010
00000000
00000000
00000000
,
00010000
00001000
00010000
00000000
00100000
00000000
10000000
00000000
,
00010000
10000000
00010000
00000000
01000000
00000000
00000000
00000000
,
00100000
10000000
00100000
00000000
01000000
00000000
00010000
00000000
,
01000000
00001000
01000000
00000000
00001000
00000000
00000000
00000000
,
00010000
00001000
00010000
00001000
00010000
00000000
00000000
00000000
,
00010000
00001000
00000010
00000000
,
00000001
00001000
00000100
00000000
,
00000001
00000100
00000010
00000000
,
00001000
00000001
00001000
00000000
00000100
00000000
00000000
00000000
,
00000010
00010000
00001000
00000000
,
00001000
00010000
01000000
00000000
,
10000000
00010000
01000000
00000000
,
00100000
10000000
00100000
00000000
01000000
00000000
00000000
00000000
,
00010000
10000000
01000000
00000000
,
00100000
00001000
00010000
00000000
,
00010000
00001000
00000100
00000000
,
00000001
00001000
00000100
00000000
00000010
00000000
00000010
00000000
;

//---------------dance-double - M. Emirzian----------------
#NOTES:
     dance-double:
     M. Emirzian:
     Hard:
     9:
     0.618,0.584,0.488,0.038,0.057,397.000,51.000,4.000,0.000,0.000:












00000000
00000000
00000000
00000000
,
00000000
00000000
00000000
00000000
,
00000000
00000000
00000000
00000000
,
00000000
00000000
00000000
00000000
,
10000000
00000000
00000000
00000000
,
00000001
00000000
00000000
00000000
,
10000000
00000000
00000000
00000000
00000000
00000000
00000000
00010000
,
00001000
00000000
00000000
00000000
,
10000000
00000000
00100000
00000000
01000000
00000000
00000000
00010000
00000000
00100000
00000000
00000000
01000000
00000000
00000000
00000000
,
10000000
00000000
00100000
00000000
00010000
00000000
00000000
00100000
00000000
10000000
00000000
00000000
01000000
00000000
00000000
00000000
,
00010000
00000000
01000000
00000000
10000000
00000000
00000000
01000000
00000000
00010000
00000000
00000000
00001000
00000000
00000000
00000000
,
01000000
00000000
00001000
00000000
00010000
00000000
00000000
00000010
00000000
00000100
00000000
00000000
00000001
00000000
00000000
00000000
,
00001000
00000000
00000010
00000000
00000001
00000000
00000000
00000010
00000000
00001000
00000000
00000000
00000100
00000000
00000000
00000000
,
00000010
00000000
00000100
00000000
00001000
00000000
00000000
00000001
00000000
00000100
00000000
00000000
00000010
00000000
00000000
00000000
,
00001000
00000001
00000100
00001000
00000100
00000001
00000010
00001000
,
00010000
00100000
00010000
00001000
00010000
01000000
10000000
00000000
,
00110000
00000000
01010000
00000000
00000000
00100000
10000000
01000000
,
10000000
00100000
00000000
01010000
00000000
10000000
01000000
00000000
,
00110000
00000000
00101000
00000000
00010000
00000000
00001000
01000000
,
00001000
00010000
00000000
00010100
00000000
00001000
00000000
00000000
,
00000110
00000000
00001001
00000000
00000100
00000000
00000001
00000010
,
00001000
00000010
00000000
00000001
00000000
00000100
00000010
00000000
,
00001010
00000000
00001100
00000000
00010000
00000000
00001000
00000100
,
00001000
00010000
00000000
02002000
00000000
00000000
03003000
00000000
,
01000000
00100000
00000000
10010000
00000000
00100000
01000000
10000000
,
00000000
01000000
00000000
00110000
00000000
01000000
00001000
00010000
,
00000000
00000100
00000000
00001100
00000000
00000010
00000100
00000001
,
00000000
00001000
00000000
00001100
00000000
00000010
00001000
00000100
,
00000000
00000010
00000000
00000011
00000000
00000100
00001000
00010000
,
00000000
01000000
00000000
00011000
00000000
00000010
00001000
00010000
,
00000000
00100000
00000000
00011000
00000000
01000000
00010000
00001000
,
00000000
00010000
00000000
00100000
10000000
01000000
00100000
00010000
,
10010000
00000000
01100000
00000000
00010000
10000000
01000000
00100000
,
01000000
10000000
00100000
00010000
00001000
00000010
00000001
00000000
,
00001001
00000000
00000110
00000000
00000001
00000010
00000100
00001000
,
00000100
00000010
00001000
00010000
00100000
10000000
01000000
00000000
,
01100000
00000000
00101000
00000000
00010000
00100000
01000000
10000000
,
00100000
00010000
00001000
00000100
00001000
00010000
01000000
00000000
,
11000000
00000000
01010000
00000000
00001000
00010000
00100000
00010000
,
00001000
00000010
00000001
00000100
00000010
00000100
00000001
00000000
,
00001001
00000000
00000110
00000000
00000100
00001000
00000010
00000001
,
00000010
00010000
00001000
00000010
00000100
00001000
00000001
00000000
,
00001010
00000000
00000011
00000000
00000001
00000010
00001000
00000100
,
00000010
00001000
00010000
00100000
10000000
01000000
00100000
00000000
,
00110000
00000000
01001000
00000000
00010000
01000000
00100000
10000000
,
01000000
00100000
00010000
01000000
00001000
00010000
00000100
00000000
,
01001000
00000000
00011000
00000000
00000100
00000010
00000001
00000100
,
00002002
00000000
00000000
00003003
,
00000010
00000100
00001000
00010000
00001000
00000000
00001100
00000000
,
00001000
00010000
00100000
00010000
00001000
00000000
00001010
00000000
,
00001000
00010000
01000000
00010000
00001000
00000000
00000100
00001000
,
00010000
00100000
10000000
01000000
00100000
01000000
10000000
00100000
,
01000000
00010000
10000000
01000000
00010000
00001000
00010000
00100000
,
10000000
01000000
10000000
00100000
00010000
00001000
00000010
00000001
,
00000100
00000010
00000100
00000001
00000010
00001000
00010000
00001000
,
00000100
00001000
00010000
00000100
00010000
00100000
10000000
01000000
,
00010000
00001000
01000000
00100000
00010000
00001000
00010000
01000000
,
00010000
00001000
00000100
00000001
00000010
00000100
00010000
00001000
,
00000010
00000100
00010000
00001000
00000100
00000010
00010000
00100000
,
10000000
00100000
01000000
00010000
11000000
00000000
01010000
00000000
,
00010000
01000000
10000000
00100000
00010000
00001000
00100000
01000000
,
00010000
00001000
00000100
00000000
00001100
00000000
00000101
00000000
,
00000010
00000100
00001000
00000010
00000100
00001000
00010000
00100000
,
00010000
00001000
00000100
00000000
00001010
00000000
01010000
00000000
,
00100000
10000000
00100000
01000000
00100000
10000000
01000000
00010000
,
00001000
00000100
00000001
00000000
00001010
00000000
00001001
00000000
,
00000010
00000100
00001000
00000100
00000010
00000001
00000100
00001000
,
00010000
00100000
10000000
01000000
00100000
00010000
00000000
01010000
,
00000000
01000000
10000000
01000000
00000000
00010000
00000000
10010000
,
00000000
01000000
00010000
00001000
00000000
00010000
00000000
01010000
,
00000000
00010000
00001000
00000010
00000000
00000011
00000000
00001000
,
00000010
00000100
00000001
00000010
00001001
00000000
00001100
00000000
;

//---------------dance-double - M. Emirzian----------------
#NOTES:
     dance-double:
     M. Emirzian:
     Challenge:
     10:
     0.699,0.756,0.354,0.038,0.306,470.000,37.000,4.000,0.000,0.000:

00000000
00000000
00000000
00000000
,
00000000
00000000
00000000
00000000
,
00000000
00000000
00000000
00000000
,
00000000
00000000
00000000
00000000
,
00000001
00000000
00000000
00000000
,
10000000
00000000
00000000
00000000
,
00000001
00000000
00000000
00000000
00000000
00000000
00000000
00001000
,
00010000
00000000
00000000
00000000
,
00010000
00000000
01000000
00000000
10000000
00000000
01000000
00010000
00000000
10000000
00000000
01000000
00010000
00000000
00001000
00010000
,
00000100
00000000
00001000
00000000
00000010
00000000
00000100
00000001
00000000
00000010
00000000
00001000
00000010
00000000
00000001
00000100
,
00000010
00000000
00001000
00000000
00000100
00000000
00010000
00001000
00000000
00000100
00000000
00001000
00010000
00000000
00100000
01000000
,
00010000
00000000
10000000
00000000
01000000
00000000
00100000
00010000
00000000
01000000
00000000
00001000
00010000
00000100
00001000
00000000
,
00000010
00000000
00000100
00000000
00000001
00000000
00001000
00000100
00000000
00000001
00000000
00000100
00001000
00000000
00000010
00000100
,
00000001
00000000
00000100
00000000
00001000
00000000
00010000
00001000
00000000
01000000
00000000
00001000
00010000
00000000
01000000
00100000
,
00010000
00000000
00100000
00000000
01000000
00000000
10000000
00010000
00000000
10000000
00000000
01000000
00010000
00000000
00001000
00010000
,
00001000
00000000
01000000
00000000
00100000
00000000
01000000
00010000
00000000
00100000
00000000
01000000
10000000
00100000
01000000
00000000
,
10010000
00000000
11000000
00000000
10000000
00100000
10000000
01000000
,
00100000
00001000
00000100
00000010
00001000
00000100
00000010
00000000
,
00001001
00000000
00000011
00000000
00001000
00000010
00000100
00000001
,
00000010
00001000
00100000
10000000
00100000
00010000
01000000
00000000
,
10100000
00000000
10010000
00000000
01000000
00010000
00000100
00010000
,
01000000
00010000
00000010
00001000
00000100
00000010
00000001
00000000
,
00000101
00000000
00000011
00000000
00000100
00001000
00000010
00000000
,
00000202
00000000
00000000
00000303
,
00001000
00000000
00000001
00000000
00000100
00000000
00000010
00001000
00000000
00000100
00000000
00010000
00001000
00000000
01000000
00010000
,
10000000
00000000
01000000
00000000
00100000
00000000
00010000
10000000
00000000
00100000
00000000
01000000
00010000
00000000
00100000
00001000
,
00100000
00000000
00010000
00000000
01000000
00000000
00100000
10000000
00000000
01000000
00000000
00100000
00010000
00000000
00100000
00001000
,
00100000
00000000
00001000
00000000
00010000
00000000
01000000
00010000
00000000
00001000
00000000
00010000
00000100
00000000
00001000
00000010
,
00001000
00000000
00000100
00000000
00000001
00000000
00000100
00001000
00000000
00000010
00000000
00000100
00000001
00000000
00001000
00000010
,
00001000
00000000
00000100
00000000
00000010
00000000
00000001
00000100
00000000
00000010
00000000
00001000
00000100
00000000
00010000
00001000
,
00010000
00000000
00100000
00000000
10000000
00000000
01000000
00100000
00000000
00010000
00000000
00100000
01000000
00000000
10000000
01000000
,
10000000
00000000
00100000
00000000
00010000
00000000
00000010
00001000
00000000
00000010
00000000
00000100
00000001
00000000
00000010
00000100
,
00000110
00000000
00001001
00000000
00001000
00000100
00000001
00000100
,
00010000
00001000
00000010
00000001
00000100
00000010
00001000
00000000
,
00001100
00000000
01000100
00000000
00001000
01000000
10000000
01000000
,
00001000
00010000
00100000
00010000
00000010
00001000
00000100
00000000
,
00100010
00000000
00011000
00000000
00010000
01000000
00010000
00000100
,
00000001
00000100
00001000
00000010
00000100
00000001
00001000
00000000
,
00001010
00000000
00100010
00000000
00010000
00000100
00000001
00000010
,
00000001
00000100
00001000
00000010
00000100
00001000
00010000
00000000
,
01000100
00000000
00011000
00000000
00001000
00010000
00100000
00010000
,
01000000
00010000
00001000
00000100
00001000
00010000
01000000
00000000
,
11000000
00000000
00110000
00000000
10000000
00100000
00010000
01000000
,
00010000
00001000
00010000
01000000
00010000
00001000
00000010
00000000
,
00000110
00000000
00001001
00000000
00000001
00000010
00001000
00100000
,
01000000
00010000
00000100
00010000
00100000
00010000
00001000
00000000
,
01000100
00000000
00011000
00000000
00100000
00010000
01000000
00000000
,
20020000
00000000
00000000
30030000
,
10000000
00100000
00010000
00000100
00000001
00000000
00000010
00000000
,
00000001
00000010
00010000
00100000
10000000
00000000
01000000
00000000
,
10000000
01000000
00010000
00000010
00000001
00000000
00000010
00001000
,
00000100
00000010
00000001
00010000
00001000
10000000
01000000
00100000
,
00010000
01000000
10000000
01000000
00001000
00010000
01000000
00100000
,
00000100
00001000
00100000
01000000
00000100
00000010
00000001
00010000
,
00001000
00010000
00000001
00000100
00001000
00000010
00001000
00010000
,
00000100
00010000
01000000
00100000
00001000
00010000
00100000
10000000
,
01000000
00010000
00001000
00000100
00000001
00000010
00000001
00010000
,
00100000
00010000
00001000
00000100
00000001
00000010
00001000
00100000
,
00001000
00000100
00001000
01000000
10000000
00010000
00100000
10000000
,
01000000
00100000
00010000
10010000
11000000
00000000
10010000
00000000
,
01000000
00100000
00010000
00000010
00000100
00001000
00100000
01000000
,
00010000
00001000
01000000
00000000
00011000
00000000
00010010
00000000
,
00001000
00000100
00000010
00000001
00010000
00000100
00010000
00000001
,
00000100
00000010
00001000
00000000
00001100
00000000
00001001
00000000
,
00000010
00001000
00000100
00000010
00000100
00010000
00100000
00010000
,
00001000
10000000
00010000
00000000
11000000
00000000
10010000
00000000
,
10000000
00100000
00010000
00000010
00010000
01000000
00100000
00000100
,
00000010
00000001
00001000
00000000
00000001
00000100
00000000
00000010
,
00000000
01000000
00000100
01000000
00000000
00001000
00000000
00100000
,
00000000
00001000
10000000
00001000
00000000
01000000
00000000
00001000
,
00000000
00100000
00000010
00100000
00000000
00001000
00000000
00000100
,
00000001
00000010
00000100
00001000
00001100
00000000
00100100
00000000
;

//---------------dance-single - K. Ward----------------
#NOTES:
     dance-single:
     K. Ward:
     Easy:
     3:
     0.260,0.309,0.115,0.019,0.000,176.000,12.000,2.000,0.000,0.000:

0000
0000
0000
0000
,
0000
0000
0000
0000
,
0000
0000
0000
0000
,
0000
0000
0000
0000
,
0010
0000
0000
0000
,
0100
0000
0000
0000
,
0001
0000
0000
0000
,
1000
0000
0000
0000
,
0010
0010
0000
0000
,
0100
0100
0000
0000
,
0001
0001
0000
0000
,
1000
1000
1000
0000
,
0010
0000
0010
0000
,
0100
0000
0100
0000
,
0001
1000
0001
1000
,
0001
0100
0100
0000
,
0100
0010
0000
0000
,
0110
0000
0000
1100
0000
0000
0000
0000
,
1000
0001
0000
0000
,
0110
0000
0000
0011
0000
0000
0000
0000
,
0001
1000
0000
0000
,
1001
0000
0000
0110
0000
0000
0000
0000
,
0010
0100
0000
0100
,
1001
0000
0000
0000
,
0000
1000
1000
1000
,
0000
0001
0001
0001
,
0000
0100
0100
0100
,
0000
0010
0100
0001
,
0000
1000
1000
1000
,
0000
0001
0001
0001
,
0000
0100
0000
0110
,
0000
0001
1000
0001
,
0010
0010
0010
0000
,
0100
0100
0100
0000
,
0010
0010
0010
0000
,
0001
1000
0001
0100
,
0010
0010
0010
0000
,
1000
1000
1000
0000
,
0001
0001
0001
0000
,
0100
1000
0010
0001
,
1000
1000
0000
1000
,
0001
0000
0000
0001
0000
0000
0000
0000
,
0010
0010
0000
0001
,
0001
0000
0000
1000
0000
0000
0000
0000
,
0010
0010
0000
0100
,
0100
0000
0000
0001
0000
0000
1000
0000
,
0100
0100
0000
0010
,
1001
0000
0000
0000
,
0100
0000
1000
0000
,
0010
0000
0001
0000
,
1000
0001
1000
0000
,
1001
0000
0000
0000
,
1000
0001
1000
0001
,
1000
0000
0000
0000
,
0010
0100
0010
0100
,
0010
0000
0000
0000
,
1000
0001
1000
0001
,
1000
0000
0000
0000
,
0010
0100
0001
1000
,
0001
0000
0000
0100
,
0100
0100
0000
0001
,
0001
0001
0000
1000
,
1000
0000
1000
0000
0010
0000
0000
0110
,
0000
0000
0100
0001
,
1000
1000
0010
0100
,
0001
1000
1000
0010
,
0010
0000
0100
0000
0002
0000
0000
0020
,
0000
0033
0000
0100
,
0100
0100
0000
1000
,
1000
1000
0000
0001
,
0001
0001
0000
0100
,
1000
0010
0001
1001
;

//---------------dance-single - K. Ward----------------
#NOTES:
     dance-single:
     K. Ward:
     Beginner:
     1:
     0.094,0.171,0.105,0.000,0.000,58.000,11.000,0.000,0.000,0.000:

0000
0000
0000
0000
,
0000
0000
0000
0000
,
0000
0000
0000
0000
,
0000
0000
0000
0000
,
0010
0000
0000
0000
,
1000
0000
0000
0000
,
0001
0000
0000
0000
,
1000
0000
0000
0000
,
1001
0000
0000
0000
,
0000
0000
0000
0000
,
0110
0000
0000
0000
,
0000
0000
0000
0000
,
0001
0000
0000
0000
,
0001
0000
0000
0000
,
1000
0000
0000
0000
,
1000
0000
0000
0000
,
0010
0000
0000
0000
,
0000
0000
0000
0000
,
0010
0000
0000
0000
,
0000
0000
0000
0000
,
0100
0000
0000
0000
,
0000
0000
0000
0000
,
0100
0000
0000
0000
,
1001
0000
0000
0000
,
1000
0000
0000
0000
,
1000
0000
0000
0000
,
1000
0000
0000
0000
,
0000
0000
0000
0000
,
0001
0000
0000
0000
,
0001
0000
0000
0000
,
0001
0000
0000
0000
,
0000
0000
0000
0000
,
0010
0000
0000
0000
,
0001
0000
0000
0000
,
1000
0000
0000
0000
,
0100
0000
0000
0000
,
1000
0000
0000
0000
,
0001
0000
0000
0000
,
0010
0000
0000
0000
,
0001
0000
0000
0000
,
1000
0000
0000
0000
,
0001
0000
0000
0000
,
0100
0000
0000
0000
,
0010
0000
0000
0000
,
1000
0000
0000
0000
,
0001
0000
0000
0000
,
0010
0000
0000
0000
,
1001
0000
0000
0000
,
1001
0000
0000
0000
,
0000
0000
0000
0000
,
1001
0000
0000
0000
,
0000
0000
0000
0000
,
0110
0000
0000
0000
,
0000
0000
0000
0000
,
0110
0000
0000
0000
,
0000
0000
0000
0000
,
1001
0000
0000
0000
,
0000
0000
0000
0000
,
1001
0000
0000
0000
,
0000
0000
0001
0000
,
0000
0000
1000
0000
,
0000
0000
0001
0000
,
0000
0000
1000
0000
,
0000
0000
0010
0000
,
0000
0000
0100
0000
,
0000
0000
0010
0000
,
0000
0000
1000
0000
,
0000
0000
0001
0000
,
0001
0000
1000
0000
,
0000
0000
1000
0000
,
1000
0000
0001
0000
,
0000
0000
1001
0000
;
