#TITLE:Bayoen;
#SUBTITLE:Beastiality Violation;
#ARTIST:Kommisar;
#TITLETRANSLIT:;
#SUBTITLETRANSLIT:;
#ARTISTTRANSLIT:;
#CREDIT:;
#BANNER:../BV - ban.png;
#BACKGROUND:../BV - bg.png;
#LYRICSPATH:;
#CDTITLE:;
#MUSIC:Bayoen.ogg;
#OFFSET:0.009;
#SAMPLESTART:99.560;
#SAMPLELENGTH:12.000;
#SELECTABLE:YES;
#BPMS:0.000=260.000;
#STOPS:;
#BGCHANGES:;
// cache tags:
#FIRSTBEAT:32.000;
#LASTBEAT:611.000;
#SONGFILENAME:Songs/Beastiality Violation Expansion pack 1/Bayoen - [Aoreo]/Bayoen.sm;
#HASMUSIC:1;
#HASBANNER:0;
#MUSICLENGTH:142.889;
// end cache tags

//---------------dance-single - J. Nero----------------
#NOTES:
     dance-single:
     J. Nero:
     Challenge:
     18:
     1.000,1.000,0.035,0.161,1.000,1186.000,5.000,23.000,0.000,0.000:
0000
0000
0000
0000
,
0000
0000
0000
0000
,
0000
0000
0000
0000
,
0000
0000
0000
0000
,
0000
0000
0000
0000
,
0000
0000
0000
0000
,
0000
0000
0000
0000
,
0000
0000
0000
0000
,
1001
0000
0001
0010
0000
0010
0100
0000
,
1000
0000
0010
0100
0000
0100
0001
0000
,
1000
0000
0100
0010
0000
0010
0001
0000
,
1000
0000
0200
0300
1000
0000
0020
0030
,
0100
0000
0001
0010
0000
0010
0100
0000
,
1000
0000
0001
0100
0000
0100
0010
0000
,
1000
0000
0100
0010
0000
0010
0001
0000
,
1000
0000
0100
0000
1000
0000
0001
0000
0100
0000
0010
0000
1000
0000
0400
0300
,
0010
0000
0001
0100
0000
0100
0010
0000
,
1000
0000
0001
0010
0000
0010
0100
0000
,
1000
0000
0001
0100
0000
0100
0010
0000
,
1000
0000
0200
0300
1000
0000
0020
0030
,
0100
0000
0001
0010
0000
0010
0100
0000
,
1000
0000
0001
0100
0000
0100
0010
0000
,
1010
0000
1000
0100
0000
0100
0010
0000
,
0001
0100
0010
0100
0001
1000
0100
0010
,
0002
0000
0003
0000
1000
0000
0000
0000
0020
0030
0000
0000
0100
0000
0000
0000
,
0001
0000
0000
0000
1000
0000
0001
0000
0000
0000
0001
1000
0001
0100
0010
0100
,
0001
0000
1000
0100
0000
0100
0000
0010
,
0000
0000
0100
0000
1000
0000
0000
0000
0001
1000
0001
1000
0100
0010
0001
1000
,
0001
0000
1000
0100
0000
0100
0010
0001
,
0000
1000
0010
0100
0010
0000
0100
0000
,
0004
0003
0000
0000
1000
0000
1000
0000
,
0001
0010
0001
1000
0010
0100
0000
0100
,
0004
0000
0003
0000
1000
0000
0000
0000
0200
0300
0000
0000
1000
0000
0000
0000
,
0001
0100
0001
0010
,
0100
1000
0001
1000
0000
0010
0000
0010
,
0000
0100
0000
0001
1000
0000
0100
0000
,
1000
0100
0100
0001
0100
0100
2000
3000
,
0001
0100
0001
1000
0100
0010
0001
1000
0001
0100
0010
1000
0001
0100
0001
1000
,
0002
0003
0000
0000
0000
0000
0000
0000
2000
3000
0000
0000
0000
0000
0000
0000
,
0001
0010
0100
0010
0001
0100
0000
0010
,
0100
0000
0001
0000
1000
0000
0001
0100
0001
1000
0001
0000
0000
0000
1000
0000
,
0000
0001
0010
0100
1000
0000
0010
0000
,
1000
0000
0100
0000
1000
0000
0001
1000
0100
0010
0001
0000
0000
0000
1000
0000
,
0000
0001
0100
0001
1000
0000
0010
0000
,
0100
0000
0010
0000
0100
0000
0001
1000
0001
0010
0100
0000
0000
0000
1000
0000
,
0000
0001
0100
0010
1000
0000
0001
0000
,
1000
0000
0100
0000
1000
0000
0001
0100
0001
1000
0100
0000
0000
0000
0010
0000
,
0000
0001
0100
0001
1000
0000
0010
0000
,
1000
0100
1000
0001
0100
0010
0100
0001
,
1000
0001
0010
0100
1000
0001
0100
0001
,
1000
0010
0100
0010
1000
0001
1000
0100
,
0010
0001
1000
0010
0100
0010
1000
0001
,
0100
0001
1000
0100
0010
0001
1000
0100
,
0010
0100
1000
0001
1000
0010
0100
0001
,
1000
0000
0001
0010
0000
0010
0100
0000
,
1000
0100
1000
0001
0010
0100
1000
0001
1000
0000
0001
0000
0100
0000
0001
0000
,
1000
0010
1000
0001
0100
0001
1000
0010
0100
0001
1000
0100
0010
0001
1000
0100
,
1000
0001
0100
0001
1000
0010
0100
0010
1000
0001
0100
0001
1000
0100
0010
0100
,
1000
0001
0010
0100
1000
0001
1000
0010
0100
0001
1000
0001
0100
0010
1000
0001
,
1000
0100
0010
0001
1000
0100
1000
0001
0010
0100
1000
0001
1000
0010
0100
0001
,
1000
0001
0100
0010
0100
0001
1000
0001
0010
0100
1000
0001
0010
0001
1000
0100
,
1000
0001
0100
0001
1000
0010
0100
0010
1000
0001
0010
0100
1000
0001
1000
0100
,
1000
0001
0010
0100
1000
0001
0100
0010
1000
0100
0010
0001
1000
0010
0100
0001
,
1000
0100
1000
0001
0100
0001
1000
0010
1000
0001
1000
0100
0010
0001
1000
0100
,
1000
0001
0100
0001
1000
0010
0100
0010
1000
0001
0010
0100
1000
0001
0010
0001
,
1000
0001
0100
0010
0100
0001
1000
0001
0100
0001
1000
0100
1000
0001
0010
0100
,
1000
0001
0100
0001
1000
0010
0100
0010
1000
0001
1000
0100
0010
0001
1000
0001
,
0100
0010
1000
0001
0100
0001
1000
0010
0100
0001
1000
0100
1000
0001
1000
0100
,
0010
0001
1000
0001
0100
0010
0100
0001
1000
0100
1000
0001
0010
0100
1000
0001
,
1000
0010
0100
0010
1000
0001
0100
0001
1000
0100
1000
0001
0010
0100
1000
0001
,
1000
0000
0001
1000
0000
1000
0100
0000
,
1000
0000
0100
0000
1000
0000
0001
0000
0010
0000
0100
0000
1000
0000
0001
0000
2000
3000
0000
0000
0000
0000
0000
0000
0004
0003
0000
0000
0000
0000
0000
0000
,
1000
0100
0100
0001
0100
0100
1000
0000
,
0001
1000
0010
0010
0001
0000
1000
0000
,
0001
0100
0100
1000
0100
0100
0001
0000
,
1000
0000
0001
0000
0010
0000
0010
0000
4000
3000
0000
0000
0004
0003
0000
0000
,
1000
0010
0010
0001
0010
0010
1000
0000
,
0001
1000
0100
0100
0001
0000
1000
0000
,
0001
0010
0010
1000
0010
0010
0001
0000
,
1000
0000
0001
0000
0100
0000
0100
0000
4000
3000
0000
0000
0004
0003
0000
0000
,
1000
0100
0100
0001
0100
0100
1000
0000
,
0001
1000
0010
0010
0001
0000
1000
0000
,
0001
0100
0100
1000
0100
0100
0001
0000
,
1000
0000
0001
0000
0010
0000
0010
0000
4000
3000
0000
0000
0004
0003
0000
0000
,
1000
0010
0010
0001
0010
0010
1000
0000
,
0001
1000
0100
0100
0001
0000
1000
0000
,
0001
1000
0100
0010
0001
1000
0001
0000
,
4000
3000
0100
0000
0000
0000
4000
3000
0001
0000
0000
0000
4000
3000
0000
0000
,
1001
0000
0001
0100
0001
1000
0100
0010
,
0001
1000
0001
0100
0010
0000
1000
0000
,
0010
0000
0100
0000
0001
0000
1000
0100
1000
0001
0010
0100
1000
0001
1000
0000
,
0001
0100
0010
0100
0001
0000
1000
0000
,
0100
1000
0001
0100
0001
1000
0100
0010
,
0001
0100
0100
1000
0100
0100
0001
1000
,
0020
0030
0100
0001
0000
0100
0001
0000
,
1000
0100
1000
0001
0010
0100
1000
0001
1000
0000
0000
0000
0010
0000
0000
0000
,
1000
0000
0001
0100
0010
0100
0001
1000
,
0100
0010
0001
1000
0001
0000
0100
0000
,
0010
0000
0100
0000
0001
0000
1000
0001
0100
0001
1000
0100
0010
0001
1000
0000
,
0001
1000
0010
0100
0001
0000
1000
0000
,
0010
0000
0100
0001
0100
0010
1000
0001
,
1000
0100
0100
0001
0100
0100
1000
0001
,
1000
0000
0010
0100
0000
0100
0001
0000
,
1000
0100
1000
0001
0010
0100
1000
0001
1000
0000
0001
0000
0100
0000
0001
0000
,
1000
0100
1000
0001
0010
0001
1000
0100
0010
0001
1000
0010
0100
0001
1000
0010
,
1000
0001
0010
0001
1000
0100
0010
0100
1000
0001
0010
0001
1000
0010
0100
0010
,
1000
0001
0100
0010
1000
0001
1000
0100
0010
0001
1000
0001
0010
0100
1000
0001
,
1000
0010
0100
0001
1000
0010
1000
0001
0100
0010
1000
0001
1000
0100
0010
0001
,
1000
0001
0010
0100
0010
0001
1000
0001
0100
0010
1000
0001
0100
0001
1000
0010
,
1000
0001
0010
0001
1000
0100
0010
0100
1000
0001
0100
0010
1000
0001
1000
0010
,
1000
0001
0100
0010
1000
0001
0010
0100
1000
0001
0100
0010
1000
0001
0010
0100
,
1000
0001
1000
0010
0100
0010
1000
0001
0100
0001
1000
0100
1000
0001
0010
0100
,
1000
0001
0100
0001
1000
0100
0010
0100
1000
0001
0100
0010
1000
0001
0100
0001
,
1000
0001
0010
0100
0010
0001
1000
0001
0010
0001
1000
0010
1000
0001
0100
0010
,
1000
0001
0010
0001
1000
0100
0010
0100
1000
0001
1000
0010
0100
0001
1000
0001
,
0010
0100
1000
0001
0010
0001
1000
0100
0010
0001
1000
0010
1000
0001
1000
0010
,
0100
0001
1000
0001
0010
0100
0010
0001
1000
0010
1000
0001
0100
0010
1000
0001
,
1000
0100
0010
0100
1000
0001
0010
0001
1000
0010
1000
0001
0100
0010
1000
0001
,
2000
3000
0010
0100
0000
0100
0001
0000
,
1000
0100
1000
0001
0010
0100
1000
0001
1000
0000
0000
0000
0010
0000
0000
0000
,
1010
0000
1000
0100
0000
0100
0010
0000
,
0001
0000
0100
0010
0000
0010
1000
0001
,
1000
0000
0100
0010
0000
0010
0001
0000
,
1000
0000
0020
0030
1000
0000
0200
0310
,
0001
0000
1000
0010
0000
0010
0100
0000
,
0001
0000
0010
0100
0000
0100
1000
0001
,
0100
0000
0001
1000
0000
1000
0010
0000
,
0100
0001
1000
0100
0010
0001
1000
0010
,
0100
0000
0001
0010
0000
0010
0100
0000
,
1000
0000
0001
0100
0000
0100
0010
0000
,
1000
0000
0100
1000
0000
1000
0001
0000
,
0100
0010
0100
0001
,
0010
0000
0100
1000
0000
1000
0001
0000
,
0100
0000
0010
1000
0000
1000
0001
0000
,
2002
3003
0000
0000
0000
0000
0000
0000
1000
0000
0000
0000
0100
0000
0000
0000
0000
0000
0000
0000
0100
0000
0000
0000
0010
0000
0000
0000
0000
0000
0000
0000
,
0001
1000
0100
1000
0001
0100
0010
1000
,
0002
0000
0003
0000
1000
0000
0000
0000
0020
0030
0000
0000
0100
0000
0000
0000
,
0001
0000
0000
0000
1000
0000
0100
0000
0000
0000
0100
1000
0001
0100
0001
1000
,
0010
0000
1000
0100
0000
0100
0000
0010
,
0000
0000
0001
0000
1000
0000
0000
0000
0001
0100
0001
1000
0100
0010
0001
1000
,
0001
0000
1000
0001
0000
0001
0010
0100
,
0000
1000
0100
1000
0001
0000
0100
0000
,
0040
0030
0000
0000
1000
0000
1000
0000
,
0001
0010
0001
0100
0000
0100
0010
1000
,
0004
0000
0003
0000
1000
0000
0000
0000
0200
0300
0000
0000
1000
0000
0000
0000
,
0001
0100
0001
0010
,
0100
1000
0001
1000
0000
0010
0000
0010
,
0000
0100
0000
0001
1000
0000
0100
0000
,
1000
0100
0100
0001
0100
0100
2000
3000
,
0001
0100
0001
1000
0100
0010
0001
1000
0010
1000
0001
0010
0100
1000
0001
1000
,
0002
0003
1000
0100
0000
0100
0010
0000
,
0001
0100
0001
1000
0100
0010
0001
1000
,
0002
0000
0000
0003
;
