#TITLE:Read Or Die;
#SUBTITLE:- Read or Die OVA;
#ARTIST:岩崎琢;
#TITLETRANSLIT:;
#SUBTITLETRANSLIT:;
#ARTISTTRANSLIT:Taku Iwasaki;
#CREDIT:;
#BANNER:R.O.D banner.png;
#BACKGROUND:R.O.D-bg.png;
#LYRICSPATH:;
#CDTITLE:KOA_cdtitle.png;
#MUSIC:Theme of R.O.D. (long version).mp3;
#OFFSET:-0.400;
#SAMPLESTART:46.580;
#SAMPLELENGTH:14.300;
#SELECTABLE:YES;
#BPMS:0.000=125.000;
#STOPS:;
#BGCHANGES:;
// cache tags:
#FIRSTBEAT:16.000;
#LASTBEAT:460.000;
#SONGFILENAME:Songs/Otaku's Dream 1st Anime Mix/koa5001 - Read or Die (Long Version)/Read or Die.sm;
#HASMUSIC:1;
#HASBANNER:1;
#MUSICLENGTH:227.351;
// end cache tags

//---------------dance-single - ----------------
#NOTES:
     dance-single:
     :
     Challenge:
     8:
     0.523,0.733,0.356,0.255,0.387,693.000,81.000,58.000,0.000,0.000:
0000
0000
0000
0000
,
0000
0000
0000
0000
,
0000
0000
0000
0000
,
0000
0000
0000
0000
,
1000
0000
0001
0000
1000
0000
0001
0000
0010
0100
0010
0100
0000
1000
0001
0000
,
0010
0000
0100
0000
0010
0000
0100
0000
0001
1000
0001
1000
0000
0010
0100
0000
,
0001
0000
0010
0000
0100
0000
1000
0000
0010
1000
0010
1000
0000
0001
0100
0000
,
0010
0000
1000
0000
0100
0000
0010
0000
0001
0010
0001
0010
0000
0001
0100
0000
,
0010
0000
1000
0000
0001
0000
1000
0000
0100
0010
0100
0010
0000
0001
1000
0000
,
0100
0000
0010
0000
0001
0000
0100
0000
0010
1000
0010
1000
0000
0001
0100
0000
,
0001
1000
0100
0010
0001
0010
0100
1000
,
0000
1000
0100
0000
0010
0001
0000
0100
0000
0010
0100
0000
0001
1000
0001
1000
,
0002
0000
0000
0000
0000
0000
1000
0000
0000
0000
0000
0000
0000
0000
0000
1003
0000
0000
0000
0000
0001
0000
0000
0000
,
1000
0000
0000
0100
0000
0000
0010
0000
0001
0000
0000
0000
0100
0000
0000
0000
,
0020
0000
0000
0000
0000
0000
1000
0000
0000
0000
0000
0000
0000
0000
0000
0001
0000
0000
0000
0000
1000
0030
0000
0000
,
0001
0000
0000
0010
0000
0000
0100
0000
1000
0000
0000
0000
0010
0000
0000
0000
,
2000
0000
0000
0000
0002
0000
0000
3003
,
0000
0000
0000
0000
0000
0000
1000
0000
0000
0000
0000
0000
0000
0000
0000
0000
0100
0000
0000
0000
0000
0000
0000
0000
0001
0000
0000
0000
0000
0000
0000
0000
0000
0100
0000
0000
0000
0000
0000
0000
0000
0000
1000
0000
0000
0000
0000
0000
,
0200
0000
0300
1000
0002
0000
0000
0000
,
0003
0000
0000
0000
0000
0000
1000
0000
0000
0000
0000
0000
0000
0000
0000
0000
0100
0000
0000
0000
0000
0000
0000
0000
0010
0000
0000
0000
0000
0000
0000
0000
0000
0001
0000
0000
0000
0000
0000
0000
0000
0000
0100
0000
0000
0000
0000
0000
,
0020
0000
1000
0000
0000
0001
0000
0000
,
0000
0000
0000
0000
1030
0000
0000
0000
1000
0000
0000
0100
0000
0000
0001
0000
,
0020
0000
0030
1000
0200
0001
0000
0000
,
0000
0000
0000
0000
1300
0000
0000
0000
0000
0000
0000
0000
0010
0100
0010
0000
,
2002
0000
0000
3003
0000
0000
0110
0000
0000
0000
0000
0000
0000
0000
0000
0001
0000
0000
0000
0000
1000
0000
0000
0000
,
1010
0000
0000
0101
0000
0000
0011
0000
1100
0000
0000
0000
0110
0000
0000
0000
,
2002
0000
0000
3003
0000
0000
0110
0000
0000
0000
0000
0000
0000
0000
0000
0010
0000
0000
0000
0000
0100
0000
0000
0000
,
0101
0000
0000
1010
0000
0000
1100
0000
0011
0000
0000
0000
0110
0000
0000
0000
,
0220
0000
0000
0000
0000
0330
0000
0000
2002
0000
0000
0000
0000
0000
0000
0000
,
3003
0000
0000
0000
0000
0000
1000
0000
0000
0000
0000
0000
0000
0000
0000
0000
0010
0000
0000
0000
0000
0000
0000
0000
0001
0000
0000
0000
0000
0000
0000
0000
0000
0010
0000
0000
0000
0000
0000
0000
0000
0000
1000
0000
0000
0000
0000
0000
,
0002
0000
0003
1000
0200
0000
0000
0000
,
0300
0000
0000
0000
0000
0000
1000
0000
0000
0000
0000
0000
0000
0000
0000
0000
0001
0000
0000
0000
0000
0000
0000
0000
0100
0000
0000
0000
0000
0000
0000
0000
0000
0010
0000
0000
0000
0000
0000
0000
0000
0000
1000
0000
0000
0000
0000
0000
,
0200
0000
0000
0000
0000
0000
0000
0000
0000
0000
0000
0000
0300
0000
0000
1000
0000
0000
0000
0000
0001
0000
0000
0000
,
1010
0000
0000
0110
0000
0000
0101
0000
0011
0000
0000
0110
0000
0000
1100
0000
,
0120
0000
0100
0000
0000
0100
0000
0030
,
2001
0000
0001
0000
0000
0001
0000
3000
,
0100
0000
0010
0000
0000
0100
0000
0001
1000
0000
0001
1000
0001
1000
0001
1000
,
0010
0000
0100
0000
0000
0010
0000
1000
0001
0000
1000
0001
1000
0001
1000
0001
,
2000
0000
0000
0000
0000
0000
0100
0000
0000
0000
0000
0000
0000
0000
0000
0001
0000
0000
0000
0000
0010
3000
0000
0000
,
0100
0000
0000
0001
0000
0000
1000
0000
0010
0000
0000
0000
0100
0000
0000
0000
,
0002
0000
0000
0000
0000
0000
1000
0000
0000
0000
0000
0000
0000
0000
0000
0100
0000
0000
0000
0000
0010
0003
0000
0000
,
0100
0000
0000
1000
0000
0000
0001
0000
0100
0000
0000
0000
0010
0000
0000
0000
,
0220
0000
0000
0330
2002
0000
0000
0000
,
3003
0000
0000
0000
0000
0000
0100
0000
0000
0000
0000
0000
0000
0000
0000
0000
0010
0000
0000
0000
0000
0000
0000
0000
1000
0000
0000
0000
0000
0000
0000
0000
0000
0001
0000
0000
0000
0000
0000
0000
0000
0000
0100
0000
0000
0000
0000
0000
,
0020
0000
0030
1000
0002
0000
0000
0003
,
0000
0000
0000
0000
0000
0000
0100
0000
0000
0000
0000
0000
0000
0000
0000
0000
0010
0000
0000
0000
0000
0000
0000
0000
1000
0000
0000
0000
0000
0000
0000
0000
0000
0001
0000
0000
0000
0000
0000
0000
0000
0000
0100
0000
0000
0000
0000
0000
,
0010
0000
1000
0000
0001
0000
0100
0000
0010
0000
1001
0000
0000
0110
0000
0000
,
0010
0000
1000
0000
0100
0000
0001
0000
0100
0000
1000
0000
0000
0001
0000
0000
,
0010
0000
0100
0000
1000
0000
0010
0000
0100
0000
1001
0000
0000
0110
0000
0000
,
0001
0000
0100
0000
1000
0000
0100
0000
0001
0000
0100
0000
0000
1000
0000
0000
,
0100
0001
1000
0100
0010
0001
0100
0010
,
1000
0010
0100
0010
0100
0001
0010
0100
,
1000
0100
0001
0100
1000
0010
0001
0010
,
1000
0001
0100
0010
0100
0001
1000
0001
,
1000
0100
0000
0100
0000
0000
0100
0000
0100
0010
0000
0010
0000
0000
0010
0000
,
0010
0001
0000
0001
0000
0000
0001
0000
0001
0100
0000
0100
0000
0000
0100
0000
,
1010
0000
0101
0000
0000
0100
0000
0010
1000
0000
0100
0010
0100
0010
0100
0010
,
0011
0000
1100
0000
0000
0010
0000
1000
0001
0000
0100
0010
0100
0010
0100
0010
,
1000
0000
0000
0000
0001
0000
0000
1001
0000
0000
0000
0000
1000
0000
0001
0000
,
0001
0000
0000
0000
0000
0000
1000
0000
0000
0001
0000
0000
0000
0000
0000
1000
0000
0000
0000
0000
0001
0000
0000
0000
0000
0000
0000
0000
0000
0000
0200
0000
0000
0000
0000
0000
0000
0000
0000
0000
0000
0000
0000
0000
0000
0000
0000
0000
,
0300
1000
0001
0100
0010
1000
0100
0010
,
0001
0100
0010
2000
0002
0000
0000
3003
,
0001
0000
0000
0000
0000
0000
0010
0000
0000
0000
0000
0000
0100
0000
0000
0000
0000
0000
1000
0000
0000
0000
0000
0000
0010
0000
0000
0000
0000
0000
0000
0000
0000
0000
0000
0000
0000
0000
0000
0100
0000
0000
0010
0000
0100
0000
0000
0000
,
0001
0000
0000
0000
1000
0000
0000
0200
0000
0000
0000
0000
0000
0000
0000
0300
,
0000
1000
0010
1000
0100
0010
0001
0100
,
0001
0000
0010
0000
0001
0010
0000
0000
0100
1000
0000
0020
0000
0000
0200
0000
,
0000
0330
1001
0010
0100
0001
1000
0001
,
1000
0100
0001
0100
1000
0010
0001
0010
,
1000
0100
1000
0010
0100
0001
0010
0001
,
1000
0000
0001
0000
1000
0001
0000
0000
0010
0100
0000
0001
0000
1000
0001
0000
,
1000
0010
1000
0100
1000
0010
1000
0100
,
0010
0001
0100
0001
0010
0001
0100
0001
,
0010
0000
0100
0000
1000
0000
0010
0000
0220
0000
0000
0000
0000
0000
0000
0330
,
2002
0000
0000
0000
0000
0000
0000
0000
0000
0000
0000
0000
0000
0000
0000
3003
,
0020
0000
0000
0000
1000
0000
0000
0000
0130
0000
0110
0000
0000
1001
0000
0000
,
2000
0000
0000
0000
0001
0000
0000
0000
3100
0000
1100
0000
0000
0011
0000
0000
,
0002
0000
0000
0000
1000
0000
0000
0000
0103
0000
0101
0000
0000
1010
0000
0000
,
0200
0000
0000
0000
1000
0000
0000
0000
0301
0000
1001
0000
0000
0110
0000
0000
,
1000
0100
1000
0010
1000
0100
1100
0000
,
0001
0010
0001
0100
0001
0010
0011
0000
,
1000
0100
0010
0001
0100
0010
1001
0000
,
1000
0000
0010
0000
0100
0000
0001
0000
1000
0000
0000
0001
0000
0000
0001
0000
,
0010
0100
0000
0100
0000
0000
0100
0000
0100
1000
0000
1000
0000
0000
1000
0000
,
1000
0010
0000
0010
0000
0000
0010
0000
0010
0100
0000
0100
0000
0000
0100
0000
,
1001
0000
0110
0000
0000
0010
0000
1000
0001
0000
1000
0001
1000
0001
1000
0001
,
0110
0000
1001
0000
0000
0100
0000
0010
0100
0000
0010
0100
0010
0100
0010
0100
,
1010
0000
0101
0000
0000
0001
0000
1000
0100
0000
1000
0100
1000
0100
1000
0100
,
0011
0000
1100
0000
0000
0010
0000
1000
0001
0000
0100
0001
0100
0001
0100
0001
,
1000
0000
0000
0100
0000
0000
0010
0000
0001
0000
0000
1000
0000
0000
0001
0000
,
1000
0000
0000
0100
0000
0000
0001
0000
0010
0000
0000
1000
0000
0000
0100
0000
,
1000
0000
0000
0001
0000
0000
0100
0000
0010
0000
0000
1000
0000
0000
0100
0000
,
0010
0000
0000
0001
0000
0000
0100
0000
0010
0000
0000
1000
0000
0000
0001
0000
,
1000
0000
0100
0000
0010
0000
0001
0000
0100
0001
0100
0001
0000
0001
1000
0000
,
0100
0000
0010
0000
0001
0000
0100
0000
0010
0100
0010
0100
0000
0001
1000
0000
,
0011
1100
1010
0101
1001
1100
1001
0101
,
0000
1000
0100
0000
0010
0001
0000
0000
1000
0100
0001
0100
1000
0100
0001
0100
,
2000
0000
0000
0000
0000
0000
0001
0000
0000
0000
0000
0000
0000
0000
0000
3010
0000
0000
0000
0000
0001
0000
0000
0000
,
1000
0000
0000
0100
0000
0000
0010
0000
0001
0000
0000
0000
0100
0000
0000
0000
,
0020
0000
0000
0000
0000
0000
1000
0000
0000
0000
0000
0000
0000
0000
0000
0001
0000
0000
0000
0000
1000
0030
0000
0000
,
0001
0000
0000
0010
0000
0000
0100
0000
1000
0000
0000
0000
0010
0000
0000
0000
,
2000
0000
0000
0000
0002
0000
0000
3003
,
0000
0000
0000
0000
0000
0000
1000
0000
0000
0000
0000
0000
0000
0000
0000
0000
0100
0000
0000
0000
0000
0000
0000
0000
0001
0000
0000
0000
0000
0000
0000
0000
0000
0100
0000
0000
0000
0000
0000
0000
0000
0000
1000
0000
0000
0000
0000
0000
,
0200
0000
0300
1000
0002
0000
0000
0000
,
0003
0000
0000
0000
0000
0000
0100
0000
0000
0000
0000
0000
0000
0000
0000
0000
0010
0000
0000
0000
0000
0000
0000
0000
1000
0000
0000
0000
0000
0000
0000
0000
0000
0001
0000
0000
0000
0000
0000
0000
0000
0000
0100
0000
0000
0000
0000
0000
,
0010
0000
0000
0010
1000
0000
0000
1000
0100
0000
0000
0100
1000
0000
0000
1000
,
0100
0000
0000
0100
0010
0000
0000
0010
0001
0000
0000
0001
1000
0000
0000
1000
,
0010
0000
0000
0010
0100
0000
0000
0100
0001
0000
0000
0001
0100
0000
0000
0100
,
0010
1000
2002
0000
0000
0000
0000
3003
,
0001
0100
1000
0100
0001
0010
1000
0010
,
0001
0100
0001
0010
0100
1000
0010
0100
,
1001
0000
0000
0110
0000
0000
1001
0000
0110
0000
0000
1001
0000
0000
0110
0000
,
1010
0000
0000
0110
0000
0000
0101
0000
0011
0000
0000
0110
0000
0000
1100
0000
,
0000
0000
2002
0000
3003
0220
0000
0330
,
2002
0000
0000
0000
,
0000
0000
0000
0000
,
3003
0000
0000
0000
;
