#TITLE:Objection 2001;
#SUBTITLE:(Phoenix Wright);
#ARTIST:Akemi Kimura;
#TITLETRANSLIT:;
#SUBTITLETRANSLIT:;
#ARTISTTRANSLIT:;
#CREDIT:;
#BANNER:Phoenix-Objection-banner.png;
#BACKGROUND:Phoenix-Objection-bg.png;
#LYRICSPATH:;
#CDTITLE:PhoenixW-cdtitle.png;
#MUSIC:06 Track 6 Ryuuichi Naruhodou ~ Objection 2001.mp3;
#OFFSET:-0.363;
#SAMPLESTART:12.434;
#SAMPLELENGTH:14.000;
#SELECTABLE:YES;
#BPMS:0.000=119.400;
#STOPS:;
#BGCHANGES:;
// cache tags:
#FIRSTBEAT:0.000;
#LASTBEAT:157.500;
#SONGFILENAME:Songs/toune/Track 6 Ryuuichi Naruhodou ~ Objection 2001/06 Track 6 Ryuuichi Naruhodou ~ Objection 2001.sm;
#HASMUSIC:1;
#HASBANNER:1;
#MUSICLENGTH:82.677;
// end cache tags

//---------------dance-single - ----------------
#NOTES:
     dance-single:
     :
     Challenge:
     9:
     0.658,0.643,0.871,0.000,0.333,309.000,72.000,0.000,0.000,0.000:
1000
0100
0010
0001
0100
0010
1000
0001
,
0110
0000
0000
0110
0000
0000
0110
0000
0000
0101
0000
0000
1010
0000
1010
0000
,
0001
0100
0010
1000
0100
0010
0001
1000
,
0100
0000
0010
0000
0100
0000
1000
0000
0001
0010
0001
0100
0000
0010
1000
0001
,
0000
1000
0100
0010
0001
0100
0010
1000
,
0001
0100
1000
0100
1001
0011
0011
1001
,
1000
0100
1000
0000
0110
0000
0001
0000
0110
0000
1000
0000
0101
0000
0010
0000
,
1100
0000
0010
0000
0101
0000
1000
0000
0001
0010
0001
0000
0100
0000
0010
1000
,
1001
0100
0011
0100
1010
0001
0110
1000
,
0110
0000
0001
0000
1010
0000
0100
0000
0001
0010
1100
0000
0100
0000
0011
0000
,
1001
0000
0100
0000
1010
0000
0100
0000
0001
0010
0001
0000
1001
0000
0100
0000
,
1010
0000
0110
0000
0011
0000
0000
1000
0000
0001
1001
0000
0010
0000
0101
0001
,
1000
0000
0010
0000
0110
0000
0000
0001
0000
0010
0001
0000
0010
0000
0000
1000
,
0100
0000
0000
0000
1000
0000
0100
1000
0000
0100
0000
0000
1000
0000
1001
0010
,
0100
0000
0000
0000
0010
0000
0100
0010
0000
0100
0000
0000
0010
0000
0000
0001
,
0100
0000
0000
0000
0001
0000
1000
0001
0000
1000
0010
0000
1000
0000
0101
0010
,
0000
0000
0000
0000
1000
0000
0001
0100
0001
1000
0000
0000
0110
0000
0000
0000
,
0001
0100
0001
0000
0010
0000
0000
0100
0000
0000
1000
0010
0000
0100
0000
0000
,
1000
0001
0010
0100
1000
0001
0100
0010
,
1000
0000
0000
1010
0000
0000
0101
0000
0000
0010
0100
0000
1001
0000
1001
0000
,
0100
0001
0010
1000
0100
0001
0010
0100
,
1000
0000
0000
0110
0000
0000
0110
0000
0000
1001
0000
0000
1100
0000
0011
0000
,
1000
0010
0100
1000
0001
0010
1000
0100
,
0011
0000
0000
0011
0000
0000
1001
0000
0000
1010
0000
0000
1001
0000
1001
0000
,
0100
0010
1000
0100
0010
0001
0010
0100
,
1001
0000
0000
1001
0000
0000
0101
0000
0000
1000
0001
0000
0110
0000
0110
0000
,
1000
0001
0010
0100
1000
0001
0100
0010
,
1000
0001
0001
0001
0001
0000
0100
0100
,
0001
0010
1000
0010
0001
0100
0010
1000
,
0001
0000
1000
1000
0100
0010
0001
0000
,
1000
0010
0100
0001
0010
0100
1000
0001
,
0100
0000
0000
0110
0000
0000
0010
0000
0000
0110
0000
0000
0001
0000
1000
0100
,
1000
0010
0100
0001
1000
0001
0100
0010
,
1000
0000
0000
1001
0000
0000
0001
0000
0000
0101
0000
0000
0010
0000
0010
0100
,
0010
1000
0001
0010
1100
1001
0011
0110
,
1001
0000
0000
0101
0000
0000
0100
0000
0010
0100
0000
0010
0100
0010
0100
0010
,
0100
0001
1000
0010
0100
0001
0010
0100
,
1000
0000
0000
1001
0000
0000
0101
0000
0000
0011
0000
0000
1100
0000
1000
0001
,
1000
0010
0100
0001
0010
0001
1000
0100
,
0011
0000
0000
1100
0000
0000
1001
0000
0000
0000
0000
0000
0000
0000
0000
0000
;

//---------------dance-single - Copied from----------------
#NOTES:
     dance-single:
     Copied from:
     Hard:
     8:
     0.539,0.476,0.024,0.073,0.224,304.000,2.000,6.000,0.000,0.000:
1000
0100
1000
0100
0010
0001
0010
0001
,
1000
0000
0000
1000
0000
0000
1000
0000
0000
0001
0000
0000
1000
0000
0100
0000
,
0010
0001
1000
0100
1000
0100
0010
0001
,
0010
0100
1000
0001
0100
0001
2000
0000
,
3010
1000
0100
0010
0001
0100
0010
1000
,
0001
0010
0001
0010
0001
1000
1000
1000
,
0001
0010
0100
1000
0001
0010
0100
1000
,
0010
0100
0001
1000
0010
0100
0001
0010
,
0100
1000
0001
0010
0100
1000
0010
0100
,
0010
1000
0100
1000
0001
0100
0002
0000
,
1003
0010
1000
0001
0010
0001
0100
0010
,
0100
0001
1000
0001
0100
0010
2000
0001
,
3001
0010
0100
1000
0001
0001
0001
1000
,
0001
0000
0000
0100
0010
0000
0100
0000
0000
0010
0100
0010
0000
0000
0010
0000
,
0010
1000
0001
0010
1000
0100
0001
0010
,
1000
0000
0000
0001
1000
0000
0001
0000
0000
1000
0001
0000
1000
0000
1000
0000
,
0010
0100
0001
0010
0100
1000
0001
0100
,
1000
0000
0000
0001
0100
0000
0001
0000
0000
0100
0001
0000
0020
0000
0000
0000
,
0031
0100
0001
0100
0010
1000
0010
1000
,
0001
0000
0000
0100
0010
0000
0100
0000
1001
0000
0000
0001
0100
0000
0001
0000
,
0010
0100
1000
0001
0100
1000
0010
0100
,
0001
0000
0000
1000
0000
0000
0001
0000
0000
1000
0000
0000
2000
0000
0001
0000
,
3010
0100
0010
0100
0010
1000
0100
0010
,
0001
0000
0000
1000
0000
0000
0010
0000
0100
0010
0100
0010
0100
0010
0100
0010
,
0100
0001
0010
0100
1000
0001
0010
0100
,
1000
0000
0000
0010
0000
0000
0100
0000
0000
0000
0000
0000
0001
0000
0001
0000
,
1000
0010
0100
0001
1000
0010
0100
0001
,
1000
0000
0000
0010
0000
0000
0010
0000
0000
1000
0000
0000
0002
0000
1000
0000
,
0013
0100
0010
0100
0010
0001
0100
0010
,
1000
0000
0000
0001
0000
0000
1000
0000
0000
0001
0000
0000
1000
0000
1000
0000
,
0001
0001
0010
0010
0100
0100
1000
1000
,
0010
0000
0000
0010
0000
0000
0010
0000
0000
0010
0000
0000
0100
0000
0001
0010
,
0001
0010
0100
1000
0001
1000
0100
0010
,
0001
0000
0000
1000
0000
0000
1000
0000
0000
0100
0000
0000
0010
0000
0100
0010
,
0100
0001
0010
0100
1000
1000
0001
0001
,
0100
0000
0000
0100
0000
0000
0100
0000
0001
1000
0001
1000
0001
1000
0001
1000
,
0001
0100
0010
1000
0100
0001
0010
1000
,
0001
0000
0000
0001
0000
0000
0001
0000
1001
0000
0000
0000
1000
0000
0001
0100
,
0001
1000
1000
0100
0010
0001
0001
0100
,
0010
0000
0000
1000
0000
0000
0001
0000
0000
0000
0000
0000
0000
0000
0000
0000
;

//---------------dance-single - Copied from----------------
#NOTES:
     dance-single:
     Copied from:
     Medium:
     6:
     0.416,0.405,0.145,0.109,0.097,220.000,12.000,9.000,0.000,0.000:
1000
0000
0001
0100
0001
0000
1000
0000
,
0001
0000
0000
1000
0000
0000
0001
0000
0000
1000
0000
0000
0001
0000
0001
0000
,
0100
0000
0010
1000
0010
0000
0100
0000
,
0001
0000
1000
0100
0010
0001
2000
0000
,
3001
0000
1000
0001
1000
0000
0010
1000
,
0010
0000
0100
0001
0100
0000
0010
0000
,
1000
0000
0001
0100
0001
0000
1000
0100
,
1000
0000
0010
0100
0010
0000
1000
0001
,
1000
0000
0001
0010
0100
0000
1000
0010
,
0100
0000
0001
0100
0010
1000
0002
0000
,
1003
0100
1000
0100
1000
0001
0100
0001
,
0100
0001
1000
0100
1000
0010
1000
0001
,
1000
0100
1001
1001
,
0001
0010
0110
0110
,
0010
0000
1000
0100
1000
0000
0001
0010
,
0001
1000
0101
1010
,
0001
0000
0001
1000
0001
0000
1000
0001
,
1000
0000
0000
0001
0000
0000
0001
0000
0000
0001
0000
0000
2000
0000
0000
0000
,
3001
0001
1000
1000
,
0001
1100
0011
1000
,
0001
0000
0100
0010
0100
0000
0010
0100
,
0010
0000
0000
0100
0000
0000
0010
0000
0000
0100
0000
0000
0020
0000
0000
0000
,
0130
0000
0001
0010
0001
0000
1000
0010
,
1000
0000
0001
0000
1000
1001
0001
1001
,
1000
0010
0100
0001
1000
0001
0010
0100
,
1000
0000
0000
0010
0000
0000
0200
0000
0000
0000
0300
0000
0001
0000
0001
0000
,
1000
0010
0100
0001
1000
0100
0010
0001
,
1000
0000
0000
1000
0000
0000
1000
0000
0000
1000
0000
0000
0002
0000
0000
0000
,
1003
0100
1000
0100
0010
0001
0010
0001
,
1000
0000
0000
0001
0000
0000
1000
0000
0000
0001
0000
0000
2000
0000
0000
0000
,
3001
0010
0100
1000
,
0010
0000
0000
0010
0000
0000
0020
0000
0000
0000
0030
0000
0000
0000
0100
0000
,
0100
0001
0010
0100
,
1000
0000
0000
0001
0000
0000
0100
0000
0000
0001
0000
0000
1000
0000
1000
0000
,
0001
0010
0001
0000
0100
0000
0010
1000
,
0010
0000
0100
0000
0010
0110
0100
0110
,
0100
0010
1000
0001
,
0100
0000
0000
0001
0000
0000
0200
0000
0000
0000
0300
0000
0010
0000
0010
0000
,
1000
0100
1000
0000
0001
0000
0100
0010
,
0100
0000
0000
0001
0000
0000
1000
0000
0000
0000
0000
0000
0000
0000
0000
0000
;

//---------------dance-single - Copied from Copied f----------------
#NOTES:
     dance-single:
     Copied from Copied f:
     Easy:
     4:
     0.271,0.261,0.073,0.230,0.000,132.000,6.000,19.000,0.000,0.000:
1000
0001
1000
0001
,
2002
0000
0000
0000
0000
0000
0000
3003
,
0010
1000
0100
0010
,
0001
0010
0100
2001
,
3001
0001
0100
0010
,
0010
0000
1000
0000
0200
0000
0000
0300
,
0010
0001
0001
0100
,
0010
0100
0010
1000
,
0100
1000
0001
0010
,
0001
1000
0001
1002
,
0103
0010
1000
0001
,
0010
0100
1000
0001
,
0010
0100
1000
1000
,
0200
0000
0000
0000
0000
0000
0000
0300
,
1000
0001
0010
0100
,
2000
0000
0010
0000
0100
0000
0002
3000
,
0013
0010
0100
0100
,
2000
0000
0000
0000
0001
0000
0010
3000
,
0100
0010
0001
1000
,
0001
0000
1000
0000
,
0010
0100
0001
0010
,
0100
0000
1000
0020
,
0130
0001
1001
1001
,
2000
0000
0000
0000
0001
0000
0001
3000
,
0010
0100
1000
0001
,
0200
0000
0000
0000
0000
0000
0000
0300
,
1000
1000
0001
0001
,
1000
0000
0100
0020
,
0031
1000
0001
1000
,
0020
0000
0000
0000
0000
0000
0000
0030
,
1000
0001
0100
0001
,
2000
0000
0000
0000
0000
0000
0000
3000
,
0010
1000
0100
0010
,
0002
0000
1000
0000
0100
0000
0020
0003
,
0130
1000
0100
0010
,
0002
0000
0000
0000
1000
0000
1000
0003
,
0100
0010
0001
0010
,
0200
0000
0000
0000
0000
0000
0000
0300
,
1000
0001
0010
0001
,
0100
1001
0000
0000
;
