#TITLE:Men In Black;
#SUBTITLE:;
#ARTIST:Will Smith;
#TITLETRANSLIT:;
#SUBTITLETRANSLIT:;
#ARTISTTRANSLIT:;
#CREDIT:;
#BANNER:;
#BACKGROUND:;
#LYRICSPATH:;
#CDTITLE:;
#MUSIC:Men_in_Black_(Will_Smith_-_Men_in_Black).mp3;
#OFFSET:-0.080;
#SAMPLESTART:100.000;
#SAMPLELENGTH:12.000;
#SELECTABLE:YES;
#BPMS:0.000=107.580;
#STOPS:;
#BGCHANGES:;
// cache tags:
#FIRSTBEAT:16.500;
#LASTBEAT:260.500;
#SONGFILENAME:Songs/toune 8/Men_in_Black_(Will_Smith_-_Men_in_Black)/Men_in_Black_(Will_Smith_-_Men_in_Black).sm;
#HASMUSIC:1;
#HASBANNER:0;
#MUSICLENGTH:232.429;
// end cache tags

//---------------dance-single - ----------------
#NOTES:
     dance-single:
     :
     Challenge:
     10:
     0.391,0.420,0.112,0.082,0.540,591.000,26.000,19.000,0.000,0.000:
0000
0000
0000
0000
,
0000
0000
0000
0000
,
0000
0000
0000
0000
,
0000
0000
0000
0000
,
0000
1000
1000
0001
0001
0100
0100
0010
,
0010
0000
0010
0000
1000
0000
0100
0000
0000
0000
0100
0010
0000
0010
0001
0000
,
0000
1000
0100
0010
0001
0010
0001
0000
0001
1000
0001
0000
1000
0100
0010
0100
,
0010
0001
0100
0000
0001
1000
0100
0000
0010
0001
0010
0001
0010
0001
0000
0000
,
1001
0000
1000
0001
0000
0010
1000
0000
0010
1000
0010
1000
0100
0010
0001
0000
,
0001
1000
0010
1000
0001
1000
0100
0000
0020
0030
1000
0001
0000
0100
0001
0000
,
0100
0010
1000
0010
1000
0100
0020
0000
0030
0000
0000
0000
0100
0000
0100
0000
,
0100
1000
0001
1000
0001
1000
0100
0000
0010
0001
1000
0000
0100
0000
0010
0000
,
0001
0000
0100
0000
0000
0000
2002
0000
3003
0000
0010
0010
0000
0010
0000
0000
,
0000
1000
0100
0000
0010
0000
0001
0000
0100
0010
0000
0010
1000
0010
1000
0000
,
0001
0000
0000
1000
0000
0000
0001
0000
0000
0000
0000
0000
1000
0000
0000
0100
0000
0000
0010
0000
0000
0001
0000
0000
1000
0000
0000
0001
0000
0000
0000
0000
0000
1000
0000
0000
0001
0000
0000
0000
0010
0000
0000
0000
0000
0000
0001
0000
,
0000
0000
0000
0000
1000
1000
0001
1000
0100
0010
0000
0000
0010
0001
0100
0010
,
1000
0000
0000
1000
0100
0010
0001
0010
0001
0010
0000
0100
0010
0100
0010
0001
,
1000
0000
0000
0100
0010
0100
0010
0001
0010
0000
1000
0000
1000
0100
0000
0010
,
0001
0000
0000
0000
0000
0000
0001
0000
0000
0010
0000
0000
0100
0000
0000
1000
0000
0000
0100
0000
0000
0000
0000
0000
0010
0000
0000
0001
0000
0000
0100
0000
0000
0000
0000
0000
0011
0000
0000
0000
0110
0000
0000
0000
0000
0000
0000
0000
,
1100
0000
0000
0000
0000
0000
0000
0000
0000
0100
0000
0000
0010
0000
0000
0001
0000
0000
0010
0000
0000
0001
0000
0000
0010
0000
0000
0000
0000
0000
0001
0000
0000
0000
0000
0000
1000
0000
0000
0100
0000
0000
0000
0000
0000
0000
0010
0000
,
0000
0110
0000
0010
0001
1000
0100
1000
0100
0010
0001
1000
0001
1000
0010
1000
,
0000
0001
0010
0000
1000
0100
1000
0000
0010
0000
0001
0100
0010
1000
0000
0000
,
0001
0000
0000
1000
0000
0000
0000
0000
0000
0010
0000
0000
0000
0000
0000
1000
0000
0000
0010
0000
0000
0000
0000
0000
1000
0000
0000
0000
0100
0000
0000
0000
0000
0010
0000
0000
0001
0000
0000
0000
0000
0000
0100
0000
0000
0010
0000
0000
,
1000
0000
0000
0000
0001
1000
0100
0010
0001
0000
0110
0000
1000
0100
0000
0000
,
0010
0010
0001
0010
0100
0000
1000
0000
0100
0010
0100
0010
0001
0010
0000
1000
,
0100
0000
0000
0000
2002
0000
3003
0000
0220
0330
0010
1000
0001
0010
0100
0000
,
0000
1000
0100
0010
0001
0010
0001
0000
1000
0100
0010
0001
1000
0100
0010
0001
,
0010
0001
1000
0000
0001
1000
0010
0000
0010
1000
0010
1000
0100
0010
0001
0000
,
0001
0000
1000
0001
1000
0001
0100
0000
0010
1000
0010
1000
0100
0010
0001
0000
,
0001
1000
0010
1000
0001
1000
0100
0000
0100
0000
1000
0001
0000
0100
0001
0000
,
0100
0010
1000
0010
1000
0100
0020
0000
0030
0001
0010
0100
1000
0100
0010
0000
,
0010
1000
0001
1000
0001
1000
0100
0000
0010
0001
1000
0000
0100
0000
0010
0000
,
0001
0000
0100
0000
0000
0000
2002
0000
3003
0000
0010
1000
0100
0000
0010
0001
,
0100
0001
0100
0000
1000
0001
0100
0000
0010
1000
0010
0000
1000
0001
0000
1000
,
0100
1000
0010
0100
0010
0000
0011
0000
1010
0000
0100
0010
0100
0010
1000
0010
,
1000
0000
1001
0000
0010
1000
0000
0100
1000
0010
1000
0010
1000
0100
0010
0000
,
0000
0001
0010
0100
1000
1100
0000
0000
0010
0001
0100
0000
0010
1000
0100
0010
,
0001
0010
0000
0000
1000
0001
1000
0000
1000
0100
0000
0010
0001
0100
0001
0100
,
0001
0000
0000
0000
1000
0010
1000
0100
0010
0001
0010
0000
0001
1000
0001
0010
,
0001
0010
0100
0000
0010
0001
0010
0001
0010
0000
0000
0000
0001
1000
0001
1000
,
0001
0100
0000
0000
0010
1000
0100
0010
0001
0010
0000
0100
0010
0100
0001
1000
,
0001
0000
0000
0000
0000
0000
0000
0000
0000
0010
0000
0000
1000
0000
0000
0100
0000
0000
0010
0000
0000
0000
0000
0000
0001
0000
0000
0001
0000
0000
0010
0000
0000
0100
0000
0000
0010
0000
0000
0001
0000
0000
0000
0000
0000
0000
1000
0000
,
0100
0000
1000
0000
0100
0000
1000
0000
0000
0000
0000
0000
0000
0000
0000
0010
0000
0000
0001
0000
0000
0100
0000
0000
0010
0000
0000
1000
0000
0000
0010
0000
0000
1000
0000
0000
0100
0000
0000
0010
0000
0000
0001
0000
0000
1000
0000
0000
,
0100
0010
0000
0000
0001
1000
0100
0010
0001
0010
0100
1000
0100
1000
0100
0010
,
0001
0010
0001
0010
0001
0010
0100
1000
0100
0000
0000
0100
1000
0010
1000
0100
,
0010
0000
0000
0001
1000
0000
0010
0000
1000
0000
0100
0000
0010
0000
0010
0001
,
0010
0100
1000
0000
0100
0000
0010
0000
1000
0001
0100
0000
0010
0000
0100
0010
,
0001
0000
0000
0010
0000
0000
0001
0000
0000
0000
0000
0000
1000
0000
0000
0100
0000
0000
0000
0000
0000
0000
0011
0000
0000
0000
0000
0000
0000
0000
1000
0000
0000
0001
0000
0000
0010
0000
0000
0100
0000
0000
0010
0000
0000
0001
0000
0000
,
0010
0000
0000
0000
0000
0000
1000
0000
0000
0100
0000
0000
0000
0000
0000
0000
0010
0000
0000
0000
0000
0000
0000
0000
0001
0000
0000
0000
0000
0000
0011
0000
0000
0000
0000
0000
0000
0000
0000
0000
1010
0000
0000
0000
0000
0000
0000
0000
,
0202
0303
0000
0000
0000
0000
0000
0000
,
0000
0000
0000
0000
,
0000
0000
0000
0000
,
0000
0000
0000
0000
,
0000
0000
0000
0000
,
0000
0000
0000
0000
,
0000
0000
0000
0000
,
0000
0000
0000
0000
0000
0000
0000
0000
0000
0000
0000
0000
0010
1000
0100
0000
,
0011
0000
0010
0000
1000
0100
0000
1000
0100
0000
0011
0000
0001
1000
0000
1000
,
0001
0000
1100
0000
0010
0001
0000
0001
1000
0001
0000
1000
0100
1000
0100
0010
,
0001
0000
0110
0000
0010
0100
0000
0010
0100
0000
1001
0000
1000
0001
0000
0001
,
0100
0000
1100
0000
0001
1000
0000
0010
1000
0010
0000
0010
1000
0100
0010
0001
,
0010
0001
0010
0000
1000
0100
0000
0010
0001
0100
0010
0000
0010
1000
0000
1000
,
0100
0010
0001
0000
0001
1000
0000
0100
0010
0001
0000
1000
0001
0100
0010
0000
,
0100
0000
0000
0000
,
0110
2020
3030
0002
0003
0020
0030
0200
,
2300
3000
0000
0000
0000
0000
0000
0000
;
