#TITLE:Amore;
#SUBTITLE:- Nightcore;
#ARTIST:Camilot;
#TITLETRANSLIT:;
#SUBTITLETRANSLIT:;
#ARTISTTRANSLIT:;
#CREDIT:Zeph;
#BANNER:../Zeppelin_bn.png;
#BACKGROUND:../bg_Zeppelin.png;
#LYRICSPATH:;
#CDTITLE:../cdtitle_ZAiA.png;
#MUSIC:Camilot - Amore.ogg;
#OFFSET:-0.979;
#SAMPLESTART:86.800;
#SAMPLELENGTH:11.980;
#SELECTABLE:YES;
#BPMS:0.000=157.210;
#STOPS:;
#BGCHANGES:;
// cache tags:
#FIRSTBEAT:15.000;
#LASTBEAT:488.000;
#SONGFILENAME:Songs/Cirque du Zeppelin/Amore - [Zaia]/Amore.sm;
#HASMUSIC:1;
#HASBANNER:1;
#MUSICLENGTH:191.503;
// end cache tags

//---------------dance-single - 3-3-15/3-3-15/3-3-23----------------
#NOTES:
     dance-single:
     3-3-15/3-3-15/3-3-23:
     Challenge:
     13:
     1.000,1.000,0.031,0.423,1.000,1430.000,6.000,81.000,4.000,0.000:
0000
0000
0000
0000
,
0000
0000
0000
0000
,
0000
0000
0000
0000
,
0000
0000
0000
0000
0000
0000
2000
3002
,
0203
0000
0000
0320
0030
0000
2000
0000
,
3002
0000
0003
0000
0000
0000
1000
0001
1000
0000
0010
0000
0100
0000
0001
0000
,
0020
0030
0000
0200
0300
0000
2000
0000
,
3001
0000
0000
0000
0000
1000
0010
1000
,
0001
0000
0000
0010
0001
0000
1000
0000
0100
0000
1000
0000
0001
0000
0100
0000
,
0010
0100
0001
0010
0000
0100
1000
0001
,
0100
0000
0000
0010
0100
0000
0001
0000
1000
0000
0100
0000
0010
0000
0100
0000
,
1000
0010
0100
0001
0000
1000
0001
0010
,
0011
0000
0000
0001
1000
0000
0010
0000
0100
0000
0001
0000
0010
0000
0001
0000
,
0100
0010
1000
0001
0000
0010
0100
1000
,
0001
0000
0000
1000
0010
0000
0100
0000
0001
0000
1000
0000
0100
0000
1000
0000
,
0010
0100
0001
0010
0000
0200
2000
0300
,
3001
0100
0010
0100
0001
1000
0001
0010
0100
1000
0100
0010
0001
1000
0001
0100
,
0001
0010
0100
1000
0001
1000
0010
0100
0010
1000
0001
0100
0001
1000
0010
1000
,
0001
0010
0100
0010
0001
1000
0010
0100
0001
0010
0001
1000
0100
1000
0010
0100
,
0002
0000
0000
2003
0000
3000
0000
0001
,
1000
0100
0010
0100
1000
0001
1000
0010
0100
0001
0100
0010
1000
0001
1000
0100
,
1000
0010
0100
0001
1000
0001
0010
0100
0010
0001
1000
0100
1000
0001
0010
0001
,
1000
0010
0100
0010
1000
0001
0010
0100
1000
0010
1000
0001
0100
0001
0010
0100
,
2000
0000
0000
3002
0000
0000
0203
0000
,
0310
1000
0001
0100
0001
0010
0100
1000
0001
1000
0010
0100
0001
1000
0001
0010
,
0100
0010
0001
1000
0001
0100
0010
1000
0100
1000
0001
1000
0010
0100
0001
0010
,
0100
1000
0100
0010
0001
0100
0010
1000
0001
1000
0100
0010
0001
0100
0001
0010
,
0100
0010
0001
1000
0001
0100
0010
0100
0001
1000
0010
1000
0001
0010
0100
1000
,
0001
0100
0001
1000
0100
1000
0010
0100
0001
1000
0001
0010
0100
1000
0001
1000
,
0010
0100
0010
1000
0001
1000
0100
0010
0001
0100
0001
1000
0001
0010
0100
1000
,
0010
0100
0001
0100
0010
1000
0100
0010
0001
1000
0001
0100
0010
1000
0100
1000
,
0010
0100
0010
1000
0001
1000
0100
0010
0100
1000
0001
0100
0001
0010
0100
1000
,
0001
1000
0010
1000
0001
0010
0001
1000
0100
0010
0100
1000
0010
0100
0010
0100
,
0001
1000
0100
1000
0001
0010
0100
1000
0001
1000
0010
0100
0001
1000
0010
1000
,
0100
0010
0001
1000
0001
0100
0001
0010
0100
1000
0001
1000
0010
0100
0010
1000
,
0001
0010
0100
0010
0001
1000
0001
1000
0010
0100
0001
1000
0001
0010
0001
0100
,
0010
1000
0001
0010
0001
1000
0010
1000
0001
0100
0010
0100
0001
0010
0100
0010
,
0100
1000
0001
0100
0001
1000
0010
0100
0001
1000
0001
0010
0100
1000
0001
0010
,
0001
0100
0010
1000
0001
1000
0100
1000
0010
0100
0001
1000
0001
0010
0100
0010
,
0002
0000
0000
0000
0003
1000
0100
1000
,
0001
0000
0000
0100
0001
0000
1000
0000
0010
0000
1000
0000
0001
0000
0010
0000
,
0100
0010
0001
0100
0000
0010
1000
0001
,
0010
0000
0000
0100
0010
0000
0001
0000
1000
0000
0010
0000
0100
0000
0010
0000
,
1000
0100
0010
0001
0000
1000
0001
0100
,
0101
0000
0000
0001
1000
0000
0100
0000
0010
0000
0001
0000
0100
0000
0001
0000
,
0010
0100
1000
0001
0000
0100
0010
1000
,
0001
0000
0000
1000
0100
0000
0010
0000
0001
0000
1000
0000
0010
0000
1000
0000
,
0100
0010
0001
0100
0000
0020
2000
0030
,
3001
0010
0100
0010
0001
1000
0001
0100
0010
1000
0010
0100
0001
1000
0001
0010
,
0001
0100
0010
1000
0001
1000
0100
0010
0100
1000
0001
0010
0001
1000
0100
1000
,
0001
0100
0010
0100
0001
1000
0100
0010
0001
0100
0001
1000
0010
1000
0100
0010
,
0002
0000
0000
2003
0000
3000
0000
0001
,
1000
0010
0100
0010
1000
0001
1000
0100
0010
0001
0010
0100
1000
0001
1000
0010
,
1000
0100
0010
0001
1000
0001
0100
0010
0100
0001
1000
0010
1000
0001
0100
0001
,
1000
0100
0010
0100
1000
0001
0100
0010
1000
0100
1000
0001
0010
0001
0100
0010
,
2000
0000
0000
3002
0000
0000
0023
0000
,
0130
1000
0001
0010
0001
0100
0010
1000
0001
1000
0100
0010
0001
1000
0001
0100
,
0010
0100
0001
1000
0001
0010
0100
1000
0010
1000
0001
1000
0100
0010
0001
0100
,
0010
1000
0010
0100
0001
0010
0100
1000
0001
1000
0010
0100
0001
0010
0001
0100
,
0010
0100
0001
1000
0001
0010
0100
0010
0001
1000
0100
1000
0001
0100
0010
1000
,
0001
0010
0001
1000
0010
1000
0100
0010
0001
1000
0001
0100
0010
1000
0001
1000
,
0100
0010
0100
1000
0001
1000
0010
0100
0001
0010
0001
1000
0001
0100
0010
1000
,
0100
0010
0001
0010
0100
1000
0010
0100
0001
1000
0001
0010
0100
1000
0010
1000
,
0100
0010
0100
1000
0001
1000
0010
0100
0010
1000
0001
0010
0001
0100
0010
1000
,
0001
0010
0001
1000
0001
0100
0010
1000
0001
0010
0100
1000
0001
0100
0001
0010
,
0001
1000
0010
1000
0001
1000
0100
0010
0001
1000
0010
0100
0001
1000
0100
1000
,
0010
1000
0001
0100
0001
1000
0010
0100
0001
1000
0100
0010
0001
1000
0010
1000
,
0100
1000
0001
0010
0001
0100
0010
0100
0001
0010
0100
0010
0001
1000
0001
1000
,
0010
0100
0001
1000
0001
0010
0100
1000
0001
0100
0010
1000
0001
0010
0001
0100
,
0001
1000
0100
1000
0001
1000
0010
0100
0001
1000
0100
0010
0001
1000
0010
1000
,
0100
1000
0001
0010
0001
1000
0100
0010
0001
1000
0010
0100
0001
1000
0100
1000
,
0001
0000
0022
0033
2002
0000
3003
0000
,
1000
0000
0000
0010
0000
0000
0100
0000
0000
0000
0001
0000
0000
0000
0000
0000
,
1000
0000
0000
0001
0000
0000
0010
0000
0000
0000
0001
0000
0000
0000
0000
0000
,
1000
0000
0000
0100
0000
0000
0010
0000
0000
0000
0001
0000
0000
0000
0000
0000
,
1000
0000
0000
0001
0000
0000
0100
0000
0000
0000
0010
0000
0000
0000
0000
0000
,
1000
0000
0001
0000
0010
0000
0001
0000
0100
0000
0010
0000
1000
0001
0100
0001
,
0010
0100
1000
0001
0100
0001
0101
0000
,
1010
0000
1000
0000
0010
0000
1000
0000
0100
0000
0010
0000
0001
1000
0100
1000
,
0010
0000
0000
0000
0000
0000
0100
0000
0000
0000
0000
0000
0001
0000
0000
0000
0000
0000
1000
0000
0000
0000
0000
0000
0200
0300
0000
0020
0030
0000
0002
0003
0000
0000
0000
0000
2000
3000
0000
0000
0000
0000
0020
0030
0000
0000
0000
0000
,
0200
0300
0000
0000
0000
0000
0001
0000
0000
0000
0000
0000
0010
0000
0000
0000
0000
0000
0001
0000
0000
0000
0000
0000
1000
0000
0000
0000
0000
0000
0100
0000
0000
0000
0000
0000
2000
3000
0000
0002
0003
0000
0020
0030
0000
0000
0000
0000
,
0002
0003
0000
0000
0000
0000
1000
0000
0000
0000
0000
0000
0010
0000
0000
0000
0000
0000
0100
0000
0000
0000
0000
0000
0010
0000
0000
0000
0000
0000
1000
0000
0000
0000
0000
0000
0001
0000
0000
0000
0000
0000
0020
0030
0000
0200
0300
0000
,
2000
3000
0000
0000
0000
0000
0010
0000
0000
0000
0000
0000
0100
0000
0000
0000
0000
0000
0001
0000
0000
0000
0000
0000
1000
0000
0000
0000
0000
0000
0200
0300
0000
0000
0000
0000
0020
0030
0000
0000
0000
0000
0200
0300
0000
2000
3000
0000
,
0002
0003
0000
0000
0000
0000
0100
0000
0000
0000
0000
0000
0010
0000
0000
0000
0000
0000
1000
0000
0000
0000
0000
0000
0002
0003
0000
2000
3000
0000
0020
0030
0000
0000
0000
0000
0200
0300
0000
0000
0000
0000
0020
0030
0000
2000
3000
0000
,
0200
0300
0000
0000
0000
0000
0010
0000
0000
0000
0000
0000
0100
0000
0000
0000
0000
0000
1000
0000
0000
0000
0000
0000
0001
0000
0000
0000
0000
0000
0200
0300
0000
0000
0000
0000
0002
0003
0000
0000
0000
0000
0020
0030
0000
0002
0003
0000
,
2000
3000
0000
0000
0000
0000
0100
0000
0000
0000
0000
0000
0010
0000
0000
0000
0000
0000
0100
0000
0000
0000
0000
0000
1000
0000
0000
0000
0000
0000
0020
0030
0000
0000
0000
0000
0200
0300
0000
0002
0003
0000
2000
3000
0000
0000
0000
0000
,
0200
0300
0000
0000
0000
0000
1000
0000
0000
0000
0000
0000
0001
0000
0000
0000
0000
0000
0010
0000
0000
0000
0000
0000
0100
0000
0000
0000
0000
0000
2000
3000
0000
0000
0000
0000
0020
0030
0000
0000
0000
0000
0200
0300
0000
0000
0000
0000
,
0002
0003
0000
0000
0000
0000
1000
0000
0000
0000
0000
0000
0200
0300
0000
0000
0000
0000
1000
0000
0000
0000
0000
0000
0001
0000
0000
0000
0000
0000
0010
0000
0000
0000
0000
0000
0001
0000
0000
0000
0000
0000
1000
0000
0000
0000
0000
0000
,
0001
0100
0010
0100
0001
1000
0001
0010
0100
1000
0100
0010
0001
1000
0001
0100
,
0001
0010
0100
1000
0001
1000
0010
0100
0010
1000
0001
0100
0001
1000
0010
1000
,
0001
0010
0100
0010
0001
1000
0010
0100
0001
0010
0001
1000
0100
1000
0010
0100
,
0002
0000
0000
2003
0000
3000
0000
0001
,
1000
0100
0010
0100
1000
0001
1000
0010
0100
0001
0100
0010
1000
0001
1000
0100
,
1000
0010
0100
0001
1000
0001
0010
0100
0010
0001
1000
0100
1000
0001
0010
0001
,
1000
0010
0100
0010
1000
0001
0010
0100
1000
0010
1000
0001
0100
0001
0010
0100
,
2000
0000
0000
3002
0000
0000
0203
0000
,
0310
1000
0001
0100
0001
0010
0100
1000
0001
1000
0010
0100
0001
1000
0001
0010
,
0100
0010
0001
1000
0001
0100
0010
1000
0100
1000
0001
1000
0010
0100
0001
0010
,
0100
1000
0100
0010
0001
0100
0010
1000
0001
1000
0100
0010
0001
0100
0001
0010
,
0100
0010
0001
1000
0001
0100
0010
0100
0001
1000
0010
1000
0001
0010
0100
1000
,
0001
0100
0001
1000
0100
1000
0010
0100
0001
1000
0001
0010
0100
1000
0001
1000
,
0010
0100
0010
1000
0001
1000
0100
0010
0001
0100
0001
1000
0001
0010
0100
1000
,
0010
0100
0001
0100
0010
1000
0100
0010
0001
1000
0001
0100
0010
1000
0100
1000
,
0010
0100
0010
1000
0001
1000
0100
0010
0100
1000
0001
0100
0001
0010
0100
1000
,
0001
1000
0010
1000
0001
0010
0001
1000
0100
0010
0100
1000
0010
0100
0010
0100
,
0001
1000
0100
1000
0001
0010
0100
1000
0001
1000
0010
0100
0001
1000
0010
1000
,
0100
0010
0001
1000
0001
0100
0001
0010
0100
1000
0001
1000
0010
0100
0010
1000
,
0001
0010
0100
0010
0001
1000
0001
1000
0010
0100
0001
1000
0001
0010
0001
0100
,
0010
1000
0001
0010
0001
1000
0010
1000
0001
0100
0010
0100
0001
0010
0100
0010
,
0100
1000
0001
0100
0001
1000
0010
0100
0001
1000
0001
0010
0100
1000
0001
0010
,
0001
0100
0010
1000
0001
1000
0100
1000
0010
0100
0001
1000
0001
0010
0100
0010
,
0001
0100
0010
0100
0001
1000
0001
1000
0100
0010
0001
1000
0001
0100
0001
0010
,
0100
0010
0001
1000
0001
0010
0100
1000
0001
0100
0010
1000
0001
0010
0001
0100
,
0001
1000
0100
1000
0001
1000
0010
0100
0001
1000
0100
0010
0001
1000
0010
1000
,
0100
1000
0001
0010
0001
1000
0100
0010
0001
1000
0010
0100
0001
1000
0100
1000
,
0010
1000
0001
0100
0001
0010
0100
0010
0001
0100
0010
0100
0001
1000
0001
1000
,
0100
0010
0001
1000
0001
0100
0010
1000
0001
0010
0100
1000
0001
0100
0001
0010
,
0001
1000
0010
1000
0001
1000
0100
0010
0001
1000
0010
0100
0001
1000
0100
1000
,
0010
1000
0001
0100
0001
1000
0010
0100
0001
1000
0100
0010
0001
1000
0010
1000
,
0001
0000
0020
0000
0230
0000
2300
3020
,
0230
0000
0000
0320
0000
0000
2030
0000
,
3002
0M03
00M0
0M00
,
00M0
0000
0000
0000
;

//---------------dance-single - ----------------
#NOTES:
     dance-single:
     :
     Medium:
     9:
     0.722,0.796,0.376,0.929,0.225,718.000,72.000,178.000,4.000,0.000:
0000
0000
0000
0000
,
0000
0000
0000
0000
,
0000
0000
0000
0000
,
0000
0000
0000
0000
0000
0000
1000
0100
,
0020
0000
0000
0032
0000
0003
0200
0000
,
0320
0000
0000
0000
0030
0000
1000
0100
1000
0000
0001
0000
0100
0000
0010
0000
,
1010
0000
0000
0101
0000
0000
0110
0000
,
1001
0000
0000
0000
0000
1000
0100
0010
,
0001
0000
0000
0100
0001
0000
0100
0000
0010
0000
1000
0000
0001
0000
0010
0000
,
0000
0001
0100
0020
0000
1030
0010
0100
,
0001
0000
0000
0100
0001
0000
0100
0000
0010
0000
1000
0000
0001
0000
0010
0000
,
0000
0001
1000
0020
0000
1030
0001
0010
,
0100
0000
0000
1000
0001
0000
1000
0000
0100
0000
0010
0000
0001
0000
0100
0000
,
0000
0001
1000
0020
0000
1030
0100
0010
,
0001
0000
0000
1000
0001
0000
1000
0000
0010
0000
0100
0000
0001
0000
0010
0000
,
0000
0100
1000
0002
0000
1003
0001
0000
,
2002
3003
0000
0000
2000
0000
0000
0000
3200
0000
0000
0320
0000
0000
0030
0000
,
0022
0000
0033
0000
0002
0000
0000
0000
0203
0000
0000
0320
0000
0000
0030
0000
,
2020
0000
3030
0000
2000
0000
0000
0000
3002
0000
0000
0023
0000
0000
0130
0000
,
2000
0000
0000
3002
0000
0003
0000
1000
,
2200
0000
3300
0000
0002
0000
0000
0000
0023
0000
0000
0230
0000
0000
1300
0000
,
2002
0000
3003
0000
2000
0000
0000
0000
3020
0000
0000
0230
0000
0000
0300
0000
,
0202
0000
0303
0000
2002
0000
3000
0000
1003
0000
0000
0200
0000
0000
0310
0000
,
0002
0000
0000
2003
0000
3000
1001
0000
,
1000
0000
0000
0001
1000
0000
0100
0000
0010
0000
0001
0000
1000
0000
0010
0000
,
0100
0000
0000
0001
0100
0000
0010
0100
0010
0000
1000
0000
0001
0000
1000
0000
,
0100
0000
0000
0010
0100
0000
1000
0000
0001
0000
0100
0000
0001
0000
1000
0000
,
0010
0000
0000
0100
0010
0000
1000
0000
0100
0000
0010
0000
0001
0000
1000
0000
,
0010
0010
0100
0100
0002
0003
1000
0002
,
0000
0000
0003
1000
0001
0000
0010
0100
0010
0000
0001
0000
0010
0000
0100
0000
,
1000
0000
0000
0001
1000
0000
0010
0000
0100
0000
0010
0000
1000
0000
0100
0000
,
0010
0000
0000
0001
0010
0000
0100
0000
1000
0000
0001
0000
1000
0000
0010
0000
,
0200
0000
0000
0000
0000
0300
0002
0000
0000
0000
0000
0003
0020
0000
0000
0000
,
0032
0000
0003
1000
0001
0000
0100
0010
0100
0000
0001
0000
1000
0000
0010
0000
,
0110
0000
0000
1001
0000
0000
2000
0000
,
3002
0000
0003
1000
0001
0000
0010
0100
0010
0000
0001
0000
0010
0000
0100
0000
,
2000
0000
0000
0000
0000
0000
3020
0000
0000
0000
0000
0030
0200
0000
0000
0000
,
0302
0000
0003
1000
0001
0000
0100
0010
0100
0000
0001
0000
0100
0000
0010
0000
,
1010
0000
0000
1001
0000
0000
2000
0000
,
3002
0000
0000
0000
0003
1000
0100
0010
,
0001
0000
0000
0100
0001
0000
0100
0000
0010
0000
1000
0000
0001
0000
0010
0000
,
0000
0001
0100
0020
0000
1030
0010
0100
,
0001
0000
0000
0100
0001
0000
0100
0000
0010
0000
1000
0000
0001
0000
0010
0000
,
0000
0001
1000
0020
0000
1030
0001
0010
,
0100
0000
0000
1000
0001
0000
1000
0000
0100
0000
0010
0000
0001
0000
0100
0000
,
0000
0001
1000
0020
0000
1030
0100
0010
,
0001
0000
0000
1000
0001
0000
1000
0000
0010
0000
0100
0000
0001
0000
0010
0000
,
0000
0100
1000
0002
0000
1003
0001
0000
,
2002
3003
0000
0000
2000
0000
0000
0000
3200
0000
0000
0320
0000
0000
0030
0000
,
0022
0000
0033
0000
0002
0000
0000
0000
0203
0000
0000
0320
0000
0000
0030
0000
,
2020
0000
3030
0000
2000
0000
0000
0000
3002
0000
0000
0023
0000
0000
0130
0000
,
2000
0000
0000
3002
0000
0003
0000
1000
,
2200
0000
3300
0000
0002
0000
0000
0000
0023
0000
0000
0230
0000
0000
1300
0000
,
2002
0000
3003
0000
2000
0000
0000
0000
3020
0000
0000
0230
0000
0000
0300
0000
,
0202
0000
0303
0000
2002
0000
3000
0000
1003
0000
0000
0200
0000
0000
0310
0000
,
0002
0000
0000
2003
0000
3000
1001
0000
,
1000
0000
0000
0001
1000
0000
0100
0000
0010
0000
0001
0000
1000
0000
0010
0000
,
0100
0000
0000
0001
0100
0000
0010
0100
0010
0000
1000
0000
0001
0000
1000
0000
,
0100
0000
0000
0010
0100
0000
1000
0000
0001
0000
0100
0000
0001
0000
1000
0000
,
0010
0000
0000
0100
0010
0000
1000
0000
0100
0000
0010
0000
0001
0000
1000
0000
,
0010
0010
0100
0100
0002
0000
1003
0002
,
0000
0000
0003
1000
0001
0000
0010
0100
0010
0000
0001
0000
0010
0000
0100
0000
,
1000
0000
0000
0001
1000
0000
0010
0000
0100
0000
0010
0000
1000
0000
0100
0000
,
0010
0000
0000
0001
0010
0000
0100
1000
0100
0000
0010
0000
0001
0000
0100
0000
,
0020
0030
1010
0000
1001
0000
1000
0100
,
0020
0000
0030
0000
0011
0000
0000
0000
1001
0000
0000
1000
0010
0000
0100
0000
,
0002
0003
1001
0000
1010
0000
0001
0010
,
0200
0300
1100
0000
0011
1000
0001
0100
,
0020
0030
1010
0000
1001
0000
1000
0100
,
0020
0000
0030
0000
0011
0000
0000
0000
1001
0000
0000
1000
0001
0000
0100
0000
,
0020
0030
1010
0000
1001
0000
1000
0010
,
0100
0000
0101
0000
1010
0001
0010
0100
,
1000
0000
0000
0100
0000
0000
0010
0000
0000
0000
0001
0000
0000
0000
0000
0000
,
1000
0000
0000
0010
0000
0000
0100
0000
0000
0000
0001
0000
0000
0000
0000
0000
,
1000
0000
0000
0010
0000
0000
1000
0000
0000
0000
0001
0000
0000
0000
0000
0000
,
1000
0000
0000
0100
0000
0000
0010
0000
0000
0000
0001
0000
0000
0000
0000
0000
,
1001
0000
1000
0010
0100
0000
0001
0000
1000
0000
0100
0000
0010
0001
1000
0001
,
0010
0100
1000
0100
0010
0001
0011
0000
,
1100
0000
0001
0100
0010
0000
1000
0000
0001
0000
0010
0000
0100
1000
0001
1000
,
0100
0000
0010
0000
0001
0000
0010
0000
0100
1000
0100
0000
0010
0000
0001
0000
,
2000
0000
3100
0000
0010
0000
0001
0000
0100
0000
0010
0000
1000
0001
1000
0000
,
0200
0000
0310
0000
0001
0000
1000
0000
0010
0000
0100
0000
0001
0000
1000
0100
,
1000
0000
0001
0000
1000
0000
0100
0000
0010
0000
0002
0003
2000
3000
0020
0030
,
0200
0300
0010
0000
1000
0000
0001
0000
1000
0100
1000
0000
0001
0000
0010
0100
,
0010
0000
0001
0000
1000
0000
0001
0000
0100
0000
0020
0030
2000
3000
0002
0003
,
2000
0000
3000
0000
0100
0000
0000
0000
0010
0000
0000
0000
0001
0000
0000
0000
1000
0000
0000
0000
0020
0030
0000
0000
1000
0000
0001
0000
1000
0000
0000
0000
,
0020
0000
0130
0000
0001
0000
0100
0000
0010
0000
2000
3000
0002
0003
0020
0030
,
0200
0300
1000
0000
0002
0003
1000
0000
0001
0000
2000
0000
3002
0000
0003
0000
,
2002
3003
0000
0000
0002
0000
0000
0000
0023
0000
0000
0230
0000
0000
0300
0000
,
2200
0000
3300
0000
2000
0000
0000
0000
3020
0000
0000
0230
0000
0000
0300
0000
,
0202
0000
0303
0000
0002
0000
0000
0000
2003
0000
0000
3200
0000
0000
0310
0000
,
0002
0000
0000
2003
0000
3000
0000
0001
,
0202
0000
0303
0000
2000
0000
0000
0000
3200
0000
0000
0320
0000
0000
0031
0000
,
2002
0000
3003
0000
0002
0000
0000
0000
0203
0000
0000
0320
0000
0000
0030
0000
,
2020
0000
3030
0000
2002
0000
0003
0000
3001
0000
0000
0020
0000
0000
0130
0000
,
2000
0000
0000
3002
0000
0003
1001
0000
,
0001
0000
0000
1000
0001
0000
0010
0000
0100
0000
1000
0000
0001
0000
0100
0000
,
0010
0000
0000
1000
0010
0000
0100
0010
0100
0000
0001
0000
1000
0000
0001
0000
,
0010
0000
0000
0100
0010
0000
0001
0000
1000
0000
0010
0000
1000
0000
0001
0000
,
0100
0000
0000
0010
0100
0000
0001
0000
0010
0000
0100
0000
1000
0000
0001
0000
,
0100
0100
0010
0010
2000
0000
3001
2000
,
0000
0000
3000
0001
1000
0000
0100
0010
0100
0000
1000
0000
0100
0000
0010
0000
,
0001
0000
0000
1000
0001
0000
0100
0000
0010
0000
0100
0000
0001
0000
0010
0000
,
0100
0000
0000
1000
0100
0000
0010
0000
0001
0000
1000
0000
0001
0000
0100
0000
,
0002
0000
0000
0023
0000
0000
0230
0000
,
2300
0000
3000
0001
1000
0000
0010
0100
0010
0000
1000
0000
0001
0000
0100
0000
,
0110
0000
0000
1010
0000
0000
0002
0000
,
2003
0000
3000
0001
1000
0000
0100
0010
0100
0000
1000
0000
0100
0000
0010
0000
,
0002
0000
0000
0000
0000
0000
0203
0000
0000
0000
0000
0300
0020
0000
0000
0000
,
2030
0000
3000
0001
1000
0000
0010
0100
0010
0000
1000
0000
0010
0000
0100
0000
,
0101
0000
0000
1001
0000
0000
2000
0000
,
3002
0000
0003
1000
0001
0000
0010
0000
0001
0000
0100
0000
0010
0000
0100
0000
,
0001
0000
1001
0000
0011
0000
0001
0010
,
0100
0000
1001
0000
0101
0000
1000
0010
,
1010
0000
0000
1001
0000
0000
0002
0000
,
0203
0300
1001
0000
0011
0000
1000
0100
,
0010
0000
1001
0000
0011
0000
0001
0010
,
0100
0000
1001
0000
0101
0000
1000
0010
,
1010
0101
1001
0002
,
0203
0300
1001
0000
0011
0000
1000
0100
,
0020
0000
0000
0032
0003
0000
2000
0000
,
3002
0M03
00M0
0M00
,
00M0
0000
0000
0000
;

//---------------dance-single - 3-3/3-3/3-3/7----------------
#NOTES:
     dance-single:
     3-3/3-3/3-3/7:
     Hard:
     11:
     0.896,1.000,0.120,0.616,0.634,1060.000,23.000,118.000,4.000,0.000:
0000
0000
0000
0000
,
0000
0000
0000
0000
,
0000
0000
0000
0000
,
0000
0000
0000
0000
0000
0000
2000
3002
,
0203
0000
0000
0320
0030
0000
2000
0000
,
3002
0000
0003
0000
0000
0000
1000
0001
1000
0000
0010
0000
0100
0000
0001
0000
,
0020
0030
0000
0200
0300
0000
2000
0000
,
3001
0000
0000
0000
0000
1000
0010
1000
,
0001
0000
0000
0010
0001
0000
1000
0000
0100
0000
1000
0000
0001
0000
0100
0000
,
0010
0100
0001
0010
0000
0100
1000
0001
,
0100
0000
0000
0010
0100
0000
0001
0000
1000
0000
0100
0000
0010
0000
0100
0000
,
1000
0010
0100
0001
0000
1000
0001
0010
,
0011
0000
0000
0001
1000
0000
0010
0000
0100
0000
0001
0000
0010
0000
0001
0000
,
0100
0010
1000
0001
0000
0010
0100
1000
,
0001
0000
0000
1000
0010
0000
0100
0000
0001
0000
1000
0000
0100
0000
1000
0000
,
0010
0100
0001
0010
0000
0200
2000
0300
,
3001
0100
0010
0100
0001
1000
0001
0010
0100
1000
0100
0010
0001
1000
0001
0100
,
0001
0010
0100
1000
0001
1000
0010
0100
0010
1000
0001
0100
0001
1000
0010
1000
,
0001
0010
0100
0010
0001
1000
0010
0100
0001
0010
0001
1000
0100
1000
0010
0100
,
0002
0000
0000
2003
0000
3000
0000
0001
,
1000
0100
0010
0100
1000
0001
1000
0010
0100
0001
0100
0010
1000
0001
1000
0100
,
1000
0010
0100
0001
1000
0001
0010
0100
0010
0001
1000
0100
1000
0001
0010
0001
,
1000
0010
0100
0010
1000
0001
0010
0100
1000
0010
1000
0001
0100
0001
0010
0100
,
2000
0000
0000
3002
0000
0000
0203
0000
,
0310
1000
0010
0100
0001
0010
0001
0100
,
0010
0000
1000
0000
0001
0000
0010
0001
1000
0000
0010
0000
0200
0000
0302
0000
,
0013
0200
1300
0001
0100
0001
0020
0230
,
1300
0001
0100
0010
1000
0100
1000
0001
,
1001
1000
0100
0010
0001
0100
0001
0010
,
0100
0000
1000
0000
0001
0000
0100
0001
1000
0000
0100
0000
0020
0000
0032
0000
,
0103
0020
1030
0001
0010
0001
0200
0320
,
1030
0001
0010
0100
1000
0001
1000
0010
,
0100
0001
0100
0001
0010
0001
0010
0100
,
1000
0000
0100
0000
1000
0000
0100
0010
0001
0000
0100
0000
0001
0000
0010
0100
,
1000
0001
1000
0010
0100
0010
0100
0001
,
1000
0000
0100
0000
1000
0000
0001
1000
0010
0000
0100
0000
0001
0000
0010
0000
,
0100
1000
0100
1000
0010
1000
0010
0100
,
0001
0000
0100
0000
0001
0000
0100
0010
1000
0000
0100
0000
1000
0000
0010
0100
,
0001
1000
0001
0010
0100
0010
0100
1000
,
0002
0000
0000
0000
0003
1000
0100
1000
,
0001
0000
0000
0100
0001
0000
1000
0000
0010
0000
1000
0000
0001
0000
0010
0000
,
0100
0010
0001
0100
0000
0010
1000
0001
,
0010
0000
0000
0100
0010
0000
0001
0000
1000
0000
0010
0000
0100
0000
0010
0000
,
1000
0100
0010
0001
0000
1000
0001
0100
,
0101
0000
0000
0001
1000
0000
0100
0000
0010
0000
0001
0000
0100
0000
0001
0000
,
0010
0100
1000
0001
0000
0100
0010
1000
,
0001
0000
0000
1000
0100
0000
0010
0000
0001
0000
1000
0000
0010
0000
1000
0000
,
0100
0010
0001
0100
0000
0020
2000
0030
,
3001
0010
0100
0010
0001
1000
0001
0100
0010
1000
0010
0100
0001
1000
0001
0010
,
0001
0100
0010
1000
0001
1000
0100
0010
0100
1000
0001
0010
0001
1000
0100
1000
,
0001
0100
0010
0100
0001
1000
0100
0010
0001
0100
0001
1000
0010
1000
0100
0010
,
0002
0000
0000
2003
0000
3000
0000
0001
,
1000
0010
0100
0010
1000
0001
1000
0100
0010
0001
0010
0100
1000
0001
1000
0010
,
1000
0100
0010
0001
1000
0001
0100
0010
0100
0001
1000
0010
1000
0001
0100
0001
,
1000
0100
0010
0100
1000
0001
0100
0010
1000
0100
1000
0001
0010
0001
0100
0010
,
2000
0000
0000
3002
0000
0000
0023
0000
,
0130
1000
0100
0010
0001
0100
0001
0010
,
0100
0000
1000
0000
0001
0000
0100
0001
1000
0000
0100
0000
0020
0000
0032
0000
,
0103
0020
1030
0001
0010
0001
0200
0320
,
1030
0001
0010
0100
1000
0010
1000
0001
,
1001
1000
0010
0100
0001
0010
0001
0100
,
0010
0000
1000
0000
0001
0000
0010
0001
1000
0000
0010
0000
0200
0000
0302
0000
,
0013
0200
1300
0001
0100
0001
0020
0230
,
1300
0001
0100
0010
1000
0001
1000
0100
,
0020
0030
0011
0000
1001
0000
0001
0010
,
0200
0000
0300
0000
1100
0000
0000
0000
1001
0000
0000
0001
0100
0000
0010
0000
,
2000
3000
1001
0000
0101
0000
1000
0100
,
0020
0030
0011
0000
1001
0001
1000
0010
,
0200
0300
0101
0000
1001
0000
0001
0010
,
0200
0000
0300
0000
1100
0000
0000
0000
1001
0000
0000
0001
1000
0000
0010
0000
,
0200
0300
0101
0000
1010
0000
0001
1000
,
0100
0000
0022
0033
2002
0000
3003
0000
,
1000
0000
0000
0010
0000
0000
0100
0000
0000
0000
0001
0000
0000
0000
0000
0000
,
1000
0000
0000
0001
0000
0000
0010
0000
0000
0000
0001
0000
0000
0000
0000
0000
,
1000
0000
0000
0100
0000
0000
0010
0000
0000
0000
0001
0000
0000
0000
0000
0000
,
1000
0000
0000
0001
0000
0000
0100
0000
0000
0000
0010
0000
0000
0000
0000
0000
,
1000
0000
0001
0000
0010
0000
0001
0000
0100
0000
0010
0000
1000
0001
0100
0001
,
0010
0100
1000
0001
0100
0001
0101
0000
,
1010
0000
1000
0000
0010
0000
1000
0000
0100
0000
0010
0000
0001
1000
0100
1000
,
0010
0000
0000
0000
0000
0000
0100
0000
0000
0000
0000
0000
0001
0000
0000
0000
0000
0000
1000
0000
0000
0000
0000
0000
0200
0300
0000
0020
0030
0000
0002
0003
0000
0000
0000
0000
2000
3000
0000
0000
0000
0000
0020
0030
0000
0000
0000
0000
,
0200
0300
0000
0000
0000
0000
0001
0000
0000
0000
0000
0000
0010
0000
0000
0000
0000
0000
0001
0000
0000
0000
0000
0000
1000
0000
0000
0000
0000
0000
0100
0000
0000
0000
0000
0000
2000
3000
0000
0002
0003
0000
0020
0030
0000
0000
0000
0000
,
0002
0003
0000
0000
0000
0000
1000
0000
0000
0000
0000
0000
0010
0000
0000
0000
0000
0000
0100
0000
0000
0000
0000
0000
0010
0000
0000
0000
0000
0000
1000
0000
0000
0000
0000
0000
0001
0000
0000
0000
0000
0000
0020
0030
0000
0200
0300
0000
,
2000
3000
0000
0000
0000
0000
0010
0000
0000
0000
0000
0000
0100
0000
0000
0000
0000
0000
0001
0000
0000
0000
0000
0000
1000
0000
0000
0000
0000
0000
0200
0300
0000
0000
0000
0000
0020
0030
0000
0000
0000
0000
0200
0300
0000
2000
3000
0000
,
0002
0003
0000
0000
0000
0000
0100
0000
0000
0000
0000
0000
0010
0000
0000
0000
0000
0000
1000
0000
0000
0000
0000
0000
0002
0003
0000
2000
3000
0000
0020
0030
0000
0000
0000
0000
0200
0300
0000
0000
0000
0000
0020
0030
0000
2000
3000
0000
,
0200
0300
0000
0000
0000
0000
0010
0000
0000
0000
0000
0000
0100
0000
0000
0000
0000
0000
1000
0000
0000
0000
0000
0000
0001
0000
0000
0000
0000
0000
0200
0300
0000
0000
0000
0000
0002
0003
0000
0000
0000
0000
0020
0030
0000
0002
0003
0000
,
2000
3000
0000
0000
0000
0000
0100
0000
0000
0000
0000
0000
0010
0000
0000
0000
0000
0000
0100
0000
0000
0000
0000
0000
1000
0000
0000
0000
0000
0000
0020
0030
0000
0000
0000
0000
0200
0300
0000
0002
0003
0000
2000
3000
0000
0000
0000
0000
,
0200
0300
0000
0000
0000
0000
1000
0000
0000
0000
0000
0000
0001
0000
0000
0000
0000
0000
0010
0000
0000
0000
0000
0000
0100
0000
0000
0000
0000
0000
2000
3000
0000
0000
0000
0000
0020
0030
0000
0000
0000
0000
0200
0300
0000
0000
0000
0000
,
0002
0003
0000
0000
0000
0000
1000
0000
0000
0000
0000
0000
0200
0300
0000
0000
0000
0000
1000
0000
0000
0000
0000
0000
0001
0000
0000
0000
0000
0000
0010
0000
0000
0000
0000
0000
0001
0000
0000
0000
0000
0000
1000
0000
0000
0000
0000
0000
,
0001
0100
0010
0100
0001
1000
0001
0010
0100
1000
0100
0010
0001
1000
0001
0100
,
0001
0010
0100
1000
0001
1000
0010
0100
0010
1000
0001
0100
0001
1000
0010
1000
,
0001
0010
0100
0010
0001
1000
0010
0100
0001
0010
0001
1000
0100
1000
0010
0100
,
0002
0000
0000
2003
0000
3000
0000
0001
,
1000
0100
0010
0100
1000
0001
1000
0010
0100
0001
0100
0010
1000
0001
1000
0100
,
1000
0010
0100
0001
1000
0001
0010
0100
0010
0001
1000
0100
1000
0001
0010
0001
,
1000
0010
0100
0010
1000
0001
0010
0100
1000
0010
1000
0001
0100
0001
0010
0100
,
2000
0000
0000
3002
0000
0000
0203
0000
,
0310
1000
0010
0100
0001
0010
0001
0100
,
0010
0000
1000
0000
0001
0000
0010
0001
1000
0000
0010
0000
0200
0000
0302
0000
,
0013
0200
1300
0001
0100
0001
0020
0230
,
1300
0001
0100
0010
1000
0100
1000
0001
,
1001
1000
0100
0010
0001
0100
0001
0010
,
0100
0000
1000
0000
0001
0000
0100
0001
1000
0000
0100
0000
0020
0000
0032
0000
,
0103
0020
1030
0001
0010
0001
0200
0320
,
1030
0001
0010
0100
1000
0001
1000
0010
,
0100
0001
0100
0001
0010
0001
0010
0100
,
1000
0000
0100
0000
1000
0000
0100
0010
0001
0000
0100
0000
0001
0000
0010
0100
,
1000
0001
1000
0010
0100
0010
0100
0001
,
1000
0000
0100
0000
1000
0000
0001
1000
0010
0000
0100
0000
0001
0000
0010
0000
,
0100
1000
0100
1000
0010
1000
0010
0100
,
0001
0000
0100
0000
0001
0000
0100
0010
1000
0000
0100
0000
1000
0000
0010
0100
,
0001
1000
0001
0010
0100
0010
0100
1000
,
0001
0100
0010
0100
0001
1000
0001
1000
,
0001
0010
0001
1000
0001
0010
0100
1000
0001
0100
0010
1000
0001
0010
0001
0100
,
0001
1000
0100
1000
0001
1000
0010
0100
0001
1000
0100
0010
0001
1000
0010
1000
,
0100
1000
0001
0010
0001
1000
0100
0010
0001
1000
0010
0100
0001
1000
0100
1000
,
0010
1000
0001
0100
0001
0010
0100
0010
0001
0100
0010
0100
0001
1000
0001
1000
,
0100
0010
0001
1000
0001
0100
0010
1000
0001
0010
0100
1000
0001
0100
0001
0010
,
0001
1000
0010
1000
0001
1000
0100
0010
0001
1000
0010
0100
0001
1000
0100
1000
,
0010
1000
0001
0100
0001
1000
0010
0100
0001
1000
0100
0010
0001
1000
0010
1000
,
0001
0000
0020
0000
0230
0000
2300
3020
,
0230
0000
0000
0320
0000
0000
2030
0000
,
3002
0M03
00M0
0M00
,
00M0
0000
0000
0000
;
