#TITLE:Meta Knight's Revenge;
#SUBTITLE:Super Smash Bros. Brawl (2008);
#ARTIST:SSB X Sound Team;
#TITLETRANSLIT:;
#SUBTITLETRANSLIT:;
#ARTISTTRANSLIT:;
#CREDIT:;
#BANNER:Meta Knight's Revenge.jpg;
#BACKGROUND:Meta Knight's Revenge-bg.jpg;
#LYRICSPATH:;
#CDTITLE:!dondon151.png;
#MUSIC:Meta Knight's Revenge.mp3;
#OFFSET:-0.152;
#SAMPLESTART:97.554;
#SAMPLELENGTH:12.000;
#SELECTABLE:YES;
#BPMS:0.000=160.000;
#STOPS:;
#BGCHANGES:;
// cache tags:
#FIRSTBEAT:0.000;
#LASTBEAT:320.000;
#SONGFILENAME:Songs/VGMP 3/Meta Knight's Revenge (dondon151)/Meta Knight's Revenge.sm;
#HASMUSIC:1;
#HASBANNER:1;
#MUSICLENGTH:126.089;
// end cache tags

//---------------dance-single - ----------------
#NOTES:
     dance-single:
     :
     Hard:
     11:
     1.000,1.000,1.000,0.198,1.000,937.000,277.000,25.000,0.000,0.000:

1001
0010
0100
1000
0010
0100
0001
0010
0100
1000
0010
1000
0001
0100
0001
0010
0100
1000
0010
0100
0001
0010
0100
1000
,
0010
0000
1000
0000
0001
0000
0100
0000
0001
0000
0010
0000
0100
0000
1000
0000
0001
0000
0010
0000
0100
0000
0010
0000
1001
0000
0000
0000
0000
0000
1001
0000
0000
0000
0000
0000
0101
0000
0000
0010
0000
0000
0101
0000
0000
0000
0000
0000
,
1001
0000
1000
0000
0101
0000
1000
0001
1100
0000
0010
0000
1001
0010
0100
0000
,
1100
0000
0010
0000
0000
0000
0010
0000
0101
0000
1000
0000
0001
0000
0000
0000
0012
0000
0000
0003
0000
0000
0000
0000
2100
0000
0000
3000
0011
0000
0000
0000
,
1001
0010
0000
1000
0011
1000
0010
0000
1100
0000
0001
0000
1010
0100
1000
0000
,
0101
0000
0010
0000
0000
0000
0001
0000
1010
0000
0100
0000
2000
0000
0000
3000
0010
0000
0100
0000
1000
0000
0001
0000
0100
0000
0010
0000
1000
0000
0100
0000
,
1001
0000
1000
0000
0101
0000
1000
0001
1100
0000
0010
0000
1001
0010
0100
0000
,
1100
0000
0010
0000
0000
0000
0010
0000
0101
0000
1000
0000
0001
0000
0000
0000
0012
0000
0000
0003
0000
0000
0000
0000
2100
0000
0000
3000
0011
0000
0000
0000
,
1001
0000
0100
0000
1010
0001
0000
0010
1100
0001
0000
0100
1010
0001
0010
0100
,
1001
0100
0010
0100
0010
0000
1000
0100
0010
0100
0010
0100
1000
0001
0010
0000
,
1001
0000
0010
0000
0101
0000
0000
1000
0100
1001
0000
0101
1000
0100
0011
0000
,
1100
0000
0100
0000
0011
0000
0000
1000
0010
1100
0001
0000
1001
0000
0100
0010
,
0101
0000
0010
0000
1001
0000
0000
0010
1000
0110
0000
1100
0010
0001
1010
0000
,
0101
0000
0100
0000
1001
0000
0000
0010
1100
0001
1000
0000
0010
0100
0010
0100
,
1001
0000
1100
0000
1001
0000
0101
0000
1010
0000
0101
0000
,
1001
0100
1010
0100
1001
0010
1100
0001
1010
0100
0011
0100
,
1001
0000
0100
0000
0011
0000
0000
0000
1100
0000
0000
0000
0000
0000
0001
0000
0000
0000
0001
0000
0100
0000
0000
0000
0012
0000
0000
0000
1000
0000
0000
0003
,
1100
0010
0100
0010
1001
0000
1100
0010
0100
0010
1001
0100
0010
0100
1010
0000
,
1001
0000
0011
0000
0100
0010
0001
0010
0000
0010
0001
0100
0010
0100
1010
0001
,
0000
0000
1100
0000
0001
0010
0100
0001
0000
0010
1000
0010
0100
1000
0011
0000
,
1100
0000
1001
0000
0010
0001
1100
0010
1000
0100
1000
0010
0000
0100
1010
0100
,
0010
0001
1000
0010
0000
0100
0011
0000
1000
0010
1100
0001
0000
1000
0101
0010
,
1001
0000
0011
0000
1000
0100
0010
0100
0000
0100
0010
1000
0010
0100
1001
0010
,
0000
0000
0101
0000
0010
0100
1000
0001
0000
0010
0001
0100
0010
1000
0001
1000
,
0000
0000
1001
0000
0100
0001
1010
0100
1000
0010
1000
0001
0000
0010
0101
0010
,
0100
0001
1000
0010
0000
0100
1001
0000
0100
0010
1100
0001
0000
1000
0101
0010
,
1001
0000
0011
0000
0100
0010
1000
0010
0000
0010
1000
0100
0010
0100
1010
0001
,
0000
0000
1100
0000
0001
0010
0100
0001
0000
0010
1000
0010
0100
1000
0001
1000
,
0000
0010
1001
0000
0010
0001
1100
0010
1000
0100
1000
0010
0000
0100
1010
0100
,
0010
0001
1000
0010
0000
0100
0011
0000
1000
0010
1100
0001
0000
1000
0101
0010
,
1001
0000
0011
0000
1000
0100
0001
0100
0000
0100
0001
1000
0010
0100
1001
0010
,
0000
0000
0101
0000
0010
0100
1000
0001
0000
0010
0001
0100
0010
1000
0101
0000
,
1010
0000
1001
0000
0010
0001
1010
0100
1000
0010
1000
0001
0000
0010
0101
0010
,
0100
0001
1000
0100
0000
0010
1001
0000
1000
0010
1100
0001
0010
0100
1001
0010
,
1001
0000
0010
0000
0101
0000
0000
1000
0100
1001
0000
0011
1000
0100
1001
0000
,
1100
0000
0100
0000
0011
0000
0000
1000
0010
1100
0000
0100
1001
0010
0100
0010
,
0101
0000
0010
0000
1001
0000
0000
0010
1000
0110
0000
1100
0010
0001
1010
0000
,
0101
0000
0100
0000
1001
0000
0000
0010
1100
0010
0000
1000
0011
1000
0001
0000
,
1001
0000
1100
0000
1001
0000
0101
0000
1010
0000
0101
0000
,
1001
0100
1010
0100
1001
0010
1100
0001
1010
0100
0011
0100
,
1001
0100
0011
0000
1100
0000
0000
0001
0000
0001
0100
0010
1001
0100
0010
0000
,
1100
0010
0000
0100
0000
0010
1001
0000
0100
1000
0100
0000
0010
0100
0011
0100
,
1001
0000
0000
0000
0010
0000
1000
0100
0000
0100
1000
0000
0010
0100
1000
0100
,
0011
0000
0100
1001
0010
0000
1000
0100
0000
0100
1000
0000
0010
0000
0100
0010
,
1001
0000
0010
1100
0001
0000
1000
0010
0000
0010
1000
0000
0001
1000
0010
1000
,
0101
0000
1000
0011
0100
0000
1000
0010
0000
0010
1000
0000
0011
0011
1100
0000
,
1001
0000
1100
0000
0010
0000
1100
0001
0000
0000
1010
0000
0100
0010
1001
0000
,
1100
0010
0100
1010
0000
0100
1001
0010
1000
0100
1000
0000
0100
0000
1000
0000
,
1001
0100
0010
0100
0000
0100
0011
0000
0100
0000
1001
0000
0010
0100
1010
0000
,
1001
0100
0001
1000
0000
0010
0101
0010
1000
0100
1000
0000
0100
0000
1010
0000
,
1001
0000
0011
0000
0100
0010
0100
0001
1000
0000
1010
0000
0100
0000
1001
0000
,
1100
0000
0011
0000
0100
0010
0100
0001
0010
0000
1001
0000
0001
0010
1100
0000
,
1001
0000
0101
0000
0010
0100
0010
0001
1000
0000
1100
0000
0010
0000
1001
0000
,
1010
0000
0101
0000
0010
0100
0010
0001
0100
0000
1001
0000
0010
0100
0011
0000
,
1001
0000
0011
0000
0100
0010
0100
0001
1000
0000
1010
0000
0100
0000
1001
0000
,
1100
0000
0011
0000
0100
0010
0100
0001
0010
0000
1001
0000
0001
0010
1100
0000
,
1001
0000
0101
0000
0010
0100
0010
0001
1000
0000
1100
0000
0010
0000
1001
0000
,
1010
0000
0101
0000
0010
0001
1000
0010
1000
0100
0010
0100
1000
0010
0101
0000
,
1001
0000
0000
0000
1001
0000
0000
0000
0100
0000
0010
0000
0100
0000
0002
0000
0000
0000
0000
0003
1010
0000
0000
0000
0100
0000
0010
0000
0001
0000
0000
0000
,
0010
0000
0000
0000
1001
0000
0000
0000
0100
0000
0010
0000
0100
0000
0002
0000
0000
0000
0000
0003
1010
0000
0000
0000
0100
0000
0010
0000
0001
0000
0000
0000
,
1001
0000
0000
0000
1000
0000
0000
0000
0101
0000
0010
0000
0000
0000
0200
0000
0001
0000
0000
0300
0010
0000
0000
0000
1100
0000
0010
0000
0000
0000
0000
0000
,
1001
0000
0000
0000
1000
0000
0000
0000
0101
0000
0010
0000
0000
0000
0002
0000
1000
0000
0000
0003
0100
0000
0000
0000
1001
0000
0100
0000
0010
0000
1000
0000
,
0101
0000
0000
0000
0000
0000
0000
0000
0000
0000
0000
0000
0020
0000
0000
0000
0000
0000
0000
0000
0000
0000
0000
0000
0000
0000
0000
0000
0000
0000
0000
0000
0000
0000
0000
0000
0000
0000
0000
0000
0000
0000
0000
0000
0000
0000
0000
0000
0100
0000
0000
0000
0000
0000
0000
0000
0000
0000
0000
0000
0000
0000
0000
0000
0000
0000
0030
0000
0000
0000
0000
0000
1000
0000
0000
0000
0000
0000
0000
0000
0000
0000
0000
0000
0100
0000
0000
0000
0000
0000
0000
0000
0000
0000
0000
0000
1020
0000
0000
0000
0000
0000
0000
0000
0000
0000
0000
0000
0000
0000
0000
0000
0000
0000
0000
0000
0000
0000
0000
0000
0030
0000
0000
0000
0000
0000
0000
0000
0002
0000
0000
0000
0000
0000
0000
0000
0000
0000
0000
0000
0000
0000
0000
0000
1000
0000
0000
0000
0000
0000
0000
0000
0003
0000
0000
0000
0000
0000
0000
0000
0020
0000
0000
0000
0000
0000
0000
0000
0000
0000
0000
0000
0000
0000
0000
0000
0000
0000
0000
0000
0000
0000
0000
0000
0030
0000
0000
0000
0000
0000
0000
0000
,
1200
0000
0000
0300
0002
0000
1000
0003
0200
0000
0000
0300
2001
0000
0000
3000
0200
0000
0001
0300
0020
0000
0000
0030
,
0201
0000
0000
0000
0000
0000
0300
0000
2000
0000
0000
0000
0001
0000
3000
0000
0200
0000
0000
0000
0000
0000
0300
0000
0011
0000
0000
0100
0000
0000
0001
0000
1000
0010
0000
0000
0100
0000
0000
0001
0100
0000
0010
0000
0000
1000
0000
0000
,
0011
0000
0000
0000
0000
0000
0100
0000
0000
0000
0000
0000
0100
0000
0000
0000
0000
0000
0101
0000
0000
0010
0000
0000
1001
0000
0000
0000
0000
0000
1000
0000
0100
0000
0000
0000
1000
0000
0000
0000
0010
0000
1000
0000
0000
0000
0000
0000
,
0101
0000
0001
0010
1001
0000
0001
0100
0010
0100
0010
0000
0010
0000
0010
0000
,
0011
0000
0000
0000
0000
0000
0000
0000
0000
0000
0000
0000
0000
0000
0000
0000
0000
0000
0000
0000
0000
0000
0000
0000
0100
0000
0000
0000
0000
0000
0000
0000
0000
0000
0000
0000
0000
0000
0000
0000
0000
0000
0000
0000
0000
0000
0000
0000
0100
0000
0000
0000
0000
0000
0000
0000
0000
0000
0000
0000
0000
0000
0000
0000
0000
0000
0000
0000
0000
0000
0000
0000
0101
0000
0000
0000
0000
0000
0000
0000
0000
0000
0000
0000
0010
0000
0000
0000
0000
0000
0000
0000
0000
0000
0000
0000
1001
0000
0000
0000
0000
0000
0000
0000
0000
0000
0000
0000
0000
0000
0000
0000
0000
0000
0000
0000
0000
0000
0000
0000
1000
0000
0000
0000
0000
0000
0000
0000
0100
0000
0000
0000
0000
0000
0000
0000
0000
0000
0000
0000
0000
0000
0000
0000
1000
0000
0000
0000
0000
0000
0000
0000
0000
0000
0000
0000
0000
0000
0000
0000
0010
0000
0000
0000
0000
0000
0000
0000
1000
0000
0000
0000
0000
0000
0000
0000
0000
0000
0000
0000
0100
0000
0000
0000
0000
0000
0010
0000
0000
0000
0000
0000
,
0001
0000
0000
0000
0000
0000
0100
0000
0000
0000
0000
0000
0100
0000
0000
0000
0000
0000
0100
0000
0000
0010
0000
0000
0100
0000
0000
0010
0000
0000
0100
0000
0000
0000
0000
0000
1010
0000
0000
0000
0100
0000
0000
0000
0010
0000
0000
0000
,
1002
0000
0000
0000
0100
0000
0000
0000
0100
0000
0000
0003
1010
0000
0100
0000
1001
0000
0000
0000
0110
0000
0000
0000
1010
0000
0000
0000
0110
0000
0000
0000
,
0101
0000
0001
0000
1001
0000
0100
0001
1100
0010
1000
0000
1100
0000
1000
0100
,
1010
0000
0100
0000
0100
0000
0100
0001
0100
0000
0100
0000
1010
0000
0100
0001
,
1010
0000
0000
0000
0000
0000
1000
0000
0000
0000
0000
0000
1000
0000
0000
0000
0000
0000
1000
0000
0000
0100
0000
0000
1000
0000
0000
0100
0000
0000
1000
0000
0000
0000
0000
0000
1010
0000
0000
0000
0100
0000
0000
0000
0010
0000
0000
0000
,
1002
0000
0000
0000
0100
0000
0000
0000
0100
0000
0000
0003
1010
0000
0100
0000
1001
0000
0000
0000
0110
0000
0000
0000
1010
0000
0000
0000
0110
0000
0000
0000
,
0101
0000
0001
0000
1001
0000
0100
0001
1100
0010
1000
0000
1100
0000
1000
0000
,
1010
0100
1001
0010
0100
1010
0100
0001
1010
0100
1000
0010
0100
0001
0010
0100
,
1010
0100
1001
0010
0100
1010
0100
0001
1010
0100
1000
0010
0100
0001
0010
0100
,
1001
0100
1001
0010
0100
0011
0100
1000
0011
0100
0010
1000
0001
0100
0010
0100
,
1001
0010
0100
1000
0010
0100
0001
0010
0100
1000
0010
1000
0001
0100
0001
0010
0100
1000
0010
0100
0001
0010
0100
1000
,
0010
0000
1000
0000
0001
0000
0100
0000
0001
0000
0010
0000
0100
0000
1000
0000
0001
0000
0010
0000
0100
0000
0010
0000
1001
0000
0000
0000
0000
0000
1001
0000
0000
0000
0000
0000
0101
0000
0000
0010
0000
0000
0101
0000
0000
0000
0000
0000
,
1001
0000
0000
0000
;

//---------------dance-single - Copied from----------------
#NOTES:
     dance-single:
     Copied from:
     Challenge:
     12:
     1.000,1.000,1.000,0.547,1.000,944.000,384.000,69.000,0.000,95.000:







1001
0010
0100
1000
0010
0100
0001
0010
0100
1000
0010
1000
0001
0100
0001
0010
0100
1000
0010
0100
0001
0010
0100
1000
,
0010
0000
1000
0000
0001
0000
0100
0000
0001
0000
0010
0000
0100
0000
1000
0000
0001
0000
0010
0000
0100
0000
0010
0000
1101
0000
0000
0000
0000
0000
1101
0000
0000
0000
0000
0000
0111
0000
0000
1000
0000
0000
0111
0000
0000
0000
0000
0000
,
1011
0000
1000
0000
0101
0000
1000
0001
1100
0000
0010
0000
1001
0010
0100
0000
,
1100
0000
0010
0000
0000
0000
0010
0000
0101
0000
1000
0000
0001
0000
0000
0000
1012
0000
0000
0000
0000
0003
0000
0000
2110
0000
0000
0000
0011
3000
0000
0000
,
1101
0010
0000
1000
0011
1000
0010
0000
1100
0000
0001
0000
1010
0100
1000
0000
,
0101
0000
0010
0000
0000
0000
0001
0000
1010
0000
0100
0000
2000
0000
0000
0000
0010
3000
0100
0000
1001
0000
0010
0000
0101
0000
0110
0000
1001
0000
0100
0000
,
1011
0000
1000
0000
0101
0000
1000
0001
1100
0000
0010
0000
1001
0010
0100
0000
,
1100
0000
0010
0000
0000
0000
0010
0000
0101
0000
1000
0000
0001
0000
0000
0000
1012
0000
0000
0000
0000
0003
0000
0000
2110
0000
0000
0000
0011
3000
0000
0000
,
1101
0000
0100
0000
1010
0001
0000
0010
1100
0001
0000
0100
1010
0001
0010
0100
,
2001
0000
0110
0000
0001
0000
0010
0000
0001
0000
0000
0000
0101
0000
0010
0000
0001
0000
0100
0000
0001
0000
0010
3000
0101
0000
1010
0000
0001
0000
0000
0000
,
2011
0000
0000
0000
0010
0000
0000
3000
0102
0000
0000
0000
0000
0000
1000
0003
0200
0000
1001
0000
0000
0300
0021
0000
1000
0000
0100
0030
1002
0000
0000
0003
,
2100
0000
0000
0000
0100
0000
0000
3000
0012
0000
0000
0000
0000
0000
1000
0003
0020
0000
1100
0000
0001
0000
0000
0030
2100
0000
0000
0000
0001
0000
0010
3000
,
0201
0000
0000
0000
0010
0000
0000
0300
1002
0000
0000
0000
0000
0000
0010
0003
2000
0000
0110
0000
0000
3000
0201
0000
0010
0000
0001
0300
1020
0000
0000
0030
,
0102
0000
0000
0000
0100
0000
0000
0000
1010
0000
0000
0000
0000
0000
0010
0003
1200
0000
0011
0000
1000
0000
0000
0300
0011
0000
1100
0000
0011
0000
1100
0000
,
1011
0000
1110
0000
1011
0000
1101
0000
1110
0000
1101
0000
,
1011
0001
1110
1000
0111
0010
1101
0100
1011
0010
1101
0100
,
1011
0000
0100
0000
0021
0000
0000
0000
1100
0000
0000
0000
0000
0000
0001
0030
0100
0000
0011
0000
1100
0000
0000
0000
1012
0000
0000
0000
0100
0000
0000
0003
,
1101
1010
0001
1100
0011
0000
0011
1100
0001
1100
0011
0100
1010
0110
1001
0000
,
1101
0000
0011
0000
0100
0010
1001
0010
0000
0010
1001
0100
0010
0100
1010
0001
,
0000
0000
1100
0000
0001
0100
1010
0001
0000
0100
1001
0010
0100
1000
0011
0000
,
1100
0000
1001
0000
0010
0001
1100
0010
1000
0100
1001
0010
0000
0100
1010
0100
,
0010
0001
1100
0010
0000
0100
0011
0000
1000
0010
1100
0001
0000
1000
0101
0010
,
1101
0000
0011
0000
1000
0100
0011
0100
0000
0100
0011
1000
0010
0100
1001
0010
,
0000
0000
0101
0000
0010
0100
1010
0001
0000
0010
1001
0100
0010
1100
0011
1000
,
0000
0000
1001
0000
0100
0001
1010
0100
1000
0010
1100
0001
0000
0010
0101
0010
,
0100
0001
1010
0100
0000
0010
1001
0000
0100
0010
1100
0001
0000
1010
0101
1010
,
1101
0000
0011
0000
0100
0010
1001
0010
0000
0010
1001
0100
0010
0100
1010
0001
,
0000
0000
1100
0000
0001
0100
1010
0001
0000
0100
1001
0010
0100
1010
0101
1000
,
0000
0010
1001
0000
0010
0001
1100
0010
1000
0100
1001
0010
0000
0100
1010
0100
,
0010
0001
1100
0010
0000
0100
0011
0000
1000
0010
1100
0001
0000
1000
0101
0010
,
1101
0000
0011
0000
1000
0100
0011
0100
0000
0100
0011
1000
0010
0100
1001
0010
,
0000
0000
0101
0000
0010
0100
1010
0001
0000
0010
1001
0100
0010
1000
0101
0000
,
1010
0000
1001
0000
0100
0001
1010
0100
1000
0010
1100
0001
0000
0010
0101
0010
,
0100
0001
1010
0100
0000
0010
1001
0000
1100
0011
0110
1001
0010
1100
1001
0110
,
2101
0000
0000
0000
0010
0000
0000
3000
0102
0000
0000
0000
0000
0000
1000
0003
0200
0000
1001
0000
0000
0300
0021
0000
1000
0000
0100
0030
1002
0000
0000
0003
,
2100
0000
0000
0000
0100
0000
0000
3000
0012
0000
0000
0000
0000
0000
1000
0003
0020
0000
1100
0000
0000
0000
0100
0030
2001
0000
0010
0000
0100
0000
0010
3000
,
0201
0000
0000
0000
0010
0000
0000
0300
1002
0000
0000
0000
0000
0000
0010
0003
2000
0000
0110
0000
0000
3000
0201
0000
0010
0000
0001
0300
1020
0000
0000
0030
,
0102
0000
0000
0000
0100
0000
0000
0000
1010
0000
0000
0000
0000
0000
0010
0003
1200
0000
0011
0000
0000
0000
1000
0300
0011
0000
1000
0000
0001
0000
0000
0000
,
1011
0000
1110
0000
1011
0000
1101
0000
1110
0000
1101
0000
,
1011
0001
1110
1000
0111
0010
1101
0100
1011
0010
1101
0100
,
1011
0000
0100
0000
0021
0000
0000
0000
1100
0000
0000
0000
0000
0000
0001
0030
0100
0000
0011
0000
1100
0000
0010
0000
1002
0000
0100
0000
0010
0000
0000
0003
,
1101
1010
0000
0101
0000
1100
0011
0000
1001
0100
1001
0000
0101
1000
0011
0100
,
1012
0000
0000
0000
0000
0000
0000
0000
0110
0000
0000
0000
1000
0000
0100
0000
0000
0000
0100
0003
1000
0000
0000
0000
0011
0000
0100
0000
1000
0000
0100
0000
,
0011
1000
0110
1001
0100
0000
1000
0100
0000
0100
1000
0000
0011
0000
0100
0010
,
1001
0100
0011
1100
0010
0000
1000
0010
0000
0010
1000
0000
0101
1000
0010
1000
,
0101
0010
1100
0011
1000
0000
0100
0010
0000
0010
0100
0000
0011
0011
1101
0000
,
1011
0000
1100
0000
0010
0000
1100
0001
0000
0000
1010
0000
0100
0010
1001
0000
,
1100
0010
0101
1010
0000
0100
1001
0010
1000
0100
1000
0000
0100
0000
1010
0000
,
1001
0100
0011
0100
0000
0100
0011
0000
0100
0000
1001
0000
0010
0100
1010
0000
,
1001
0000
0100
0000
0011
0000
1000
0000
0000
0000
0010
0000
0102
0000
0010
0000
1000
0000
0100
0000
1000
0000
0000
0000
0100
0003
0000
0000
1011
0000
0000
0000
,
1101
0000
0011
0000
0100
0010
1100
0001
1000
0000
1010
0000
0100
0000
1001
0000
,
1100
0000
0011
0000
0100
0010
1100
0001
0010
0000
1001
0000
0001
0010
1100
0000
,
1001
0000
0101
0000
0010
0100
1010
0001
1000
0000
1100
0000
0010
0000
1001
0000
,
1010
0000
0101
0000
0010
0100
1010
0001
0100
0000
1001
0000
0010
1100
0011
0000
,
1101
0000
0011
0000
0100
0010
1100
0001
1000
0000
1010
0000
0100
0000
1001
0000
,
1100
0000
0011
0000
0100
0010
1100
0001
0010
0000
1001
0000
0001
0010
1100
0000
,
1001
0000
0101
0000
0010
0100
1010
0001
1000
0000
1100
0000
0010
0000
1001
0000
,
1011
0000
0101
0000
0010
0100
1001
0010
0101
1000
0011
0100
1000
0001
1100
0000
,
1011
0000
0000
0000
1001
0000
0000
0000
0100
0000
0010
0000
1100
0000
0002
0000
0000
0000
0000
0003
1010
0000
0000
0000
0100
0000
0010
0000
0101
0000
0000
0000
,
0010
0000
0000
0000
1001
0000
0000
0000
0100
0000
0010
0000
1100
0000
0002
0000
0000
0000
0000
0003
1010
0000
0000
0000
0100
0000
0010
0000
0101
0000
0000
0000
,
1011
0000
0000
0000
1000
0000
0000
0000
0101
0000
0010
0000
0000
0000
0200
0000
1001
0000
0000
0300
0010
0000
0000
0000
1100
0000
0010
0000
0000
0000
0000
0000
,
1001
0000
0000
0000
1000
0000
0000
0000
0101
0000
0010
0000
0000
0000
0002
0000
1010
0000
0000
0003
0100
0000
0000
0000
1001
0000
0100
0000
0001
0000
0010
0000
,
1101
0000
0000
0000
0000
0000
0000
0000
0000
0000
0000
0000
0020
0000
0000
0000
0000
0000
0000
0000
0000
0000
0000
0000
0000
0000
0000
0000
0000
0000
0000
0000
0000
0000
0000
0000
0000
0000
0000
0000
0000
0000
0000
0000
0000
0000
0000
0000
0100
0000
0000
0000
0000
0000
0000
0000
0000
0000
0000
0000
0000
0000
0000
0000
0000
0000
0030
0000
0000
0000
0000
0000
1000
0000
0000
0000
0000
0000
0000
0000
0000
0000
0000
0000
0100
0000
0000
0000
0000
0000
0000
0000
0000
0000
0000
0000
1021
0000
0000
0000
0000
0000
0000
0000
0000
0000
0000
0000
0000
0000
0000
0000
0000
0000
0000
0000
0000
0000
0000
0000
0030
0000
0000
0000
0000
0000
0000
0000
0002
0000
0000
0000
0000
0000
0000
0000
0000
0000
0000
0000
0000
0000
0000
0000
1100
0000
0000
0000
0000
0000
0000
0000
0003
0000
0000
0000
0000
0000
0000
0000
0020
0000
0000
0000
0000
0000
0000
0000
0000
0000
0000
0000
0000
0000
0000
0000
0000
0000
0000
0000
0000
0000
0000
0000
0030
0000
0000
0000
0000
0000
0000
0000
,
1201
0000
0000
0300
0002
0000
1010
0003
0200
0000
0000
0300
2011
0000
0000
3000
0200
0000
1001
0300
0020
0000
0000
0030
,
1201
0000
0000
0000
0000
0000
0300
0000
2000
0000
0000
0000
0011
0000
3000
0000
0200
0000
0000
0000
0000
0000
0300
0000
1011
0000
0000
0100
0000
0000
0001
0000
0100
0010
0000
0000
1001
0000
0000
0100
1000
0000
0010
0000
0000
0100
0000
0000
,
1021
0000
0000
0000
0000
0000
0000
0000
0000
0000
0000
0000
0000
0000
0000
0000
0000
0000
0000
0000
0000
0000
0000
0000
0100
0000
0000
0000
0000
0000
0000
0000
0000
0000
0000
0000
0000
0000
0000
0000
0000
0000
0000
0000
0000
0000
0000
0000
0100
0000
0000
0000
0000
0000
0000
0000
0000
0000
0000
0000
0000
0000
0000
0000
0000
0000
0030
0000
0000
0000
0000
0000
0101
0000
0000
0000
0000
0000
0000
0000
0000
0000
0000
0000
0010
0000
0000
0000
0000
0000
0000
0000
0000
0000
0000
0000
1001
0000
0000
0000
0000
0000
0000
0000
0000
0000
0000
0000
0000
0000
0000
0000
0000
0000
0000
0000
0000
0000
0000
0000
1000
0000
0000
0000
0000
0000
0000
0000
0110
0000
0000
0000
0000
0000
0000
0000
0000
0000
0000
0000
0000
0000
0000
0000
1000
0000
0000
0000
0000
0000
0000
0000
0000
0000
0000
0000
0000
0000
0000
0000
0011
0000
0000
0000
0000
0000
0000
0000
1000
0000
0000
0000
0000
0000
0000
0000
0000
0000
0000
0000
0000
0000
0000
0000
0000
0000
0000
0000
0000
0000
0000
0000
,
0101
0000
0001
0010
2001
0000
0001
0100
0010
0100
0010
0000
0010
0000
0010
3000
,
1021
0000
0000
0000
0000
0000
0000
0000
0000
0000
0000
0000
0000
0000
0000
0000
0000
0000
0000
0000
0000
0000
0000
0000
0100
0000
0000
0000
0000
0000
0000
0000
0000
0000
0000
0000
0000
0000
0000
0000
0000
0000
0000
0000
0000
0000
0000
0000
0100
0000
0000
0000
0000
0000
0000
0000
0000
0000
0000
0000
0000
0000
0000
0000
0000
0000
0030
0000
0000
0000
0000
0000
0101
0000
0000
0000
0000
0000
0000
0000
0000
0000
0000
0000
0010
0000
0000
0000
0000
0000
0000
0000
0000
0000
0000
0000
1001
0000
0000
0000
0000
0000
0000
0000
0000
0000
0000
0000
0000
0000
0000
0000
0000
0000
0000
0000
0000
0000
0000
0000
1000
0000
0000
0000
0000
0000
0000
0000
0110
0000
0000
0000
0000
0000
0000
0000
0000
0000
0000
0000
0000
0000
0000
0000
1000
0000
0000
0000
0000
0000
0000
0000
0000
0000
0000
0000
0000
0000
0000
0000
0011
0000
0000
0000
0000
0000
0000
0000
1000
0000
0000
0000
0000
0000
0000
0000
0000
0000
0000
0000
0100
0000
0000
0000
0000
0000
0010
0000
0000
0000
0000
0000
,
1002
0000
0000
0000
0000
0000
0100
0000
0000
0000
0000
0000
0100
0000
0000
0000
0000
0000
0100
0000
0000
0010
0000
0000
0100
0000
0000
0010
0000
0000
0100
0000
0000
0003
0000
0000
1010
0000
0000
0000
0100
0000
0001
0000
0010
0000
0000
0000
,
1102
0000
0000
0000
0100
0000
0000
0000
0100
0000
0000
0003
1010
0000
0100
0000
1001
0000
0000
0000
0110
0000
0000
0000
1010
0000
0000
0000
0110
0000
0000
0000
,
0101
0000
0001
0000
1001
0000
0100
0011
1100
0010
1000
0000
1100
0000
1001
0100
,
1020
0000
0000
0000
0100
0000
0000
0000
0100
0000
0000
0000
0100
0000
0001
0000
0100
0000
0000
0030
0100
0000
0000
0000
1010
0000
0000
0000
0100
0000
0001
0000
,
1020
0000
0000
0000
0000
0000
0000
0000
0000
0000
0000
0000
0000
0000
0000
0000
0000
0000
0000
0000
0000
0000
0000
0000
1000
0000
0000
0000
0000
0000
0000
0000
0000
0000
0000
0000
0000
0000
0000
0000
0000
0000
0000
0000
0000
0000
0000
0000
1000
0000
0000
0000
0000
0000
0000
0000
0000
0000
0000
0000
0000
0000
0000
0000
0000
0000
0000
0000
0000
0000
0000
0000
1000
0000
0000
0000
0000
0000
0000
0000
0000
0000
0000
0000
0100
0000
0000
0000
0000
0000
0000
0000
0000
0000
0000
0000
1000
0000
0000
0000
0000
0000
0000
0000
0000
0000
0000
0000
0100
0000
0000
0000
0000
0000
0030
0000
0000
0000
0000
0000
1000
0000
0000
0000
0000
0000
0000
0000
0000
0000
0000
0000
0000
0000
0000
0000
0000
0000
0000
0000
0000
0000
0000
0000
1010
0000
0000
0000
0000
0000
0000
0000
0000
0000
0000
0000
0000
0000
0000
0000
0100
0000
0000
0000
0000
0000
0000
0000
0001
0000
0000
0000
0000
0000
0000
0000
0010
0000
0000
0000
0000
0000
0000
0000
0000
0000
0000
0000
0000
0000
0000
0000
,
1102
0000
0000
0000
0100
0000
0000
0000
0100
0000
0000
0003
1010
0000
0100
0000
1001
0000
0000
0000
0110
0000
0000
0000
1010
0000
0000
0000
0110
0000
0000
0000
,
0101
0000
0001
0000
1001
0000
0100
0011
1100
0010
1000
0000
1100
0000
1001
0000
,
1010
0100
1001
0010
0100
1010
0100
0001
1010
0100
1000
0010
0100
0001
0010
0100
,
1010
0100
1001
0010
0100
1010
0100
0001
1010
0100
1000
0010
0100
0001
0010
0100
,
1011
0100
1001
0010
0100
0011
0100
1000
0011
0100
0010
1000
0001
0100
0010
0100
,
1001
0010
0100
1000
0010
0100
0001
0010
0100
1000
0010
1000
0001
0100
0001
0010
0100
1000
0010
0100
0001
0010
0100
1000
,
0010
0000
1000
0000
0001
0000
0100
0000
0001
0000
0010
0000
0100
0000
1000
0000
0001
0000
0010
0000
0100
0000
0010
0000
1101
0000
0000
0000
0000
0000
1101
0000
0000
0000
0000
0000
0111
0000
0000
1000
0000
0000
0111
0000
0000
0000
0000
0000
,
1011
0000
0000
0000
;
