#TITLE:Fury of the Storm;
#SUBTITLE:;
#ARTIST:Dragonforce;
#TITLETRANSLIT:;
#SUBTITLETRANSLIT:;
#ARTISTTRANSLIT:;
#CREDIT:;
#BANNER:(cerdo_claro)Fury of the Storms-bn.PNG;
#BACKGROUND:(cerdo_claro)Fury of the Storms-bg.png;
#LYRICSPATH:;
#CDTITLE:cdtitle.png;
#MUSIC:(cerdo_claro)Fury of the Storm.mp3;
#OFFSET:-2.400;
#SAMPLESTART:250.580;
#SAMPLELENGTH:14.580;
#SELECTABLE:YES;
#BPMS:0.000=200.000,96.000=400.000,104.000=200.000;
#STOPS:;
#BGCHANGES:;
// cache tags:
#FIRSTBEAT:0.000;
#LASTBEAT:1348.500;
#SONGFILENAME:Songs/toune 3/(cerdo_claro) Fury of the Storm/(cerdo_claro)Fury of the Storm.sm;
#HASMUSIC:1;
#HASBANNER:1;
#MUSICLENGTH:407.074;
// end cache tags

//---------------dance-single - ----------------
#NOTES:
     dance-single:
     :
     Hard:
     14:
     1.000,1.000,1.000,0.339,1.000,3449.000,968.000,138.000,0.000,48.000:
1100
0000
0011
1000
0010
0001
1100
0011
,
1001
0000
0110
1000
0010
0001
1100
0000
,
1010
0000
0011
1000
0110
0001
0100
1000
,
0001
0000
0000
0000
1000
0000
0000
0000
0010
0000
0000
0000
0100
0000
0000
0001
0000
0000
1000
0000
0000
0001
0000
0000
1000
0000
0000
0010
0000
0000
0100
0000
0000
0001
0000
0000
1000
0000
0000
0001
0000
0000
0100
0000
0000
0010
0000
0000
,
1100
0000
0110
1000
0110
0001
1100
0000
,
0011
0000
1100
0010
0101
1000
0101
0000
,
1100
0101
1010
0110
,
0101
0000
0000
0000
0011
0000
0000
0000
1010
0000
0010
0001
1100
0000
0000
0000
,
0011
0000
0000
1000
0000
0000
0010
0000
0000
0100
0000
0000
0001
0000
0000
1000
0000
0000
0001
0000
0000
0100
0000
0000
0001
0000
0010
0000
0001
0000
0100
0000
0000
1000
0000
0000
0010
0000
0000
0100
0000
0000
0001
0000
0000
1000
0000
0000
,
0011
0000
0000
0100
0000
0000
0010
0000
0000
1000
0000
0000
0001
0000
0000
0100
0000
0000
0010
0000
0000
0001
0000
0000
1000
0000
0010
0000
0100
0000
0001
0000
0000
0100
0000
0000
1000
0000
0000
0010
0000
0000
1000
0000
0000
0010
0000
0000
,
1100
0000
0000
0001
0000
0000
0100
0000
0000
0010
0000
0000
1000
0000
0000
0001
0000
0000
0010
0000
0000
0001
0000
0000
0100
0000
0010
1000
0000
0000
0001
0000
0000
1000
0000
0000
0010
0000
0000
0001
0000
0000
1000
0000
0000
0010
0000
0000
,
2100
0010
0001
0100
3020
0001
1000
0100
0032
1000
0100
0010
2003
0000
0000
0000
,
3110
0000
0000
0001
0000
0000
0100
0000
0000
0010
0000
0000
1000
0000
0000
0001
0000
0000
1000
0000
0000
0010
0000
0000
1000
0000
0001
0000
0100
0000
1000
0000
0000
0001
0000
0000
0100
0000
0000
0010
0000
0000
1000
0000
0000
0001
0000
0000
,
1100
0000
0000
0010
0000
0000
0100
0000
0000
0001
0000
0000
1000
0000
0000
0010
0000
0000
0100
0000
0000
1000
0000
0000
0001
0000
0100
0000
0010
0000
0100
0000
0000
1000
0000
0000
0001
0000
0000
0100
0000
0000
0001
0000
0000
0100
0000
0000
,
0011
0000
0000
1000
0000
0000
0010
0000
0000
0100
0000
0000
0001
0000
0000
1000
0000
0000
0100
0000
0000
1000
0000
0000
0001
0000
1000
0000
0001
0000
0100
0000
0000
1000
0000
0000
0001
0000
0000
0010
0000
0000
0001
0000
0000
0100
0000
0000
,
0012
0100
1000
0010
0203
1000
0001
0010
2300
0001
0010
0100
3002
0000
0000
0000
,
1103
0000
0000
0010
0000
0000
0001
0000
0000
1000
0000
0000
0100
0000
0000
0010
0000
0000
0100
0000
0000
1000
0000
0000
0100
0000
0010
0000
1000
0000
0001
0000
0000
0100
0000
0000
0001
0000
0000
1000
0000
0000
0100
0000
0000
0010
0000
0000
,
0101
0000
0000
1000
0000
0000
0001
0000
0000
0010
0000
0000
0100
0000
0000
1000
0000
0000
0001
0000
0000
0100
0000
0000
0010
0000
0100
0000
0001
0000
1000
0000
0000
0100
0000
0000
0010
0000
0000
0001
0000
0000
0010
0000
0000
0001
0000
0000
,
1010
0000
0000
0100
0000
0000
1000
0000
0000
0001
0000
0000
0010
0000
0000
0100
0000
0000
0001
0000
0000
0100
0000
0000
0010
0000
0100
0000
0010
0000
1000
0000
0000
0100
0000
0000
0010
0000
0000
1000
0000
0000
0010
0000
0000
0001
0000
0000
,
1020
0001
0100
1000
0032
0100
0010
1000
0203
0010
1000
0001
0320
0000
0000
0000
,
1130
0000
0000
0001
0000
0000
0010
0000
0000
0001
0000
0000
1000
0000
0000
0010
0000
0000
1000
0000
0000
0010
0000
0000
0100
0000
1000
0000
0001
0000
0010
0000
0000
0001
0000
0000
1000
0000
0000
0100
0000
0000
0010
0000
0000
0100
0000
0000
,
1000
0000
0000
0010
0000
0000
0100
0000
0000
0001
0000
0000
1000
0000
0000
0001
0000
0000
1000
0000
0000
0001
0000
0000
0100
0000
0001
0000
0010
0000
1000
0000
0000
0001
0000
0000
0100
0000
0000
0010
0000
0000
1000
0000
0000
0000
0000
0000
,
0011
0000
0000
1000
0000
0000
0010
0000
0000
0100
0000
0000
0000
0000
0000
0000
0000
0000
0011
0000
0000
1000
0000
0000
0010
0000
1000
0000
0010
0000
0100
0000
0000
0001
0000
0000
1100
0000
0000
0000
0000
0000
0000
0000
0000
0000
0000
0000
,
0022
0000
0000
0000
0000
0000
0000
0000
2233
0000
0000
0000
0000
0000
0000
3300
,
2002
0000
0000
0000
,
0000
0000
0000
3003
,
1000
0010
0100
0000
0011
0000
0110
0000
1000
0010
0100
0000
0101
0000
1010
0000
,
0001
0100
0010
0000
1010
0000
1010
0000
0100
0010
0100
0000
0011
0000
0011
0000
,
1000
0001
0100
0000
1010
0000
1010
0000
0010
1000
0010
0000
0101
0000
0101
0000
,
0001
1000
0001
0000
0110
0000
0110
0000
0010
1000
0100
0000
0101
0000
0101
0000
,
0001
0100
1000
0000
0110
0000
0110
0000
0001
1000
0010
0000
1001
0000
1001
0000
,
1000
0010
0100
0000
0110
0000
0110
0000
0001
0100
0010
0000
1100
0000
1100
0000
,
0010
0100
0001
0000
0101
0000
0101
0000
1000
0010
0100
0000
0110
0000
0110
0000
,
0011
1000
0110
0001
1100
0010
0101
0010
1100
0001
0110
1000
,
0011
0100
0010
0000
1100
0000
0110
0000
0001
0100
0010
0000
1010
0000
0101
0000
,
1000
0010
0100
0000
0101
0000
0101
0000
0010
0100
0010
0000
1100
0000
1100
0000
,
0001
1000
0010
0000
0101
0000
0101
0000
0100
0001
0100
0000
1010
0000
1010
0000
,
0011
1001
0000
1100
1001
0000
0110
0000
,
1000
0010
0001
0000
0110
0000
0110
0000
1000
0001
0100
0000
1001
0000
1001
0000
,
0001
0100
0010
0000
0110
0000
0110
0000
1000
0010
0100
0000
0011
0000
0011
0000
,
0001
0010
0100
1000
0100
0010
0001
1000
0100
1000
0001
0010
0100
1000
0100
0010
,
0001
0000
0010
0000
0100
0000
1000
0000
0010
0000
0000
0000
0100
0000
0000
0000
0001
0000
0000
0000
1000
0000
0000
0000
0010
0000
0000
0100
0000
0000
0001
0000
0000
1000
0000
0000
0001
0000
0000
0100
0000
0000
0010
0000
0000
1000
0000
0000
,
0012
0100
0010
1000
0010
0100
0213
0001
1000
0010
0001
0010
,
1310
1001
0210
0321
,
1130
0001
1000
0001
1000
0010
0100
0001
1000
0001
1000
0010
0100
0001
1000
0010
,
1100
0000
0000
0100
0010
0100
1001
0000
0010
0100
0001
1000
0010
0100
0001
1000
,
0110
0000
0001
1000
0010
0100
0001
0010
0100
1000
0010
0100
0001
0010
0100
1000
,
0011
0000
0000
0000
0101
0000
1001
0000
0000
0000
0110
0000
0001
1000
0001
1000
,
0011
1000
0001
1000
0001
0100
0010
1000
0001
1000
0001
0100
0010
1000
0001
0100
,
0011
0000
0000
0010
0100
0010
1001
0000
0100
0010
1000
0001
0100
0010
1000
0001
,
0110
0000
1000
0001
0100
0010
1000
0100
0010
0001
0100
0010
1000
0100
0010
0001
,
1100
0000
0000
1010
0000
2002
0000
0000
0000
0000
0003
0000
,
3001
0010
0100
0000
0011
0000
0110
0000
1000
0010
0100
0000
0101
0000
1010
0000
,
0001
0100
0010
0000
1010
0000
1010
0000
0100
0010
0100
0000
0011
0000
0011
0000
,
1000
0001
0100
0000
1010
0000
1010
0000
0010
1000
0010
0000
0101
0000
0101
0000
,
0001
0000
0000
1000
0000
0000
0001
0000
0000
0000
0000
0000
0110
0000
0000
0000
0000
0000
0110
0000
0000
0000
0000
0000
0011
0000
0000
0000
1000
0000
0000
0000
0110
0000
0000
0000
0001
0000
0000
0000
0110
0000
0000
0000
1000
0000
0000
0000
,
0011
0100
1000
0000
0110
0000
0110
0000
0001
1000
0010
0000
1001
0000
1001
0000
,
1000
0010
0100
0000
0110
0000
0110
0000
0001
0100
0010
0000
1100
0000
1100
0000
,
0010
0100
0001
0000
0101
0000
0101
0000
1000
0010
0100
0000
0110
0000
0110
0000
,
0002
0010
0100
1000
0010
0100
0010
0100
1000
0010
0103
1000
,
0011
1000
0001
1000
0001
0100
0010
1000
0001
1000
0001
0100
0010
1000
0001
0100
,
0011
0000
0000
0010
0100
0010
1001
0000
0100
0010
1000
0001
0100
0010
1000
0001
,
0110
0000
1000
0001
0100
0010
1000
0100
0010
0001
0100
0010
1000
0100
0010
0001
,
1100
0000
0000
0000
1010
0000
1001
0000
0000
0000
0110
0000
1000
0001
1000
0001
,
1100
0001
1000
0001
1000
0010
0100
0001
1000
0001
1000
0010
0100
0001
1000
0010
,
1100
0000
0000
0100
0010
0100
1001
0000
0010
0100
0001
1000
0010
0100
0001
1000
,
0110
0000
0001
1000
0010
0100
0001
0010
0100
1000
0010
0100
0001
0010
0100
1000
,
0011
0000
0000
0101
0000
2002
0000
0000
0000
0000
3000
0000
,
1103
0000
0010
0000
0100
0000
0011
0000
1000
0000
0010
0000
1010
0000
0100
0010
,
1001
0000
0100
0000
0010
0000
0011
0000
0100
0000
1000
0000
0101
0000
0010
0100
,
1010
0010
0100
0011
1000
0010
0110
0000
,
1002
0100
0010
0100
1000
0100
0010
0100
1000
0100
0010
0100
,
1003
0000
0000
0000
0011
0000
1010
0000
0101
0000
1000
0000
0110
0000
0001
0010
,
1100
0000
0010
0000
0110
0000
1001
0000
0010
0000
0100
0000
0011
0000
1000
0010
,
1100
0010
0101
1010
0010
0100
0011
1000
,
0011
1000
1000
0010
0001
0100
1000
0010
,
0011
0000
1010
0000
0001
1000
0010
0000
1100
0000
1100
0000
0010
0100
0001
0000
,
1100
0000
1100
0000
0010
0100
1000
0000
0011
0000
0011
0000
1000
0001
1000
0000
,
0110
0000
0110
0000
0001
0100
0010
0000
1100
0000
1100
0000
0010
0100
0001
0000
,
1100
0000
1100
0000
0011
0000
0011
0000
1000
0001
1000
0000
0100
0001
1000
0010
,
0101
0000
0101
0000
1000
0010
0100
0000
0011
0000
0011
0000
1000
0010
0100
0000
,
0011
1001
0110
1001
,
1010
0000
0000
0110
0000
0000
0011
0000
,
0001
0010
0100
1000
0100
0010
0001
1000
0001
1000
0010
0100
0001
0010
0100
1000
,
0011
0000
1000
0000
0110
0000
0001
0000
0101
0000
0010
0000
1010
0001
1000
0000
,
0110
0000
0010
0000
0101
0000
1010
0000
0010
0000
0100
0000
0011
0100
1000
0000
,
0011
0000
0100
0000
1010
0000
0101
0000
0010
0000
1000
0000
0110
1000
0001
0000
,
1001
0100
0011
0000
1100
0000
0011
0000
,
1100
0001
1000
0001
1000
0010
0100
0001
0010
0100
0010
0001
1000
0100
0010
0100
,
1000
0001
0100
0001
1000
0001
0100
0010
1000
0010
0100
0001
1000
0001
1000
0001
,
0100
0010
0100
0010
0100
0010
0100
0010
0100
0010
0100
0000
0110
0000
0110
0000
,
0110
0011
1100
0011
,
0101
0101
0101
0101
,
1010
1010
1010
1010
,
0110
0110
0110
0110
,
1001
1001
1001
1001
,
0001
0010
0100
1000
0100
0010
0001
1000
0001
0100
0010
1000
0010
1000
0010
0100
,
0011
1000
0010
0100
0001
1000
0001
1000
0010
0100
0001
0010
0100
0001
1000
0010
,
1100
0000
0000
0101
0000
0000
0011
0000
,
0011
0000
1010
0100
0010
0001
0010
0100
1001
0000
0000
0000
0010
0000
0000
0000
,
0011
0000
0011
0000
1000
0010
0100
0000
0011
0000
0011
0000
1000
0010
0100
0000
,
1010
0000
1010
0000
0100
0010
0100
0000
0011
0000
0011
0000
1000
0001
1000
0000
,
0101
0000
0101
0000
0010
0100
1000
0000
0110
0000
0110
0000
1000
0001
1000
0000
,
0011
0000
0011
0000
1000
0100
0010
0001
1000
0001
1000
0010
0100
0001
0010
0100
,
2010
0000
0001
0001
3000
0000
0110
0000
,
1001
0000
1100
0011
,
1100
0001
1000
0001
1000
0010
0100
0001
0020
0000
1030
0001
0100
0001
1000
0001
,
1000
0010
0100
0001
0010
0100
1000
0002
0000
0000
1003
0100
0010
0001
1000
0100
,
0010
0001
1000
0001
0100
0010
2000
0000
3010
0100
0001
1000
0010
0100
0001
0010
,
0100
1000
0100
0010
0001
1000
0002
0000
0103
1000
0010
0100
0001
0010
0100
1000
,
0010
0100
0001
0010
0100
1000
0200
0000
0310
0001
1000
0001
1000
0010
0100
0001
,
0010
0100
1000
0001
0100
0010
2000
0000
3010
0100
1000
0001
1000
0010
0100
0001
,
1000
0010
0100
0001
1000
0010
0200
0000
0301
1000
0010
0100
0001
1000
0001
1000
,
0110
0110
0000
0011
0011
0000
1001
1001
,
1010
0000
0000
0101
0000
0000
2020
0000
3030
0000
0000
0000
0011
0000
1001
0000
,
1000
0000
0100
0000
0010
0000
0001
0000
0000
0010
0000
0000
2000
0000
0000
0000
0000
0000
0010
0000
3000
0000
0000
0000
0000
0000
0000
0000
0000
0000
0001
0000
0000
0000
0000
0000
0010
0000
0000
0000
0000
0000
0001
0000
0000
0000
0000
0000
,
1000
0000
0100
0000
0010
0000
0001
0000
0000
0010
0000
0000
1000
0000
0000
0000
0000
0000
0020
0000
0000
0000
0000
0000
0000
0000
0000
0000
0000
0000
1031
0000
0000
0000
0000
0000
0110
0000
0000
0000
0000
0000
1001
0000
0000
0000
0000
0000
,
1010
0000
0000
0011
0000
0000
2020
0000
3030
0000
1001
0000
0110
0000
1010
0000
,
1010
0000
1001
0000
0000
0110
0000
0000
1010
0000
0011
0000
1010
0000
1001
0000
,
0010
0000
0001
1000
0010
0100
0001
2000
0000
3000
0011
0000
1010
0000
0101
0000
,
1010
0001
1000
1000
0100
0001
0001
0010
,
0210
0000
1002
0300
0000
0000
0000
0000
,
1103
0001
1000
0001
1000
0010
0100
0001
1000
0001
1000
0010
0100
0001
1000
0010
,
1100
0000
0000
0100
0010
0100
1001
0000
0010
0100
0001
1000
0010
0100
0001
1000
,
0110
0000
0001
1000
0010
0100
0001
0010
0100
1000
0010
0100
0001
0010
0100
1000
,
0011
0000
0000
0000
0101
0000
1001
0000
0000
0000
0110
0000
0001
1000
0001
1000
,
0011
1000
0001
1000
0001
0100
0010
1000
0001
1000
0001
0100
0010
1000
0001
0100
,
0011
0000
0000
0010
0100
0010
1001
0000
0100
0010
1000
0001
0100
0010
1000
0001
,
0110
0000
1000
0001
0100
0010
1000
0100
0010
0001
0100
0010
1000
0100
0010
0001
,
1100
0000
0000
1010
0000
2002
0000
0000
0000
0000
0003
0000
,
3001
0010
0100
0000
0011
0000
0110
0000
1000
0010
0100
0000
0101
0000
1010
0000
,
0001
0100
0010
0000
1010
0000
1010
0000
0100
0010
0100
0000
0011
0000
0011
0000
,
1000
0001
0100
0000
1010
0000
1010
0000
0010
1000
0010
0000
0101
0000
0101
0000
,
1000
0100
0010
0001
1000
0010
0100
0001
1000
0001
0010
0100
1000
0100
0010
0001
,
1100
0010
0011
0101
1001
0100
0110
0010
,
1001
0100
1010
1001
0010
0100
1100
0000
,
0110
0000
0011
0110
0000
1000
0000
0100
,
1010
0000
0010
0000
0011
0000
1010
0000
0001
0010
0100
1000
0100
0010
0001
0010
,
1100
0000
1100
0000
0010
0100
0010
0000
0101
0000
0101
0000
0010
1000
0100
0000
,
1010
0000
1010
0000
0100
0010
0100
0000
0011
0000
0011
0000
1000
0001
1000
0000
,
0110
0000
0110
0000
1000
0010
0100
0000
0101
0000
0101
0000
1000
0010
0100
0000
,
1010
0000
1010
0000
0010
0100
0001
0000
1100
0000
1100
0000
0010
0001
0100
0000
,
0011
0000
0011
0000
1000
0010
0100
0000
0011
0000
0011
0000
1000
0001
1000
0000
,
0110
0000
0110
0000
0001
0100
0010
0000
1010
0000
1010
0000
0100
0001
0010
0000
,
1100
0000
1100
0000
0010
0100
0001
0000
0011
0000
0011
0000
1000
0010
0001
0000
,
1001
0000
1001
0000
0010
0100
0001
0000
1000
0010
0100
0001
1000
0001
0100
0000
,
0011
0100
1010
0001
1100
0010
0101
1000
,
0110
0010
0101
0101
1000
0010
1001
0100
,
0011
1000
0101
0101
1000
0010
0101
0010
,
1100
0010
1001
0010
1010
0000
0101
0000
,
1010
0001
0100
0010
0001
1000
0010
0100
0001
1000
0001
1000
0010
0100
0001
1000
,
0011
1000
0010
0100
0001
1000
0010
0100
0001
1000
0010
1000
0001
0010
0100
0010
,
0001
1000
0001
1000
0001
1000
0001
1000
0001
1000
0001
0000
1001
0000
1001
0000
,
1001
1100
0011
0110
,
1100
1100
1100
1100
,
0011
0011
0011
0011
,
1001
1001
1001
1001
,
1010
1010
1001
1100
,
1000
0100
0010
0001
0010
0100
0010
0001
1000
0010
0100
0001
1000
0010
0100
0001
,
1100
0010
0100
0001
1000
0010
0100
0001
0010
0100
0010
0001
1000
0001
1000
0010
,
0101
0000
0000
1001
0000
0000
1010
0000
,
0011
0000
1010
0100
0010
0001
0010
0100
1000
0001
1000
0010
0100
0001
0010
0100
,
1010
0000
1010
0000
0001
0100
0010
0000
0110
0000
0110
0000
1000
0001
1000
0000
,
0011
0000
0011
0000
1000
0010
0100
0000
1010
0000
1010
0000
0100
0010
0100
0000
,
1001
0000
1001
0000
0010
0100
0001
0000
0110
0000
0110
0000
0001
1000
0001
0000
,
0101
0000
0101
0000
1000
0010
0100
0001
1000
0001
1000
0100
0010
0001
0010
0100
,
1001
0000
1001
0110
0000
0000
1001
0000
,
0110
0000
0011
1010
,
1001
0000
0110
2002
0000
0000
0000
3003
,
0110
0000
0011
1010
0011
1010
0011
1010
,
0101
0000
1010
0000
0011
0110
1001
1010
,
1001
0000
0110
1001
0011
1001
1010
1001
,
0110
0000
1010
0000
0101
0101
0202
0300
,
1103
0000
0011
1010
0011
1010
0011
1010
,
1001
0000
0110
0000
0011
1010
1001
1010
,
1001
0000
1010
0110
0101
0011
1100
0011
,
0110
0000
1001
0000
1010
0110
2002
0003
,
3011
1010
0011
1010
0011
1010
0011
1010
,
0101
1010
0101
1010
0101
1010
0101
1010
,
0011
0110
1100
0000
0011
0000
0110
0000
,
2000
3020
0230
0302
0000
0000
0000
0003
,
1010
1000
1010
0000
0011
0000
1100
0000
,
0002
0203
0320
2030
0000
3200
0000
0000
,
0311
0011
0010
0001
1000
0010
0100
0001
,
0011
0011
1000
0010
0001
0100
1000
0010
,
0100
1001
1001
0010
0100
1001
1001
0100
,
1010
0000
0010
0100
1001
0000
0000
0000
0110
0000
0001
0100
1010
0000
0000
0000
,
1010
0010
0101
0101
0001
1000
0110
0110
,
1100
0000
0010
1000
0011
0000
0000
0000
0110
0000
0010
0001
1010
0000
0000
0000
,
1100
0011
1100
1001
0110
0110
1001
0110
,
0101
1001
0110
0101
1100
0011
1100
0110
,
0020
0230
2300
3110
0000
0202
0000
0300
,
1103
0110
0011
1100
0000
0012
0000
0000
,
1103
0010
0100
0001
1100
0000
0000
0000
0011
0100
1000
0010
0101
0000
0000
0000
,
1100
0000
0000
0000
0001
0000
0000
0000
0100
0000
0000
0000
0001
0000
0000
0010
0000
0000
0100
0000
0000
1000
0000
0000
0100
0000
0000
0010
0000
0000
0001
0000
0000
1000
0000
0000
0011
0000
0000
0000
0000
0000
0000
0000
0000
0000
0000
0000
,
1100
0010
0100
0001
1100
0000
0000
0000
0011
0100
1000
0010
0101
0000
0000
0000
,
1100
0000
0000
0000
0001
0000
0000
0000
0100
0000
0000
0000
0001
0000
0000
1000
0000
0000
0010
0000
0000
0100
0000
0000
0001
0000
0000
1000
0000
0000
0010
0000
0000
0100
0000
0000
0001
0000
0000
1000
0000
0000
0001
0000
0000
0100
0000
0000
,
0012
0000
0000
1000
1013
0000
0000
0000
2010
0000
0000
0001
3101
0000
0000
0000
,
0011
1000
0010
0100
0001
1000
0001
1000
0010
0100
0001
0010
1100
0000
0000
0000
,
1100
0001
1000
0001
1100
0000
0000
0000
0011
1000
0001
1000
0011
0000
0000
0000
,
1100
0010
0001
0100
0010
0100
1000
0100
0010
0001
1000
0001
1100
0000
0000
0000
,
1100
0000
0010
0000
0001
0000
1000
0000
0000
0100
0000
0000
0010
0000
0000
0001
0000
0000
0100
0000
0000
0010
0000
0000
0100
0000
0000
1000
0000
0000
0100
0000
0000
0010
0000
0000
0001
0000
0000
0100
0000
0000
0010
0000
0000
0100
0000
0000
,
1000
0100
0010
0001
0010
0100
0010
0001
1000
0010
0100
0001
2000
0000
0000
0000
,
3011
0000
0100
0000
1000
0000
0100
0000
0000
0010
0000
0000
0001
0000
0000
0010
0000
0000
0100
0000
0000
1000
0000
0000
0100
0000
0000
0010
0000
0000
0100
0000
0000
1000
0000
0000
0001
0000
0000
0100
0000
0000
0001
0000
0000
0010
0000
0000
,
0001
0010
0100
1000
0010
0100
0001
1000
0002
0000
0000
0000
1103
0000
0000
0000
,
0011
0001
0011
1001
1010
0001
1100
0110
,
0101
0000
1001
1001
2001
0000
0000
3000
,
0011
0000
0100
0000
1000
0000
0000
0000
0010
0000
0000
0000
0100
0000
0000
0001
0000
0000
1000
0000
0000
0010
0000
0000
0100
0000
0000
0001
0000
0000
0100
0000
0000
1000
0000
0000
0011
0000
0000
0000
0000
0000
0000
0000
0000
0000
0000
0000
,
2100
0010
0001
0100
3020
0001
1000
0100
0032
1000
0100
0010
2003
0000
0000
0000
,
3011
0000
1010
0000
2001
0000
3011
1000
,
0010
0001
1100
0020
0000
0130
0011
0001
,
0011
1100
0011
1100
,
0001
0010
1000
0011
0000
1000
0010
0001
,
1000
0010
0010
0010
0001
0100
1000
0010
,
0100
0001
0001
0001
0010
0100
2000
3000
,
0010
0100
0001
0010
0100
1000
0010
0100
,
0001
0010
0001
0000
0010
0100
0010
0000
1000
0100
1000
0000
0010
0100
0010
0000
,
1001
0000
0010
0000
0100
0000
1000
0000
0000
0001
0000
0000
1000
0000
0000
0010
0000
0000
0100
0000
0000
0010
0000
0000
1000
0000
0000
0001
0000
0000
1000
0000
0000
0010
0000
0000
0100
0000
0000
0001
0000
0000
1000
0000
0000
0010
0000
0000
,
0101
0000
1000
0000
0010
0000
0100
0000
0000
0001
0000
0000
1000
0000
0000
0001
0000
0000
0100
0000
0000
0010
0000
0000
1000
0000
0000
0010
0000
0000
0100
0000
0000
0001
0000
0000
1000
0000
0000
0001
0000
0000
0100
0000
0000
0010
0000
0000
,
1100
0000
0001
0000
0010
0000
0100
0000
0000
1000
0000
0000
0010
0000
0000
0100
0000
0000
0001
0000
0000
1000
0000
0000
0100
0000
0000
0010
0000
0000
0001
0000
0000
0010
0000
0000
0100
0000
0000
1000
0000
0000
0010
0000
0000
0100
0000
0000
,
0022
0000
0000
0000
0000
0000
0000
0000
0000
0000
0000
0000
0030
0000
0000
0003
,
1001
0000
0010
0000
0100
0000
1000
0000
0000
0001
0000
0000
1000
0000
0000
0010
0000
0000
0100
0000
0000
0010
0000
0000
1000
0000
0000
0001
0000
0000
1000
0000
0000
0010
0000
0000
0100
0000
0000
0001
0000
0000
1000
0000
0000
0010
0000
0000
,
0101
0000
1000
0000
0010
0000
0100
0000
0000
0001
0000
0000
1000
0000
0000
0001
0000
0000
0100
0000
0000
0010
0000
0000
1000
0000
0000
0010
0000
0000
0100
0000
0000
0001
0000
0000
1000
0000
0000
0001
0000
0000
0100
0000
0000
0010
0000
0000
,
1100
0000
0001
0000
0010
0000
0100
0000
0000
1000
0000
0000
0010
0000
0000
0100
0000
0000
0001
0000
0000
1000
0000
0000
0100
0000
0000
0010
0000
0000
0001
0000
0000
0010
0000
0000
0100
0000
0000
1000
0000
0000
0010
0000
0000
0100
0000
0000
,
0022
0000
0000
0000
0000
0000
0000
0000
0000
0000
0000
0000
0030
0000
0000
0003
,
1100
0000
0010
0000
0001
0000
1000
0000
0000
0010
0000
0000
0100
0000
0000
0001
0000
0000
1000
0000
0000
0001
0000
0000
0100
0000
0000
0001
0000
0000
1000
0000
0000
0100
0000
0000
0010
0000
0000
0100
0000
0000
1000
0000
0000
0010
0000
0000
,
0101
0000
1000
0000
0010
0000
0100
0000
0000
0001
0000
0000
1000
0000
0000
0001
0000
0000
0100
0000
0000
0010
0000
0000
0001
0000
0000
0010
0000
0000
0100
0000
0000
1000
0000
0000
0010
0000
0000
0100
0000
0000
0001
0000
0000
1000
0000
0000
,
0011
0000
1000
0000
0100
0000
0010
0000
0000
0001
0000
0000
1000
0000
0000
0010
0000
0000
0100
0000
0000
0001
0000
0000
1000
0000
0000
0010
0000
0000
0100
0000
0000
0001
0000
0000
0010
0000
0000
0001
0000
0000
1000
0000
0000
0010
0000
0000
,
0101
0000
1000
0000
0010
0000
0100
0000
0000
0001
0000
0000
1000
0000
0000
0100
0000
0000
1000
0000
0000
0010
0000
0000
0100
0000
0000
0001
0000
0000
1000
0000
0000
0010
0000
0000
0100
0000
0000
0001
0000
0000
1000
0000
0000
0010
0000
0000
,
1100
0000
0010
0000
0001
0000
1000
0000
0000
0010
0000
0000
0100
0000
0000
0001
0000
0000
1000
0000
0000
0001
0000
0000
0100
0000
0000
0001
0000
0000
1000
0000
0000
0100
0000
0000
0010
0000
0000
0100
0000
0000
1000
0000
0000
0010
0000
0000
,
0101
0000
1000
0000
0010
0000
0100
0000
0000
0001
0000
0000
1000
0000
0000
0001
0000
0000
0100
0000
0000
0010
0000
0000
0001
0000
0000
0010
0000
0000
0100
0000
0000
1000
0000
0000
0010
0000
0000
0100
0000
0000
0001
0000
0000
1000
0000
0000
,
0011
0000
1000
0000
0100
0000
0010
0000
0000
0001
0000
0000
1000
0000
0000
0010
0000
0000
0100
0000
0000
0001
0000
0000
1000
0000
0000
0010
0000
0000
0100
0000
0000
0001
0000
0000
0010
0000
0000
0001
0000
0000
1000
0000
0000
0010
0000
0000
,
0101
0000
1000
0000
0010
0000
0100
0000
0000
0001
0000
0000
1000
0000
0000
0100
0000
0000
1000
0000
0000
0010
0000
0000
0100
0000
0000
0001
0000
0000
1000
0000
0000
0010
0000
0000
0100
0000
0000
0001
0000
0000
1000
0000
0000
0010
0000
0000
,
1100
0001
1000
0100
0011
0000
1100
0010
1000
0010
0100
0001
0110
0000
0011
0000
,
1001
0010
0100
0001
1100
0000
0011
1000
0010
0100
0001
1000
0110
0000
0011
0000
,
1100
0000
1100
0010
0001
0010
0100
1000
0010
0100
0001
0010
0100
1000
0001
1000
,
0011
0011
1100
0011
0011
1010
1001
0110
,
1100
0001
1000
0100
0011
0000
1100
0010
1000
0010
0100
0001
0110
0000
0011
0000
,
1001
0010
0100
0001
1100
0000
0011
1000
0010
0100
0001
1000
0110
0000
0011
0000
,
1100
0000
1100
0010
0001
0010
0100
1000
0010
0100
0001
0010
0100
1000
0001
1000
,
0011
0011
1100
0011
0011
1010
1001
0110
,
1100
0010
0101
1000
0110
0001
1100
0010
0101
1000
0110
0001
1100
0010
1001
0100
,
0011
1000
0110
0001
1100
0010
0101
1000
0011
0100
1010
0001
0110
1000
0011
0100
,
1010
0001
0110
1000
0011
0100
1001
0010
1100
0001
0110
1000
0011
0100
1010
0001
,
1100
0010
0101
1000
0110
0001
1100
0010
0101
1000
0110
0001
1100
0010
1001
0100
,
0011
1000
0110
0001
1100
0010
0101
0010
1100
0010
0101
1000
0110
0001
1100
0010
,
0101
1000
0110
0001
1100
0010
1001
0100
0011
1000
0110
0001
1100
0010
0101
0010
,
1001
0100
0010
0100
1001
0010
0100
0010
1001
0100
0010
0100
1001
0010
0100
0010
,
1001
0100
0010
0100
1001
0010
0100
0010
1100
0000
0010
0100
1001
0000
0000
0000
,
0011
0011
1100
1100
0110
0110
1010
1010
,
0001
0000
0012
0000
0003
0000
0011
0000
1000
0100
0010
0001
2000
0000
3000
0000
,
0011
0000
1000
0100
0010
0001
0010
0100
1000
0010
0100
0001
0010
0100
1000
0100
,
0011
0000
0011
0000
0000
1100
0000
0000
0011
0000
0012
0000
0000
0000
0003
0000
,
1100
0000
0001
0010
0001
0000
1100
0000
1100
0000
0011
0000
0110
0000
0001
0000
,
1100
0000
0011
0000
1000
0100
0010
0001
0010
0100
1000
0001
2000
0000
0000
0000
,
3001
0001
0001
1000
0010
0001
1000
0010
,
0101
1000
0010
0000
1100
0000
0001
0010
0001
0000
1100
0000
1100
0000
0010
0000
,
0011
0000
0000
0001
1000
0010
0100
0000
0000
1001
0000
0000
,
2100
3210
0321
0132
,
1003
0000
0000
0000
0010
0000
0000
0000
0001
0000
0000
0000
0010
0000
0000
0000
0100
0000
0000
0000
1000
0000
0000
0000
0001
0000
0000
0100
0000
0000
0010
0000
0000
0000
0000
0000
1000
0000
0000
0000
0010
0000
0000
0000
0100
0000
0000
0000
,
2002
0000
0000
0000
0000
0003
0000
3000
,
0011
0000
0000
0000
1000
0000
0000
0000
0010
0000
0000
0000
0001
0000
0000
0010
0000
0000
0100
0000
0000
1000
0000
0000
0010
0000
0000
0000
0100
0000
0000
0000
0001
0000
0000
0000
1000
0000
0000
0000
0010
0000
0000
0000
0100
0000
0000
0000
,
0001
0000
0000
0010
0000
0000
0100
0000
0000
1000
0000
0000
0100
0000
0000
0010
0000
0000
0001
0000
0000
0010
0000
0000
0100
0000
0000
0000
1000
0000
0000
0000
0010
0000
0000
0000
0100
0000
0000
0000
0001
0000
0000
0000
1000
0000
0000
0000
,
0012
0000
0003
0000
1100
0000
0000
0000
0011
0000
0000
0000
1100
0000
0000
0011
0000
0000
0110
0000
0000
0101
0000
0000
,
2100
0010
0001
0010
0100
0010
0001
0010
0100
3010
0001
0010
0100
1000
0001
1000
,
0011
1000
0100
0010
0001
1000
0001
1000
0010
0100
0001
0010
0200
0000
0000
0000
,
0301
0010
0100
1000
0010
0100
0001
1000
0001
1000
0010
0100
0002
0000
0000
0000
,
1003
0100
0010
0001
0010
0100
1000
0010
0100
0001
1000
0100
1000
0010
0100
0001
,
1000
0100
1000
0100
1010
0000
0202
0000
0313
1000
0010
1000
0101
0000
0202
0000
,
1313
1000
1010
2001
0000
3011
1010
1001
,
1020
0030
1100
0110
0000
0110
0011
0000
,
0101
1000
0010
0102
0000
1003
0010
0100
,
0012
0000
2103
0000
0001
0000
0001
0000
3100
0010
0001
1000
0100
0010
0001
0010
,
1100
1000
1100
0012
0000
1003
1010
1000
,
1010
0100
0011
0002
0000
1003
1100
1000
,
0001
0010
1100
0001
0010
1100
0001
0010
,
1100
0010
0001
0110
1000
0100
0011
1000
,
0011
0100
1000
0010
0100
0001
1000
0010
0100
0001
1000
0100
0011
0000
2000
0000
,
3011
1000
0010
0100
0001
1000
0010
0100
1000
0010
0100
1000
0011
0000
2000
0000
,
3001
0010
0100
1000
0100
0010
0001
1000
0010
0100
0001
1000
0010
0100
0010
1000
,
0100
0010
0001
0010
0100
0010
0001
1000
0010
0100
0001
1000
0010
0100
0001
1000
,
0101
0000
1000
0000
0010
0000
0100
0000
0000
0001
0000
0000
1000
0000
0000
0010
0000
0000
0100
0000
0000
0010
0000
0000
1100
0000
0010
0000
0001
0000
0100
0000
0000
1000
0000
0000
0010
0000
0000
0100
0000
0000
0001
0000
0000
1000
0000
0000
,
0110
0000
0001
0000
1000
0000
0010
0000
0000
0100
0000
0000
0001
0000
0000
1000
0000
0000
0010
0000
0000
0100
0000
0000
0011
0000
1000
0000
0100
0000
0010
0000
0000
0001
0000
0000
1000
0000
0000
0010
0000
0000
0100
0000
0000
0001
0000
0000
,
1100
0000
0010
0000
0100
0000
1000
0000
0000
0001
0000
0000
0100
0000
0000
0010
0000
0000
1000
0000
0000
0001
0000
0000
0110
0000
0001
0000
1000
0000
0001
0000
0000
0100
0000
0000
0010
0000
0000
1000
0000
0000
0001
0000
0000
1000
0000
0000
,
0110
0000
1000
0000
0100
0000
0010
0000
0000
0001
0000
0000
1000
0000
0000
0010
0000
0000
0100
0000
0000
0001
0000
0000
1100
0000
0001
0000
0010
0000
0100
0000
0000
1000
0000
0000
0010
0000
0000
0100
0000
0000
0001
0000
0000
1000
0000
0000
,
0011
1000
0100
0010
0001
0010
0100
1000
0010
0100
0001
1000
0010
0100
0001
1000
,
0100
0010
0001
0010
0100
0010
0001
1000
0011
0000
0000
0000
1010
0000
0110
0000
,
1001
0000
0100
0000
0010
0000
0001
0000
0000
1000
0000
0000
0010
0000
0000
0000
0001
0000
0000
0000
0010
0000
0000
0000
0100
0000
0000
0000
1000
0000
0010
0000
0000
0100
0000
0000
0001
0000
0000
1000
0000
0000
0010
0000
0000
0100
0000
0000
,
0001
0010
0100
1000
0010
0100
0002
0000
0000
0000
0000
0000
,
1103
0000
0000
0010
0000
0000
0100
0000
0000
0001
0000
0000
1000
0000
0100
0000
0010
0000
0001
0000
0000
1000
0000
0000
0010
0000
0000
0100
0000
0000
0001
0000
0000
1000
0000
0000
0010
0000
0000
0100
0000
0000
0001
0000
0000
0010
0000
0000
,
0001
1000
0100
0010
0100
1000
0010
0100
0002
0000
0000
0000
0010
0000
0010
0000
,
1103
0000
0010
0000
0100
0000
0001
0000
0000
1000
0000
0000
0010
0000
0000
0100
0000
0000
0001
0000
0000
1000
0000
0000
0001
0000
0010
0000
0100
0000
1000
0000
0000
0010
0000
0000
0100
0000
0000
0001
0000
0000
1000
0000
0000
0010
0000
0000
,
0100
0001
1000
0001
0110
0000
0110
0000
0011
0000
0110
0000
2100
0000
0000
0000
,
3011
1000
0110
1001
1010
1001
0100
1010
,
0101
1000
0011
0110
1001
0110
1010
0001
,
1100
0011
1100
0101
0011
1001
0101
1010
,
1100
0011
0110
1001
1001
0010
0001
1000
,
0011
0000
1001
0000
1010
0000
0011
1100
,
0011
1010
1001
0201
0000
0000
0311
1000
,
0001
0000
0000
0000
0010
0000
0000
0000
0100
0000
0000
0000
1000
0000
0000
0010
0000
0000
0001
0000
0000
0010
0000
0000
1000
0000
0000
0010
0000
0000
0100
0000
0000
0001
0000
0000
1000
0000
0000
0001
0000
0000
1000
0000
0000
0001
0000
0000
,
1000
0000
0000
0000
0100
0000
0000
0000
0010
0000
0000
0000
0001
0000
0000
0010
0000
0000
0100
0000
0000
1000
0000
0000
0001
0000
0000
0100
0000
0000
0001
0000
0000
1000
0000
0000
0020
0000
0000
0000
0000
0000
0000
0000
0000
0000
0000
0000
,
1030
0100
0010
1000
0001
0010
0100
1000
0010
0100
0001
1000
,
0001
0000
0000
0010
0000
0000
0100
0000
0000
1000
0000
0000
0010
0000
0000
0000
0001
0000
0000
0000
0100
0000
0000
0000
1000
0000
0000
0000
0010
0000
0000
0000
0001
0000
0000
0000
1100
0000
0000
0000
0000
0000
0000
0000
0000
0000
0000
0000
,
0012
0000
0000
1103
2100
0000
0000
0011
,
3100
0011
0011
1100
1010
1001
2002
0003
,
3001
0000
0010
0000
0100
0000
1000
0000
0100
0000
0010
0000
0001
0000
0000
1000
0000
0000
0010
0000
0000
0100
0000
0000
0001
0000
0000
1000
0000
0000
0010
0000
0000
0100
0000
0000
0001
0000
0000
1000
0000
0000
0010
0000
0000
0100
0000
0000
,
0001
0000
0010
0000
0100
0000
1000
0000
0001
0000
1000
0000
0001
0000
0000
0010
0000
0000
0100
0000
0000
1000
0000
0000
0010
0000
0000
0100
0000
0000
0001
0000
0000
1000
0000
0000
0100
0000
0000
0010
0000
0000
0100
0000
0000
1000
0000
0000
,
0011
0100
0010
1000
0001
1000
0010
1000
0110
0001
1000
0010
0101
0010
1000
0001
,
0110
0000
0000
1000
0000
0000
0010
0000
0000
0100
0000
0000
0012
0000
0000
0000
0100
0000
0000
0000
1000
0000
0000
0000
0213
0000
0000
0000
0001
0000
0000
0000
1000
0000
0000
0000
2310
0000
0000
0000
0001
0000
0000
0000
0010
0000
0000
0000
,
3101
0000
0000
0101
0000
0000
1010
0000
,
0011
1001
0000
0000
0011
0000
1100
0000
,
1010
0000
0000
2001
0000
3000
0110
0000
,
0011
1010
0000
0000
0012
0000
2003
0000
,
0010
0000
0001
0010
0000
3000
0110
0000
,
1010
0000
0011
2010
0000
3000
1010
0000
,
0011
0000
0000
0011
0000
0000
0011
0000
,
1010
2001
0000
3000
0011
0000
0001
0000
,
0012
0010
0010
0010
,
0213
0010
0010
0010
,
2310
0010
0010
0010
,
3012
0010
0113
1100
,
0011
0100
1000
0010
0100
0001
0010
0100
0010
0001
1000
0010
0100
0001
1000
0010
,
0100
0001
1000
0100
0010
0100
1000
0001
1000
0001
0100
0010
1100
0000
0000
0000
,
0101
0000
0000
1100
0000
0000
0011
0000
,
1010
0100
0010
0001
0010
0100
1000
0100
0010
0001
1000
0001
1000
0100
0010
0001
,
1100
0000
1100
0000
0010
0100
0010
0000
0101
0000
0101
0000
1000
0010
0100
0000
,
1010
0000
1010
0000
0100
0010
0100
0000
1010
0000
1010
0000
0100
0001
0100
0000
,
0011
0000
0011
0000
1000
0001
0010
0000
1010
0000
1010
0000
0100
0010
0001
0000
,
0110
0000
0110
0000
1000
0010
0100
0000
0101
0000
0101
0000
1100
0000
0000
0000
,
0011
0000
0110
2001
0000
0000
0010
0000
,
3102
0000
1103
0110
,
0011
0000
0000
0000
0110
0000
0001
1000
0001
1000
0001
1000
0001
1000
0001
1000
,
0001
0010
0100
1000
0100
0010
0001
1000
0010
0100
0001
1000
0001
1000
0010
0100
,
0011
0000
0110
2001
0000
3000
1010
0000
,
0102
0000
1103
0110
,
0011
0100
1000
0100
0010
0001
1000
0001
1000
0010
0100
0001
1000
0010
0100
0001
,
1100
0000
0011
0000
0110
0000
2002
0000
0000
0000
0000
0000
,
0000
3003
0000
0000
0000
0000
0000
0000
;
